VERSION	0.00.00	1.04.00
FES_MODE	0
BPM_DEF	184.000	184.000	184.000	184.000
MET_DEF	4	4
RESOLUTION	384
CLK_DEF	384
COMPATIBLE_CODE	MA2

BPM	0	0	184.000
MET	0	0	4	4

NMTHO	1	0	0	192	C	0	M1
BXTAP	1	288	0
BXTAP	1	288	7
NMTAP	2	0	1
NMTAP	2	96	0
NMTAP	2	96	1
NMTAP	2	192	7
NMTAP	2	288	0
NMTAP	2	288	6
NMTAP	3	0	5
NMTAP	3	96	6
NMTAP	3	96	7
NMTAP	3	192	0
NMTAP	3	288	1
NMTAP	3	288	7
NMTAP	4	0	2
NMTAP	4	96	0
NMTAP	4	96	1
NMTAP	4	192	7
NMTAP	4	288	0
NMTAP	4	288	6
NMTAP	5	0	5
NMTAP	5	96	4
NMTAP	5	96	5
NMTAP	5	192	3
NMTAP	5	288	2
NMTAP	5	288	4
NMTAP	6	0	5
NMTAP	6	96	6
NMTAP	6	96	7
NMTAP	6	192	0
NMTAP	6	288	1
NMTAP	6	288	7
NMTAP	7	0	2
NMTAP	7	96	0
NMTAP	7	96	1
NMTAP	7	192	7
NMTAP	7	288	0
NMTAP	7	288	6
NMTAP	8	0	5
NMTAP	8	96	4
NMTAP	8	96	6
NMTAP	8	192	2
NMTAP	8	288	1
NMTAP	8	288	3
NMTAP	9	0	4
NMTAP	9	48	4
NMTAP	9	96	3
BXTAP	9	192	2
BXTAP	9	192	6
NMTAP	10	0	4
NMHLD	10	0	5	768
NMTAP	10	96	4
NMTAP	10	192	3
NMTAP	10	288	3
NMTAP	11	0	4
NMTAP	11	96	4
NMTAP	11	192	3
NMTAP	11	288	4
NMSTR	12	0	4
NMSI_	12	0	4	96	96	6
CNSI_	12	192	6	0	96	0
CNSI_	12	288	0	0	96	2
NMTAP	13	192	2
NMTAP	13	192	4
NMTAP	13	288	2
NMTAP	13	288	4
NMHLD	14	0	1	192
NMTAP	14	96	3
NMTAP	14	192	3
NMTAP	14	288	2
NMTAP	14	288	4
NMHLD	15	0	5	192
NMTAP	15	96	4
NMTAP	15	192	4
NMTAP	15	288	4
NMTAP	15	288	5
NMSTR	16	0	6
NMSI_	16	0	6	96	96	0
CNSI_	16	192	0	0	96	4
CNSI_	16	288	4	0	96	2
EXTAP	17	192	0
EXTAP	17	192	5
NMTAP	18	0	1
NMTAP	18	0	4
NMTAP	18	96	2
NMTAP	18	96	3
NMTAP	18	192	5
NMTAP	18	240	5
NMTAP	18	288	4
NMTAP	19	0	3
NMTAP	19	0	6
NMTAP	19	96	4
NMTAP	19	96	5
NMTAP	19	192	2
NMTAP	19	240	2
NMTAP	19	288	3
NMSTR	20	0	4
NMSI_	20	0	4	96	96	2
NMTAP	20	0	5
CNSI_	20	192	2	0	96	5
CNSI_	20	288	5	0	96	0
EXTAP	21	192	1
EXTAP	21	192	7
NMTAP	21	288	6
NMHLD	22	0	5	96
NMTAP	22	96	4
NMHLD	22	192	2	96
NMTAP	22	288	3
NMHLD	23	0	6	96
EXTAP	23	96	7
NMHLD	23	192	1	96
NMTAP	23	288	0
NMTAP	24	0	2
NMSTR	24	0	7
NMSCL	24	0	7	96	96	4
CNSI_	24	192	4	0	96	0
CNSCR	24	288	0	0	96	3
EXTAP	25	192	2
EXTAP	25	192	4
NMTAP	26	0	0
NMTAP	26	0	1
NMTTP	26	96	3	B	0	M1
NMTTP	26	96	4	B	1	M1
NMTTP	26	96	5	B	0	M1
EXSTR	26	288	6
NMSXR	26	288	6	96	192	7
NMTAP	26	288	7
NMTAP	28	0	6
NMTAP	28	0	7
NMTTP	28	96	2	B	0	M1
NMTTP	28	96	3	B	1	M1
NMTTP	28	96	4	B	0	M1
EXSTR	28	288	1
NMSXL	28	288	1	96	192	0
NMHLD	30	0	6	96
NMHLD	30	0	7	96
NMHLD	30	192	0	96
NMHLD	30	192	7	96
NMHLD	31	0	0	96
NMHLD	31	0	1	96
NMHLD	31	192	2	96
NMHLD	31	192	7	96
NMTTP	32	0	2	E	0	M1
NMTTP	32	96	3	E	0	M1
NMTTP	32	192	6	E	0	M1
NMTTP	32	288	5	E	0	M1
NMTHO	33	0	0	192	C	0	M1
EXHLD	34	0	0	96
EXHLD	34	0	7	96
NMTAP	34	192	1
NMTAP	34	192	6
NMTAP	35	0	2
NMTAP	35	0	3
NMTAP	35	96	4
NMTAP	35	96	5
NMTAP	35	192	0
NMTAP	35	192	7
NMTAP	35	288	0
NMTAP	35	288	7
BRTAP	36	0	0
BRTAP	36	0	1
NMTAP	36	96	6
NMTAP	36	96	7
NMTAP	36	192	0
NMTAP	36	192	5
NMTAP	36	288	1
NMHLD	36	336	1	96
NMTAP	37	48	0
NMTAP	37	96	0
NMTAP	37	192	1
NMTAP	37	192	7
BRTAP	37	288	0
BRTAP	37	288	5
NMTAP	38	0	4
NMTAP	38	0	6
NMTAP	38	96	2
NMTAP	38	96	3
NMTAP	38	192	0
NMTAP	38	192	1
NMSTR	38	288	6
NMSCL	38	288	6	96	96	3
NMSTR	38	288	7
NMSCR	38	288	7	96	96	2
EXTAP	39	192	2
EXTAP	39	192	3
BRTAP	39	288	1
BRTAP	39	288	4
NMTAP	40	0	0
NMTAP	40	0	5
NMTAP	40	96	1
NMTAP	40	96	6
NMTAP	40	192	2
NMTAP	40	192	7
NMTAP	40	288	6
NMHLD	40	336	6	96
NMTAP	41	48	7
NMTAP	41	96	7
NMTAP	41	192	0
NMTAP	41	192	6
BRTAP	41	288	2
BRTAP	41	288	7
NMTAP	42	0	1
NMTAP	42	0	3
NMTAP	42	96	3
NMTAP	42	96	4
NMTAP	42	192	4
NMTAP	42	192	6
NMTAP	42	288	0
NMTAP	42	288	7
BRTAP	43	0	0
BRTAP	43	0	1
BRTAP	43	96	0
BRTAP	43	96	1
BRTAP	43	192	2
BRTAP	43	192	6
NMTAP	44	0	0
NMTAP	44	0	5
NMTAP	44	96	2
NMTAP	44	96	3
NMTAP	44	192	4
NMTAP	44	192	5
NMTAP	44	288	6
NMHLD	44	336	6	96
NMTAP	45	48	7
NMTAP	45	96	7
NMTAP	45	192	0
NMTAP	45	192	5
BRTAP	45	288	2
BRTAP	45	288	7
NMTAP	46	0	4
NMTAP	46	0	5
NMTAP	46	96	4
NMTAP	46	96	5
NMTAP	46	192	2
NMTAP	46	192	3
NMSTR	46	288	0
NMSCL	46	288	0	96	96	5
NMSTR	46	288	1
NMSCR	46	288	1	96	96	4
EXTAP	47	192	4
EXTAP	47	192	5
BRTAP	47	288	3
BRTAP	47	288	6
NMTAP	48	0	2
NMTAP	48	0	7
NMTAP	48	96	1
NMTAP	48	96	6
NMTAP	48	192	0
NMTAP	48	192	5
NMTAP	48	288	1
NMHLD	48	336	1	96
NMTAP	49	48	0
NMTAP	49	96	0
NMTAP	49	192	6
NMTAP	49	192	7
BRTAP	49	288	0
BRTAP	49	288	5
NMHLD	50	0	1	96
NMHLD	50	96	3	96
NMHLD	50	192	4	96
NMTAP	50	288	6
BRTAP	51	0	0
BRTAP	51	0	7
BRTAP	51	96	0
BRTAP	51	96	7
BRTAP	51	192	1
BRTAP	51	192	6
BRSTR	51	288	3
BRSCL	51	288	3	96	144	0
BRSTR	51	288	4
BRSCR	51	288	4	96	144	7
NMHLD	53	0	1	384
NMTAP	53	288	3
NMHLD	54	0	3	384
NMTAP	54	288	4
NMHLD	55	0	4	384
NMTAP	55	288	5
NMHLD	56	0	5	288
NMTAP	56	288	4
NMTAP	57	0	6
NMSTR	57	48	6
NMSI_	57	48	6	96	96	2
CNSI_	57	240	2	0	96	4
CNSI_	57	336	4	0	96	0
EXTAP	58	240	0
EXTAP	58	240	7
NMTAP	59	0	1
NMSTR	59	48	1
NMSI_	59	48	1	96	96	5
CNSI_	59	240	5	0	96	3
CNSI_	59	336	3	0	96	7
EXTAP	60	240	0
EXTAP	60	240	6
NMTAP	61	0	2
NMSTR	61	48	2
NMSI_	61	48	2	96	96	6
CNSI_	61	240	6	0	96	0
CNSI_	61	336	0	0	96	4
EXTAP	62	240	3
EXTAP	62	240	5
NMHLD	63	0	6	96
NMHLD	63	144	6	96
NMHLD	63	144	7	96
NMTAP	63	288	0
NMTAP	63	288	5
NMHLD	64	0	1	96
NMHLD	64	144	0	96
NMHLD	64	144	1	96
NMTAP	64	288	2
NMSTR	64	288	7
NMSV_	64	288	7	96	144	2
NMSV_	64	288	7	96	144	4
EXTAP	65	288	1
EXTAP	65	288	5
NMHLD	66	0	2	96
NMTAP	66	96	3
NMTAP	66	192	5
NMTAP	66	240	5
NMTAP	66	288	4
NMHLD	67	0	1	96
NMTAP	67	96	3
NMTAP	67	192	6
NMTAP	67	240	6
NMTAP	67	288	7
NMTAP	68	0	0
NMSTR	68	0	5
NMSCL	68	0	5	96	96	2
NMSTR	68	192	1
NMSCL	68	192	1	96	96	6
NMSTR	69	0	5
NMSCL	69	0	5	96	96	2
NMTAP	69	192	0
NMTAP	69	240	0
NMTAP	69	288	0
NMHLD	70	0	1	96
NMTAP	70	96	3
NMTAP	70	192	5
NMTAP	70	240	5
NMTAP	70	288	4
NMTAP	70	288	6
NMHLD	71	0	5	96
NMTAP	71	96	4
NMTAP	71	192	2
NMTAP	71	240	2
NMTAP	71	288	1
NMTAP	71	288	3
NMTAP	72	0	0
NMTAP	72	48	0
NMTAP	72	96	6
NMTAP	72	144	6
NMTAP	72	192	1
NMTAP	72	240	1
NMTAP	72	288	7
NMTAP	72	336	7
NMTAP	73	0	0
NMTAP	73	0	7
NMTAP	73	48	0
NMTAP	73	48	7
NMTAP	73	96	0
NMTAP	73	96	7
EXTAP	73	192	1
EXTAP	73	192	6
NMTAP	74	0	2
NMHLD	74	0	5	384
NMTTP	74	192	5	E	0	M1
NMTTP	74	288	6	E	0	M1
NMTTP	75	0	7	E	0	M1
NMTTP	75	96	0	E	0	M1
NMTTP	75	192	1	B	0	M1
NMTTP	75	192	1	E	0	M1
NMHLD	76	0	2	384
NMTAP	76	0	3
NMTTP	76	192	3	E	0	M1
NMTTP	76	288	2	E	0	M1
NMTTP	77	0	1	E	0	M1
NMTTP	77	96	0	E	0	M1
NMTTP	77	192	6	B	0	M1
NMTTP	77	192	7	E	0	M1
NMTAP	78	0	3
NMHLD	78	0	5	192
NMTAP	78	192	4
NMTAP	78	288	3
NMHLD	79	0	2	192
NMTAP	79	0	4
NMTAP	79	192	3
NMTAP	79	288	4
NMHLD	80	0	3	96
NMHLD	80	0	5	96
NMHLD	80	192	2	96
NMHLD	80	192	4	96
NMTAP	81	0	1
NMTAP	81	96	0
NMTAP	81	192	7
NMTAP	81	288	6
NMSTR	82	0	5
NMSCL	82	0	5	96	96	2
NMTAP	82	288	1
NMSTR	83	0	2
NMSCR	83	0	2	96	96	5
NMTAP	83	288	6
NMSTR	84	0	6
NMSCL	84	0	6	96	96	3
NMTAP	84	0	7
NMTAP	84	288	2
NMTAP	85	0	2
NMSTR	85	0	3
NMSI_	85	0	3	96	96	7
NMTAP	85	288	0
NMTAP	86	0	1
NMTAP	86	48	1
NMHLD	86	96	1	96
NMTAP	86	192	7
NMTAP	86	240	7
NMHLD	86	288	7	96
NMTAP	87	0	0
NMTAP	87	48	0
NMHLD	87	96	0	96
NMTAP	87	192	6
NMTAP	87	240	6
NMHLD	87	288	6	96
NMTAP	88	0	0
NMTAP	88	48	0
NMTAP	88	96	7
NMTAP	88	144	7
NMTAP	88	192	1
NMTAP	88	240	1
NMTAP	88	288	0
NMTAP	88	288	1
NMTTP	89	0	0	C	1	M1
NMHLD	90	0	4	96
NMHLD	90	0	5	96
EXTAP	90	192	2
EXTAP	90	192	3
NMTAP	90	288	1
NMTAP	90	288	4
BRTAP	91	0	6
BRTAP	91	0	7
NMTAP	91	96	0
NMTAP	91	96	1
NMTAP	91	192	2
NMTAP	91	192	7
NMTAP	91	288	6
NMHLD	91	336	6	96
NMTAP	92	48	0
NMTAP	92	96	0
NMTAP	92	192	1
NMTAP	92	192	7
BRTAP	92	288	0
BRTAP	92	288	4
NMTAP	93	0	1
NMTAP	93	0	3
NMTAP	93	96	3
NMTAP	93	96	4
NMTAP	93	192	4
NMTAP	93	192	6
NMSTR	93	288	6
NMSCL	93	288	6	96	96	3
NMSTR	93	288	7
NMSUL	93	288	7	96	96	2
EXTAP	94	192	0
EXTAP	94	192	1
BRTAP	94	288	2
BRTAP	94	288	7
NMTAP	95	0	2
NMTAP	95	0	7
NMTAP	95	96	0
NMTAP	95	96	1
NMTAP	95	192	6
NMTAP	95	192	7
NMTAP	95	288	1
NMHLD	95	336	1	96
NMTAP	96	48	0
NMTAP	96	96	0
NMTAP	96	192	2
NMTAP	96	192	7
BRTAP	96	288	0
BRTAP	96	288	4
NMHLD	97	0	5	96
NMHLD	97	96	3	96
NMHLD	97	192	1	96
NMTAP	97	288	0
BRTAP	98	0	2
BRTAP	98	0	7
BRTAP	98	96	2
BRTAP	98	96	7
BRTAP	98	192	0
BRTAP	98	192	5
BRTAP	98	288	0
BRTAP	98	288	5
NMTAP	99	0	2
NMTAP	99	0	7
NMTAP	99	96	0
NMTAP	99	96	5
NMTAP	99	192	6
NMTAP	99	192	7
NMTAP	99	288	1
NMHLD	99	336	1	96
NMTAP	100	48	0
NMTAP	100	96	0
NMTAP	100	192	1
NMTAP	100	192	7
BRTAP	100	288	0
BRTAP	100	288	4
NMTAP	101	0	1
NMTAP	101	0	3
NMTAP	101	96	2
NMTAP	101	96	3
NMTAP	101	192	4
NMTAP	101	192	6
NMSTR	101	288	4
NMSCL	101	288	4	96	96	1
NMSTR	101	288	5
NMSUL	101	288	5	96	96	0
NMTAP	102	192	6
NMTAP	102	192	7
BRTAP	102	288	6
BRTAP	102	288	7
NMTAP	103	0	0
NMTAP	103	0	1
NMTAP	103	96	6
NMTAP	103	96	7
NMTAP	103	192	0
NMTAP	103	192	1
NMTAP	103	288	6
NMHLD	103	336	6	96
NMTAP	104	48	7
NMTAP	104	96	7
NMTAP	104	192	0
NMTAP	104	192	4
BRTAP	104	288	2
BRTAP	104	288	7
NMTAP	105	0	0
NMTAP	105	0	6
NMTAP	105	48	0
NMTAP	105	48	6
NMTAP	105	96	0
NMTAP	105	96	6
NMTAP	105	192	1
NMTAP	105	192	7
NMTAP	105	240	1
NMTAP	105	240	7
NMTAP	105	288	1
NMTAP	105	288	7
BRTAP	106	0	0
BRTAP	106	0	6
BRTAP	106	96	1
BRTAP	106	96	3
BRTAP	106	192	5
BRTAP	106	192	7
BRSTR	106	288	0
BRSF_	106	288	0	96	192	4
BRTAP	106	288	2
EXTAP	107	288	1
EXTAP	107	288	7
NMTAP	108	0	6
NMTAP	108	48	6
NMTAP	108	96	7
NMTAP	108	192	0
NMTAP	108	192	5
NMTAP	108	288	2
NMTAP	108	288	7
NMTAP	109	0	1
NMTAP	109	48	1
NMTAP	109	96	0
NMTAP	109	192	2
NMTAP	109	192	7
NMTAP	109	288	0
NMTAP	109	288	5
NMTAP	110	0	6
NMTAP	110	48	6
NMTAP	110	96	4
NMTAP	110	144	4
NMTAP	110	192	5
NMTAP	110	288	3
NMTAP	110	288	6
EXTAP	111	0	2
EXTAP	111	0	4
NMTAP	111	96	3
NMTAP	111	96	6
NMTAP	111	192	0
NMTAP	111	192	5
BRTAP	111	288	3
BRTAP	111	288	7
NMTAP	112	0	1
NMTAP	112	48	1
NMTAP	112	96	0
NMTAP	112	192	2
NMTAP	112	192	7
NMTAP	112	288	0
NMTAP	112	288	5
NMTAP	113	0	2
NMTAP	113	48	2
NMTAP	113	96	3
NMTAP	113	192	1
NMTAP	113	192	4
NMTAP	113	288	3
NMTAP	113	288	6
NMHLD	114	0	0	96
NMSTR	114	0	1
NMSI_	114	0	1	96	48	4
NMSTR	114	192	6
BRSI_	114	192	6	96	48	3
NMHLD	114	192	7	96
NMTAP	115	0	0
NMTAP	115	0	1
NMTAP	115	96	2
NMTAP	115	96	3
NMTAP	115	192	6
NMTAP	115	192	7
BRTAP	115	288	4
BRSTR	115	288	5
NMSI_	115	288	5	96	768	1
NMSI_	115	288	5	96	768	1
CNSI_	118	0	1	0	720	3
CNSI_	118	0	1	0	720	7

T_REC_TAP	359
T_REC_BRK	58
T_REC_XTP	29
T_REC_BXX	4
T_REC_HLD	59
T_REC_XHO	2
T_REC_BHO	0
T_REC_BXH	0
T_REC_STR	25
T_REC_BST	4
T_REC_XST	2
T_REC_XBS	0
T_REC_TTP	23
T_REC_THO	2
T_REC_SLD	29
T_REC_BSL	4
T_REC_ALL	600
T_NUM_TAP	438
T_NUM_BRK	70
T_NUM_HLD	63
T_NUM_SLD	29
T_NUM_ALL	600
T_JUDGE_TAP	504
T_JUDGE_HLD	186
T_JUDGE_SLD	33
T_JUDGE_ALL	723
TTM_EACHPAIRS	179
TTM_SCR_TAP	219000
TTM_SCR_BRK	182000
TTM_SCR_HLD	63000
TTM_SCR_SLD	43500
TTM_SCR_ALL	507500
TTM_SCR_S	485500
TTM_SCR_SS	500500
TTM_RAT_ACV	10139

