VERSION	0.00.00	1.04.00
FES_MODE	0
BPM_DEF	184.000	184.000	184.000	184.000
MET_DEF	4	4
RESOLUTION	384
CLK_DEF	384
COMPATIBLE_CODE	MA2

BPM	0	0	184.000
MET	0	0	4	4

NMTAP	2	0	1
NMTAP	2	96	1
NMTAP	2	192	1
NMTAP	3	0	2
NMTAP	3	96	2
NMTAP	3	192	2
NMTAP	4	0	3
NMTAP	4	96	3
NMTAP	4	192	3
NMTAP	5	0	4
NMTAP	5	0	5
NMTAP	6	0	6
NMTAP	6	96	6
NMTAP	6	192	6
NMTAP	7	0	5
NMTAP	7	96	5
NMTAP	7	192	5
NMTAP	8	0	4
NMTAP	8	96	4
NMTAP	8	192	4
NMTAP	9	0	3
NMTAP	9	0	4
NMHLD	10	0	2	192
NMHLD	10	192	3	192
NMHLD	11	0	4	192
NMTAP	11	192	5
NMHLD	12	0	5	192
NMHLD	12	192	4	192
NMHLD	13	0	3	192
NMTAP	13	192	2
NMHLD	14	0	1	192
NMHLD	14	192	2	192
NMHLD	15	0	3	192
NMTAP	15	192	4
NMHLD	16	0	6	192
NMHLD	16	192	5	192
NMHLD	17	0	4	192
NMTAP	17	192	3
NMTAP	18	0	2
NMTAP	18	96	2
NMTAP	18	192	2
NMTAP	18	192	3
NMTAP	19	0	1
NMTAP	19	96	1
NMTAP	19	192	0
NMTAP	19	192	1
NMTAP	20	0	6
NMTAP	20	96	6
NMTAP	20	192	6
NMTAP	20	192	7
NMTAP	21	0	6
NMTAP	21	0	7
NMTAP	21	192	6
NMTAP	21	192	7
NMTAP	22	0	5
NMTAP	22	96	5
NMTAP	22	192	4
NMTAP	22	192	5
NMTAP	23	0	6
NMTAP	23	96	6
NMTAP	23	192	6
NMTAP	23	192	7
NMTAP	24	0	1
NMTAP	24	96	1
NMTAP	24	192	0
NMTAP	24	192	1
BXTAP	25	0	0
BXTAP	25	0	1
NMSTR	26	0	1
NMSUR	26	0	1	96	480	4
NMSTR	28	0	6
NMSUL	28	0	6	96	480	3
NMSTR	30	0	1
NMSXL	30	0	1	96	480	4
NMSTR	32	0	6
NMSXR	32	0	6	96	480	3
NMHLD	34	0	3	192
NMHLD	34	0	4	192
NMTAP	35	0	3
NMTAP	35	0	4
NMTAP	35	96	3
NMTAP	35	96	4
BRTAP	35	192	2
BRTAP	35	192	5
NMTAP	36	0	2
NMTAP	36	96	2
NMTAP	36	192	1
NMTAP	36	288	1
NMTAP	37	0	0
NMTAP	37	96	0
NMTAP	37	192	6
NMTAP	37	192	7
NMTAP	38	0	5
NMTAP	38	96	5
NMTAP	38	192	6
NMTAP	38	288	6
NMTAP	39	0	7
NMTAP	39	96	7
NMTAP	39	192	0
NMTAP	39	192	1
NMTAP	40	0	1
NMTAP	40	96	1
NMTAP	40	192	2
NMTAP	40	288	2
NMTAP	41	0	3
NMTAP	41	96	3
NMTAP	41	192	4
NMTAP	41	192	5
NMTAP	42	0	6
NMTAP	42	96	6
NMTAP	42	192	5
NMTAP	42	288	5
NMTAP	43	0	4
NMTAP	43	96	4
BRTAP	43	192	3
BRTAP	43	192	4
NMTAP	44	0	5
NMTAP	44	96	5
NMTAP	44	192	6
NMTAP	44	288	6
NMTAP	45	0	7
NMTAP	45	96	7
NMTAP	45	192	0
NMTAP	45	192	1
NMTAP	46	0	2
NMTAP	46	96	2
NMTAP	46	192	1
NMTAP	46	288	1
NMTAP	47	0	0
NMTAP	47	96	0
NMTAP	47	192	6
NMTAP	47	192	7
NMTAP	48	0	6
NMTAP	48	96	6
NMTAP	48	192	5
NMTAP	48	288	5
NMTAP	49	0	4
NMTAP	49	96	4
NMTAP	49	192	2
NMTAP	49	192	3
NMTAP	50	0	1
NMTAP	50	96	1
NMTAP	50	192	2
NMTAP	50	288	2
NMTAP	51	0	3
NMTAP	51	96	3
BRTAP	51	192	4
BRTAP	51	192	5
BRTAP	52	0	3
BRTAP	52	0	6
NMSTR	53	0	4
NMSI_	53	0	4	96	288	1
NMSTR	53	0	5
NMSI_	53	0	5	96	288	0
NMSTR	55	0	2
NMSI_	55	0	2	96	288	7
NMSTR	55	0	3
NMSI_	55	0	3	96	288	6
NMTTP	57	0	6	B	0	L1
NMTTP	57	96	5	B	0	L1
NMTTP	57	192	4	B	0	L1
NMTTP	58	0	1	B	0	L1
NMTTP	58	96	2	B	0	L1
NMTTP	58	192	3	B	0	L1
NMTTP	59	0	7	B	0	L1
NMTTP	59	96	6	B	0	L1
NMTTP	59	192	5	B	0	L1
NMTTP	60	0	0	B	0	L1
NMTTP	60	96	1	B	0	L1
NMTTP	60	192	2	B	0	L1
NMTTP	61	0	7	B	0	L1
NMTTP	61	96	6	B	0	L1
NMTTP	61	192	4	B	0	L1
NMTTP	61	192	5	B	0	L1
NMTTP	62	0	0	B	0	L1
NMTTP	62	96	1	B	0	L1
NMTTP	62	192	2	B	0	L1
NMTTP	62	192	3	B	0	L1
NMTTP	63	0	5	B	0	L1
NMTTP	63	96	6	B	0	L1
NMTTP	63	192	7	B	0	L1
NMTTP	63	288	0	B	0	L1
NMTTP	64	0	1	B	0	L1
NMTTP	64	96	2	B	0	L1
NMTTP	64	192	3	B	0	L1
NMTTP	64	192	4	B	0	L1
NMTTP	65	0	0	C	1	L1
NMTAP	66	0	1
NMTAP	66	96	1
NMTAP	66	192	0
NMTAP	66	192	1
NMTAP	67	0	2
NMTAP	67	96	2
NMTAP	67	192	2
NMTAP	67	192	3
NMTAP	68	0	5
NMTAP	68	96	5
NMTAP	68	192	4
NMTAP	68	192	5
NMTAP	69	0	6
NMTAP	69	0	7
NMTAP	69	96	6
NMTAP	69	96	7
NMTAP	69	192	6
NMTAP	69	192	7
NMTAP	70	0	6
NMTAP	70	96	6
NMTAP	70	192	6
NMTAP	70	192	7
NMTAP	71	0	5
NMTAP	71	96	5
NMTAP	71	192	4
NMTAP	71	192	5
NMTAP	72	0	2
NMTAP	72	96	2
NMTAP	72	192	2
NMTAP	72	192	3
NMTAP	73	0	0
NMTAP	73	0	1
NMTAP	73	96	0
NMTAP	73	96	1
NMTAP	73	192	0
NMTAP	73	192	1
NMSTR	74	0	1
NMSI_	74	0	1	96	192	4
NMSTR	75	0	6
NMSI_	75	0	6	96	192	2
NMSTR	76	0	0
NMSI_	76	0	0	96	192	4
NMTAP	77	0	5
NMTAP	77	96	5
NMTAP	77	192	4
NMTAP	77	192	5
NMSTR	78	0	6
NMSI_	78	0	6	96	192	3
NMSTR	79	0	1
NMSI_	79	0	1	96	192	5
NMSTR	80	0	7
NMSI_	80	0	7	96	192	3
NMTAP	81	0	2
NMTAP	81	96	2
NMTAP	81	192	2
NMTAP	81	192	3
NMTAP	82	0	1
NMTAP	82	96	1
NMTAP	82	192	1
NMTAP	83	0	2
NMTAP	83	96	2
NMTAP	83	192	2
NMTAP	84	0	3
NMTAP	84	96	3
NMTAP	84	192	3
NMTAP	85	0	4
NMTAP	85	0	5
NMTAP	85	96	4
NMTAP	85	96	5
NMTAP	85	192	4
NMTAP	85	192	5
NMTAP	86	0	6
NMTAP	86	96	6
NMTAP	86	192	6
NMTAP	87	0	5
NMTAP	87	96	5
NMTAP	87	192	5
NMTAP	88	0	4
NMTAP	88	96	4
NMTAP	88	192	4
NMTAP	89	0	2
NMTAP	89	0	3
NMTAP	89	96	2
NMTAP	89	96	3
NMTAP	89	192	2
NMTAP	89	192	3
NMTAP	90	0	3
NMTAP	90	0	4
NMTAP	90	96	3
NMTAP	90	96	4
BRTAP	90	192	2
BRTAP	90	192	5
NMTAP	91	0	2
NMTAP	91	96	2
NMTAP	91	192	0
NMTAP	91	192	1
NMTAP	91	288	0
NMTAP	91	288	1
NMTAP	92	0	7
NMTAP	92	96	7
NMTAP	92	192	6
NMTAP	92	192	7
NMTAP	93	0	5
NMTAP	93	96	5
NMTAP	93	192	6
NMTAP	93	192	7
NMTAP	93	288	6
NMTAP	93	288	7
NMTAP	94	0	0
NMTAP	94	96	0
NMTAP	94	192	0
NMTAP	94	192	1
NMTAP	95	0	1
NMTAP	95	96	1
NMTAP	95	192	2
NMTAP	95	192	3
NMTAP	95	288	2
NMTAP	95	288	3
NMTAP	96	0	4
NMTAP	96	96	4
NMTAP	96	192	4
NMTAP	96	192	5
NMTAP	97	0	6
NMTAP	97	96	6
NMTAP	97	192	4
NMTAP	97	192	5
NMTAP	97	288	4
NMTAP	97	288	5
NMTAP	98	0	3
NMTAP	98	96	3
BRTAP	98	192	3
BRTAP	98	192	4
NMTAP	99	0	5
NMTAP	99	96	5
NMTAP	99	192	6
NMTAP	99	192	7
NMTAP	99	288	6
NMTAP	99	288	7
NMTAP	100	0	0
NMTAP	100	96	0
NMTAP	100	192	0
NMTAP	100	192	1
NMTAP	101	0	2
NMTAP	101	96	2
NMTAP	101	192	0
NMTAP	101	192	1
NMTAP	101	288	0
NMTAP	101	288	1
NMTAP	102	0	7
NMTAP	102	96	7
NMTAP	102	192	6
NMTAP	102	192	7
NMTAP	103	0	6
NMTAP	103	96	6
NMTAP	103	192	4
NMTAP	103	192	5
NMTAP	103	288	4
NMTAP	103	288	5
NMTAP	104	0	3
NMTAP	104	96	3
NMTAP	104	192	2
NMTAP	104	192	3
NMTAP	105	0	1
NMTAP	105	96	1
NMTAP	105	192	2
NMTAP	105	192	3
NMTAP	105	288	2
NMTAP	105	288	3
NMTAP	106	0	4
NMTAP	106	96	4
BRTAP	106	192	4
BRTAP	106	192	5
BRTAP	107	0	3
BRTAP	107	0	6
NMTAP	108	0	4
NMTAP	108	96	5
NMTAP	108	192	6
NMTAP	108	288	7
NMTAP	109	0	0
NMTAP	109	96	1
NMTAP	109	192	2
NMTAP	109	192	3
NMTAP	110	0	3
NMTAP	110	96	2
NMTAP	110	192	1
NMTAP	110	288	0
NMTAP	111	0	7
NMTAP	111	96	6
NMTAP	111	192	4
NMTAP	111	192	5
NMTAP	112	0	6
NMTAP	112	96	5
NMTAP	112	192	4
NMTAP	112	288	3
NMTAP	113	0	2
NMTAP	113	96	1
NMTAP	113	192	0
NMTAP	113	192	7
NMTAP	114	0	1
NMTAP	114	96	2
NMTAP	114	192	3
NMTAP	114	288	4
NMTAP	115	0	5
NMTAP	115	96	6
NMTAP	115	192	0
NMTAP	115	192	7
NMTTP	116	0	1	E	0	L1
NMTTP	116	0	7	E	0	L1
NMTTP	117	0	2	E	0	L1
NMTTP	117	0	6	E	0	L1
NMTTP	118	0	3	E	0	L1
NMTTP	118	0	5	E	0	L1
NMTHO	119	0	0	336	C	0	L1

T_REC_TAP	304
T_REC_BRK	16
T_REC_XTP	0
T_REC_BXX	2
T_REC_HLD	14
T_REC_XHO	0
T_REC_BHO	0
T_REC_BXH	0
T_REC_STR	14
T_REC_BST	0
T_REC_XST	0
T_REC_XBS	0
T_REC_TTP	35
T_REC_THO	1
T_REC_SLD	14
T_REC_BSL	0
T_REC_ALL	400
T_NUM_TAP	353
T_NUM_BRK	18
T_NUM_HLD	15
T_NUM_SLD	14
T_NUM_ALL	400
T_JUDGE_TAP	371
T_JUDGE_HLD	63
T_JUDGE_SLD	14
T_JUDGE_ALL	448
TTM_EACHPAIRS	78
TTM_SCR_TAP	176500
TTM_SCR_BRK	46800
TTM_SCR_HLD	15000
TTM_SCR_SLD	21000
TTM_SCR_ALL	259300
TTM_SCR_S	249800
TTM_SCR_SS	257500
TTM_RAT_ACV	10069

