VERSION	0.00.00	1.04.00
FES_MODE	0
BPM_DEF	198.220	198.220	198.220	198.220
MET_DEF	4	4
RESOLUTION	384
CLK_DEF	384
COMPATIBLE_CODE	MA2

BPM	0	0	198.220
MET	0	0	4	4
MET	46	0	8	6
MET	49	0	4	4
MET	116	0	8	6
MET	119	0	4	4

NMTAP	1	0	4
NMTAP	1	96	3
NMTAP	1	192	2
NMTAP	1	288	1
NMSTR	2	0	0
NMSCR	2	0	0	96	288	6
NMHLD	2	0	7	768
CNSXR	3	0	6	0	384	3
NMTAP	5	0	4
NMTAP	5	96	3
NMTAP	5	192	2
NMTAP	5	288	1
NMSTR	6	0	0
NMSUR	6	0	0	96	288	6
NMHLD	6	0	4	576
CNSUR	7	0	6	0	192	3
NMTAP	8	0	3
NMTAP	8	24	4
NMTAP	8	48	3
NMTAP	8	72	4
NMTAP	8	96	3
NMTAP	8	120	4
NMTAP	8	144	3
NMTAP	8	168	4
NMTAP	8	192	3
NMTAP	8	216	4
NMTAP	8	240	3
NMTAP	8	264	4
NMTAP	8	288	3
BRTAP	8	336	2
NMHLD	8	336	5	240
NMTAP	9	192	2
NMTAP	9	216	4
NMTAP	9	240	3
NMTAP	9	264	4
BRTAP	9	288	0
NMSTR	10	0	1
NMSI_	10	0	1	96	48	4
NMTAP	10	0	3
NMTAP	10	96	4
NMSTR	10	144	5
NMSI_	10	144	5	96	48	2
NMTAP	10	240	0
NMSTR	10	288	1
NMSCR	10	288	1	96	48	4
NMTAP	11	0	0
NMTAP	11	0	1
NMTAP	11	96	5
NMSTR	11	144	6
NMSI_	11	144	6	96	48	2
NMTAP	11	240	0
NMSTR	11	288	1
NMSCR	11	288	1	96	48	4
NMTAP	12	0	0
NMTAP	12	0	1
NMTAP	12	96	6
NMSTR	12	144	7
NMSI_	12	144	7	96	48	3
NMTAP	12	240	0
NMHLD	12	288	1	96
NMHLD	13	0	3	96
NMHLD	13	96	5	96
NMHLD	13	192	7	96
BRTAP	13	288	0
NMTAP	14	0	6
NMTAP	14	0	7
NMTAP	14	48	5
NMTAP	14	96	5
NMTAP	14	144	3
NMTAP	14	144	4
NMTAP	14	192	2
NMTAP	14	240	2
NMTAP	14	288	1
NMTAP	14	288	3
NMTAP	14	336	1
NMTAP	14	336	3
NMSTR	15	0	0
NMSI_	15	0	0	96	48	4
NMTAP	15	48	0
NMSTR	15	96	6
NMSI_	15	96	6	96	48	2
NMTAP	15	144	6
NMSTR	15	192	1
NMSI_	15	192	1	96	48	5
NMTAP	15	240	1
NMSTR	15	288	4
NMSCR	15	288	4	96	384	2
BRTAP	16	0	3
NMTAP	17	192	3
NMTAP	17	192	4
NMHLD	18	0	3	192
NMHLD	18	0	5	288
NMTAP	18	288	4
NMSTR	18	336	4
NMSUR	18	336	4	96	192	1
NMHLD	20	0	2	336
NMHLD	20	0	4	192
NMTAP	20	288	3
NMSTR	20	336	3
NMSUL	20	336	3	96	192	6
NMTAP	22	0	3
NMHLD	22	0	5	288
NMTAP	22	192	4
NMTAP	22	288	3
NMHLD	22	336	3	240
NMTTP	23	96	3	E	0	M1
NMTTP	23	192	4	E	0	M1
NMTTP	23	288	5	E	0	M1
NMTAP	24	0	5
NMTAP	24	48	5
NMTAP	24	96	3
NMTAP	24	144	4
NMHLD	24	192	2	96
NMTTP	24	288	0	C	0	M1
NMTAP	25	0	0
NMTAP	25	24	7
NMTAP	25	48	0
NMTAP	25	72	7
NMTAP	25	96	1
NMTAP	25	120	7
NMTAP	25	144	0
NMTAP	25	168	7
NMSTR	25	192	1
NMSI_	25	192	1	96	48	4
BRTAP	25	288	4
NMSTR	26	0	5
NMSCR	26	0	5	96	144	2
NMTAP	26	96	2
NMSTR	26	144	2
NMSCR	26	144	2	96	144	7
NMTAP	26	240	7
NMSTR	26	288	7
NMSCR	26	288	7	96	144	4
NMTAP	27	0	4
NMSTR	27	48	4
NMSCR	27	48	4	96	144	1
NMTAP	27	144	1
NMTAP	27	192	1
NMTAP	27	288	3
NMSTR	28	0	2
NMSCL	28	0	2	96	144	5
NMTAP	28	96	5
NMSTR	28	144	5
NMSCL	28	144	5	96	144	0
NMTAP	28	240	0
NMSTR	28	288	0
NMSCL	28	288	0	96	144	3
NMTAP	29	0	3
NMSTR	29	48	3
NMSCL	29	48	3	96	144	6
NMTAP	29	144	6
NMTAP	29	192	6
NMTAP	29	288	4
NMTAP	30	0	3
NMSTR	30	0	5
NMSI_	30	0	5	96	48	0
NMSTR	30	96	2
NMSI_	30	96	2	96	48	5
NMSTR	30	192	6
NMSI_	30	192	6	96	48	2
NMSTR	30	288	0
NMSCR	30	288	0	96	48	3
NMTAP	31	0	0
NMTAP	31	0	7
NMTAP	31	96	4
NMTAP	31	96	6
NMTAP	31	144	3
NMTAP	31	144	5
BRTAP	31	192	2
BRTAP	31	192	4
BRTAP	31	264	0
BRTAP	31	264	1
BRTAP	31	336	6
BRTAP	31	336	7
NMTAP	32	0	0
NMTAP	32	0	5
NMSTR	32	48	0
NMSI_	32	48	0	96	48	4
NMTAP	32	48	5
BRSTR	32	144	0
NMSCR	32	144	0	96	48	3
BRSTR	32	144	5
NMSCR	32	144	5	96	48	0
BRTAP	32	240	0
BRTAP	32	240	5
BXTAP	32	336	2
BXTAP	32	336	7
NMTAP	33	48	1
NMTAP	33	48	5
NMTAP	33	96	1
NMTAP	33	96	5
NMTAP	33	192	3
NMTAP	33	192	4
NMTAP	33	288	0
NMTAP	33	288	7
NMHLD	34	0	1	96
NMTAP	34	0	6
NMTAP	34	96	6
NMTAP	34	120	7
NMTAP	34	144	0
NMTAP	34	168	1
NMTAP	34	192	2
NMTAP	34	216	3
NMTAP	34	240	4
NMHLD	34	264	5	72
NMHLD	34	336	2	96
NMTAP	35	48	4
NMTAP	35	96	2
NMTAP	35	96	4
NMTAP	35	120	1
NMTAP	35	144	0
NMTAP	35	168	7
NMTAP	35	192	6
NMTAP	35	216	5
NMTAP	35	240	4
NMHLD	35	264	3	72
NMHLD	35	336	5	96
NMTAP	36	48	4
NMTAP	36	96	4
NMTAP	36	96	5
NMTAP	36	120	6
NMTAP	36	144	7
NMTAP	36	168	0
NMTAP	36	192	1
NMTAP	36	216	2
NMTAP	36	240	3
NMHLD	36	264	4	72
NMHLD	36	336	2	96
NMTAP	37	48	6
NMTAP	37	96	2
NMTAP	37	96	6
NMTAP	37	120	5
NMTAP	37	144	4
NMTAP	37	168	3
NMTAP	37	192	2
NMTAP	37	216	1
NMTAP	37	240	0
NMTAP	37	264	7
NMTAP	37	288	2
NMTAP	37	288	6
NMTAP	38	0	3
NMHLD	38	0	5	96
NMTAP	38	96	3
NMTAP	38	120	4
NMTAP	38	144	5
NMTAP	38	168	6
NMTAP	38	192	7
NMTAP	38	216	0
NMTAP	38	240	1
NMHLD	38	264	2	72
NMHLD	38	336	5	96
NMTAP	39	48	1
NMTAP	39	96	1
NMTAP	39	96	5
NMTAP	39	120	4
NMTAP	39	144	3
NMTAP	39	168	2
NMTAP	39	192	1
NMTAP	39	216	0
NMTAP	39	240	7
NMTAP	39	264	6
NMTAP	39	288	1
NMTAP	39	288	5
NMTAP	40	0	0
NMTAP	40	0	6
NMTAP	40	48	0
NMSTR	40	48	6
NMSI_	40	48	6	96	48	2
NMSTR	40	144	1
NMSI_	40	144	1	96	48	5
NMTAP	40	144	6
NMTAP	40	240	1
NMTAP	40	240	4
NMTAP	40	336	0
NMTAP	40	336	6
NMTAP	41	48	1
NMTAP	41	48	5
NMSTR	41	96	1
NMSLR	41	96	1	96	120	7
NMSTR	41	96	5
NMSLL	41	96	5	96	120	7
NMTAP	42	0	0
NMTAP	42	0	6
NMTAP	42	48	0
NMTAP	42	48	6
NMTAP	42	96	0
NMTAP	42	96	6
NMSTR	42	144	0
NMSI_	42	144	0	96	120	4
NMHLD	42	144	6	336
CNSI_	42	360	4	0	72	1
CNSI_	43	48	1	0	48	5
EXTAP	43	192	7
EXTAP	43	264	0
EXTAP	43	264	6
EXTAP	43	336	1
EXTAP	43	336	5
NMTAP	44	0	2
NMTAP	44	0	4
NMTAP	44	48	2
NMTAP	44	48	4
NMTAP	44	96	2
NMTAP	44	96	4
NMTAP	44	144	2
NMHLD	44	144	4	96
NMTAP	44	240	3
NMTAP	44	264	3
BRTAP	44	288	6
NMHLD	45	0	1	64
NMHLD	45	64	3	64
NMTAP	45	128	2
NMHLD	45	192	6	64
NMHLD	45	256	4	64
NMTAP	45	320	5
NMTAP	46	0	2
NMTAP	46	24	3
NMTAP	46	48	1
NMTAP	46	72	3
NMTAP	46	96	1
NMTAP	46	144	5
NMTAP	46	168	4
NMTAP	46	192	6
NMTAP	46	216	4
NMTAP	46	240	6
NMTAP	46	288	1
NMTAP	46	312	3
NMTAP	46	336	2
NMTAP	46	360	3
NMTAP	47	0	2
NMTAP	47	48	6
NMTAP	47	72	4
NMTAP	47	96	5
NMTAP	47	120	4
NMTAP	47	144	5
NMTAP	47	192	1
NMTAP	47	216	0
NMTAP	47	240	2
NMTAP	47	264	0
NMTAP	47	288	2
NMTAP	47	336	6
NMTAP	47	360	7
NMTAP	48	0	5
NMTAP	48	24	7
NMTAP	48	48	5
NMTAP	48	96	2
NMTAP	48	120	3
NMTAP	48	144	1
NMTAP	48	168	3
NMTAP	48	192	2
NMTAP	48	240	5
NMTAP	48	264	4
NMTAP	48	288	6
NMTAP	48	312	4
NMTAP	48	336	5
NMTAP	49	0	1
NMTAP	49	24	7
NMTAP	49	48	1
NMTAP	49	72	7
NMTAP	49	96	1
NMTAP	49	120	7
NMTAP	49	144	1
NMTAP	49	168	2
NMTAP	49	192	3
NMTAP	49	216	6
NMTAP	49	240	5
NMTAP	49	264	4
NMTAP	49	288	0
NMTAP	49	312	1
NMTAP	49	336	2
NMTAP	49	360	6
NMTAP	50	0	5
NMTAP	50	24	4
NMTAP	50	48	2
NMTAP	50	72	1
NMTAP	50	96	0
NMTAP	50	120	5
NMTAP	50	144	6
NMTAP	50	168	7
NMTAP	50	192	3
NMTAP	50	216	2
NMTAP	50	240	1
NMTAP	50	264	7
NMTAP	50	288	0
NMTAP	50	312	7
NMTAP	50	336	0
NMTAP	50	360	7
NMTAP	51	0	1
NMTAP	51	24	3
NMTAP	51	48	2
NMTAP	51	72	4
NMTAP	51	96	3
NMTAP	51	120	5
NMTAP	51	144	4
NMTAP	51	168	6
NMTAP	51	192	0
NMTAP	51	216	7
NMTAP	51	240	1
NMTAP	51	264	6
EXSTR	51	288	3
NMSF_	51	288	3	96	48	7
EXTAP	51	312	4
EXTAP	51	336	2
EXTAP	51	360	5
EXTAP	52	0	3
NMTTP	52	1	0	C	1	M1
NMSTR	54	0	3
NMSCL	54	0	3	96	480	5
NMHLD	54	0	4	1152
NMTTP	56	0	5	B	0	M1
NMTTP	56	16	5	A	0	M1
NMTTP	57	0	3	B	0	M1
NMTTP	57	16	3	A	0	M1
NMHLD	58	0	2	1152
NMSTR	58	0	3
NMSCR	58	0	3	96	480	1
NMTTP	60	0	1	B	0	M1
NMTTP	60	16	1	A	0	M1
NMTTP	61	0	3	B	0	M1
NMTTP	61	16	3	A	0	M1
NMTAP	62	0	2
NMHLD	62	0	5	1152
NMTTP	63	0	4	A	0	M1
NMTTP	63	16	5	D	0	M1
NMTTP	63	192	3	D	0	M1
NMTTP	63	208	3	A	0	M1
NMHLD	64	0	2	576
NMTTP	65	192	3	B	0	M1
NMTTP	65	192	4	B	0	M1
NMTTP	65	192	4	E	0	M1
NMSTR	66	0	0
NMSCR	66	0	0	96	480	7
NMSTR	66	0	7
NMSCL	66	0	7	96	480	0
NMTHO	68	0	0	384	C	0	M1
NMTAP	69	192	0
NMTAP	69	216	1
NMTAP	69	240	2
NMTAP	69	264	3
NMTAP	69	288	7
NMTAP	69	312	6
NMTAP	69	336	5
NMTAP	69	360	4
BRTAP	70	0	2
NMTAP	70	32	2
NMTAP	70	64	2
NMTAP	70	96	3
NMTAP	70	128	3
NMTAP	70	160	3
NMTAP	70	192	4
NMTAP	70	224	4
NMTAP	70	256	4
NMTAP	70	288	5
NMTAP	70	320	5
NMTAP	70	352	5
BRTAP	71	0	6
NMTAP	71	32	6
NMTAP	71	64	6
NMTAP	71	96	7
NMTAP	71	128	7
NMTAP	71	160	7
EXTAP	71	192	0
EXTAP	71	192	6
EXTAP	71	256	2
EXTAP	71	256	4
EXHLD	71	320	3	160
EXHLD	71	320	4	160
BXTAP	72	104	2
BXTAP	72	104	5
BXTAP	72	112	1
BXTAP	72	112	6
BXTAP	72	120	0
BXTAP	72	120	7
EXSTR	72	192	1
NMSI_	72	192	1	96	48	4
EXTAP	72	192	6
NMTAP	72	288	0
NMTAP	72	288	1
NMTAP	72	336	7
NMTAP	73	0	3
NMSTR	73	0	6
NMSI_	73	0	6	96	48	3
NMTAP	73	96	0
NMTAP	73	96	6
NMTAP	73	144	1
NMSTR	73	192	2
BRSI_	73	192	2	96	48	7
NMTAP	73	264	4
NMTAP	73	288	2
NMTAP	73	288	4
NMTAP	73	336	5
NMTAP	74	0	0
NMSTR	74	0	6
NMSUL	74	0	6	96	48	2
NMTAP	74	96	1
NMSTR	74	144	0
NMSI_	74	144	0	96	48	4
NMTAP	74	240	0
NMTAP	74	240	7
BRTAP	74	336	2
BRHLD	74	336	6	240
NMTTP	75	48	4	E	0	M1
NMTTP	75	72	5	E	0	M1
NMTTP	75	96	6	E	0	M1
NMTTP	75	120	7	E	0	M1
NMTTP	75	144	0	E	0	M1
NMTTP	75	168	1	E	0	M1
NMTTP	75	192	2	E	0	M1
NMTTP	75	216	3	E	0	M1
NMTTP	75	240	4	E	0	M1
BRTAP	75	288	0
BRTAP	75	288	7
NMTAP	76	0	1
NMTAP	76	0	5
NMTAP	76	48	2
NMTAP	76	72	4
NMTAP	76	96	3
NMTAP	76	120	5
NMTAP	76	144	4
NMHLD	76	192	3	48
NMHLD	76	192	6	48
NMHLD	76	264	4	48
NMHLD	76	264	7	48
NMTAP	76	336	3
NMTAP	76	336	6
NMTAP	77	0	3
NMTAP	77	0	6
NMTAP	77	48	5
NMTAP	77	72	3
NMTAP	77	96	4
NMTAP	77	120	2
NMTAP	77	144	3
NMHLD	77	192	1	48
NMHLD	77	192	4	48
NMHLD	77	264	0	48
NMHLD	77	264	3	48
NMTAP	77	336	1
NMTAP	77	336	4
BRTAP	78	0	2
BRTAP	78	0	3
NMTAP	78	48	5
NMTAP	78	72	4
NMTAP	78	96	6
NMTAP	78	144	0
NMTAP	78	144	7
NMTAP	78	192	1
NMTAP	78	216	3
NMTAP	78	240	2
NMTAP	78	288	3
NMTAP	78	288	4
NMTAP	78	336	5
NMTAP	78	360	4
NMTAP	79	0	6
NMTAP	79	48	3
NMTAP	79	48	7
NMTAP	79	96	0
NMTAP	79	120	1
NMTAP	79	144	0
NMSTR	79	192	2
NMSI_	79	192	2	96	48	7
NMSTR	79	192	6
NMSI_	79	192	6	96	48	3
NMTAP	79	240	3
NMTAP	79	240	7
NMTAP	79	288	2
NMTAP	79	288	6
BRTAP	80	0	0
BRTAP	80	0	4
NMTAP	80	96	4
NMTAP	80	128	0
NMTAP	80	160	0
NMTAP	80	192	5
NMTAP	80	224	1
NMTAP	80	256	1
NMTAP	80	288	6
NMTAP	80	320	2
NMTAP	80	352	2
NMSTR	81	0	3
NMSCL	81	0	3	96	96	0
NMTAP	81	0	7
NMTAP	81	96	7
NMTAP	81	128	6
NMTAP	81	160	5
NMHLD	81	192	4	72
NMHLD	81	264	6	72
NMHLD	81	336	0	48
NMHLD	82	0	3	96
NMTAP	82	96	0
NMTAP	82	128	3
NMTAP	82	160	3
NMTAP	82	192	7
NMTAP	82	224	2
NMTAP	82	256	2
NMTAP	82	288	6
NMTAP	82	320	1
NMTAP	82	352	1
NMTAP	83	0	5
NMTAP	83	32	0
NMTAP	83	64	0
NMHLD	83	96	4	96
NMTAP	83	192	1
NMTAP	83	216	3
NMTAP	83	240	2
NMTAP	83	264	3
NMSTR	83	288	2
NMSI_	83	288	2	96	48	6
NMTAP	84	0	2
NMSTR	84	0	5
NMSI_	84	0	5	96	48	3
NMSTR	84	96	0
NMSI_	84	96	0	96	48	4
NMTAP	84	96	5
NMTAP	84	192	0
NMSTR	84	192	6
NMSCL	84	192	6	96	48	3
NMTAP	84	240	7
NMSTR	84	288	2
NMSI_	84	288	2	96	48	7
NMTAP	84	288	6
NMTAP	85	0	2
NMSTR	85	0	5
NMSCL	85	0	5	96	48	2
NMTAP	85	48	6
NMTAP	85	96	0
NMTAP	85	96	5
NMHLD	85	192	1	72
NMHLD	85	264	3	72
NMTAP	85	336	2
NMTAP	86	0	2
NMTAP	86	24	3
NMTAP	86	48	2
NMTAP	86	72	3
NMTAP	86	96	1
NMTAP	86	120	4
NMTAP	86	144	1
NMTAP	86	168	4
NMTAP	86	192	0
NMTAP	86	216	5
NMTAP	86	240	0
NMTAP	86	264	5
NMTAP	86	288	7
NMTAP	86	312	6
NMTAP	86	336	7
NMTAP	86	360	6
NMSTR	87	0	7
NMSI_	87	0	7	96	48	3
EXTAP	87	192	7
EXTAP	87	216	3
EXTAP	87	240	7
EXTAP	87	264	3
EXTAP	87	288	7
EXTAP	87	312	3
EXTAP	87	336	7
EXTAP	87	360	3
NMTAP	88	0	7
NMTAP	88	24	6
NMTAP	88	48	4
NMTAP	88	48	5
NMTAP	88	72	3
NMTAP	88	96	2
NMTAP	88	120	1
NMTAP	88	144	7
NMTAP	88	168	6
NMTAP	88	192	4
NMTAP	88	192	5
NMTAP	88	216	3
NMTAP	88	240	2
NMTAP	88	264	1
NMTAP	88	288	6
NMTAP	88	312	5
NMTAP	88	336	3
NMTAP	88	336	4
NMTAP	88	360	2
NMTAP	89	0	1
NMTAP	89	24	0
NMTAP	89	48	6
NMTAP	89	72	5
NMTAP	89	96	3
NMTAP	89	96	4
NMTAP	89	120	2
NMTAP	89	144	1
NMTAP	89	168	0
NMSTR	89	192	6
NMSCL	89	192	6	96	48	3
NMTAP	89	216	7
NMTAP	89	240	6
NMTAP	89	264	7
NMTAP	89	288	6
NMTTP	90	0	0	A	0	M1
NMTTP	90	24	1	E	0	M1
NMTTP	90	48	2	E	0	M1
NMTTP	90	72	2	A	0	M1
NMTTP	90	96	4	A	0	M1
NMTTP	90	120	5	E	0	M1
NMTTP	90	144	6	E	0	M1
NMTTP	90	168	6	A	0	M1
NMTTP	90	192	0	A	0	M1
NMTTP	90	216	0	B	0	M1
NMTTP	90	240	0	C	0	M1
NMTTP	90	264	4	B	0	M1
NMTTP	90	288	7	A	0	M1
NMTTP	90	312	7	E	0	M1
NMTTP	90	336	6	E	0	M1
NMTTP	90	360	5	A	0	M1
NMTTP	91	0	0	D	0	M1
NMTTP	91	24	1	D	0	M1
NMTTP	91	48	2	D	0	M1
NMTTP	91	72	3	D	0	M1
NMTTP	91	96	4	D	0	M1
NMTTP	91	120	5	D	0	M1
NMTTP	91	144	6	D	0	M1
NMTTP	91	168	7	D	0	M1
EXTAP	91	192	0
EXTAP	91	192	7
EXTAP	91	264	1
EXTAP	91	264	5
EXTAP	91	336	0
EXTAP	91	336	6
NMTAP	92	0	0
NMTAP	92	0	6
NMTAP	92	12	1
NMTAP	92	24	2
NMTAP	92	36	3
NMTAP	92	48	4
NMTAP	92	60	5
NMTAP	92	72	6
NMTAP	92	84	7
BRTAP	92	96	0
NMTTP	92	96	0	C	1	M1
NMTTP	92	96	3	B	0	M1
NMTTP	92	96	4	B	0	M1
NMTAP	93	0	0
NMTAP	93	0	5
NMTAP	93	24	1
NMTAP	93	48	2
NMTAP	93	72	3
NMTAP	93	96	4
NMTAP	93	96	7
NMTAP	93	120	6
NMTAP	93	144	5
NMTAP	93	168	4
NMTAP	93	192	1
NMTAP	93	192	3
NMTAP	93	216	2
NMTAP	93	240	3
NMTAP	93	264	4
NMTAP	93	288	5
NMTAP	93	288	7
NMTAP	93	312	6
NMTAP	93	336	5
NMTAP	93	360	4
NMHLD	94	0	1	48
NMTAP	94	48	3
NMTAP	94	72	3
NMTAP	94	96	2
NMTAP	94	144	5
NMTAP	94	168	5
NMTAP	94	192	4
NMTAP	94	240	0
NMTAP	94	240	6
NMTAP	94	288	2
NMTAP	94	288	4
NMTAP	94	336	3
NMTAP	94	336	5
NMTAP	95	0	2
NMTAP	95	0	6
NMTAP	95	48	1
NMTAP	95	72	0
NMTAP	95	120	2
NMTAP	95	144	3
NMTAP	95	192	6
NMTAP	95	216	7
NMTAP	95	264	5
NMTAP	95	288	4
NMTAP	95	336	3
NMTAP	95	336	6
BRTAP	96	0	2
BRHLD	96	0	7	96
NMTAP	96	96	0
NMTAP	96	120	1
NMTAP	96	144	2
NMTAP	96	168	3
NMTAP	96	192	1
NMTAP	96	216	2
NMTAP	96	240	3
NMTAP	96	264	4
NMTAP	96	288	0
NMTAP	96	312	1
NMTAP	96	336	2
NMTAP	96	360	3
NMTAP	97	0	6
NMTAP	97	24	5
NMTAP	97	48	4
NMTAP	97	72	3
NMTAP	97	96	7
NMTAP	97	120	6
NMTAP	97	144	5
NMTAP	97	168	4
NMTAP	97	192	6
NMTAP	97	216	5
NMTAP	97	240	4
NMTAP	97	264	3
NMTAP	97	288	1
NMTAP	97	312	0
NMTAP	97	336	1
NMHLD	97	360	0	88
NMSTR	98	64	1
NMSI_	98	64	1	96	16	4
NMSTR	98	128	5
NMSI_	98	128	5	96	16	2
NMSTR	98	192	3
NMSI_	98	192	3	96	32	0
NMSTR	98	256	6
NMSI_	98	256	6	96	16	2
NMSTR	98	320	1
NMSI_	98	320	1	96	16	5
BRSTR	99	0	7
BRSCL	99	0	7	96	192	1
NMHLD	100	0	1	672
NMHLD	100	0	5	672
NMSTR	102	0	3
NMSF_	102	0	3	96	288	7
NMSTR	103	192	0
NMSI_	103	192	0	96	48	4
NMSTR	103	192	7
NMSI_	103	192	7	96	48	3
NMTAP	103	288	0
NMTAP	103	288	7
NMTAP	104	0	2
NMTAP	104	0	5
NMTAP	104	96	2
NMTAP	104	96	3
NMTAP	104	144	2
NMTAP	104	144	3
NMTAP	104	192	1
NMTAP	104	192	4
NMTAP	104	240	1
NMTAP	104	240	4
NMTAP	104	288	0
NMTAP	104	288	5
NMTAP	104	336	0
NMTAP	104	336	5
NMTAP	105	0	6
NMTAP	105	0	7
NMTAP	105	48	6
NMTAP	105	96	4
NMTAP	105	96	6
NMTAP	105	144	6
NMTAP	105	192	1
NMTAP	105	192	7
NMTAP	105	240	1
NMHLD	105	288	1	48
NMHLD	105	288	3	48
NMTAP	106	0	2
NMTAP	106	24	4
NMTAP	106	48	2
NMTAP	106	72	4
NMTAP	106	96	2
NMTAP	106	120	4
NMTAP	106	144	1
NMTAP	106	168	4
NMTAP	106	192	3
NMTAP	106	216	4
NMTAP	106	240	3
NMTAP	106	264	4
NMTAP	106	288	1
NMTAP	106	312	4
NMTAP	106	336	2
NMTAP	106	360	3
NMHLD	107	0	0	288
BXTAP	107	0	4
NMTAP	107	288	4
NMTAP	107	300	3
NMTAP	107	312	2
NMTAP	107	324	1
NMTAP	107	336	0
NMTAP	107	348	7
NMTAP	107	360	6
NMTAP	107	372	5
BRTAP	108	0	3
BRSTR	108	0	4
NMSF_	108	0	4	96	288	0
NMTAP	109	192	1
NMTAP	109	192	7
NMTAP	109	288	3
NMSTR	109	288	5
NMSLR	109	288	5	96	96	1
NMSTR	110	0	1
NMSLR	110	0	1	96	96	5
NMTAP	110	96	5
NMTAP	110	192	0
NMTAP	110	240	1
NMSTR	110	288	2
NMSLL	110	288	2	96	96	6
NMTAP	110	288	7
NMSTR	111	0	6
NMSLL	111	0	6	96	96	2
NMTAP	111	96	2
NMTAP	111	192	7
NMTAP	111	240	7
NMSTR	111	288	0
NMSI_	111	288	0	96	48	4
NMTAP	111	288	6
NMSTR	112	0	0
NMSCR	112	0	0	96	48	3
NMTAP	112	0	3
NMTAP	112	96	0
NMHLD	112	96	5	96
NMSTR	112	192	4
NMSI_	112	192	4	96	48	0
NMTAP	112	240	6
NMSTR	112	288	4
NMSCR	112	288	4	96	48	7
NMTAP	113	0	1
NMTAP	113	0	4
NMTAP	113	48	2
NMSTR	113	96	3
NMSF_	113	96	3	96	48	7
NMTAP	113	192	3
EXTAP	113	288	1
EXTAP	113	288	5
NMHLD	114	0	4	96
NMTAP	114	96	2
NMHLD	114	144	1	96
NMTAP	114	144	3
NMTAP	114	240	5
NMTAP	114	288	4
NMHLD	114	288	6	96
NMTAP	115	0	3
NMHLD	115	48	2	96
NMHLD	115	48	4	96
NMSTR	115	192	0
NMSI_	115	192	0	96	48	4
NMSTR	115	192	7
NMSI_	115	192	7	96	48	3
BRTAP	115	288	0
BRTAP	115	288	7
NMTAP	116	0	5
NMTAP	116	24	4
NMTAP	116	48	6
NMTAP	116	72	4
NMHLD	116	96	5	48
NMTAP	116	144	2
NMTAP	116	168	3
NMTAP	116	192	1
NMTAP	116	216	3
NMHLD	116	240	2	48
NMTAP	116	288	6
NMTAP	116	312	4
NMTAP	116	336	5
NMTAP	116	360	4
NMHLD	117	0	6	48
NMTAP	117	48	1
NMTAP	117	72	3
NMTAP	117	96	2
NMTAP	117	120	3
NMHLD	117	144	1	48
NMTAP	117	192	6
NMTAP	117	216	7
NMTAP	117	240	6
NMTAP	117	264	5
NMHLD	117	288	6	48
NMTAP	117	336	1
NMTAP	117	360	0
NMTAP	118	0	1
NMTAP	118	24	2
NMHLD	118	48	1	48
NMTAP	118	96	5
NMTAP	118	120	4
NMTAP	118	144	5
NMTAP	118	168	6
NMHLD	118	192	5	48
NMTAP	118	240	2
NMTAP	118	264	3
NMTAP	118	288	2
NMTAP	118	312	1
NMHLD	118	336	2	48
BRTAP	119	0	7
NMTAP	119	24	6
NMTAP	119	48	5
NMTAP	119	72	3
NMTAP	119	72	4
NMTAP	119	96	2
NMTAP	119	120	1
NMTAP	119	144	0
NMTAP	119	144	7
NMTAP	119	168	6
NMTAP	119	192	5
NMTAP	119	216	3
NMTAP	119	216	4
NMTAP	119	240	2
NMTAP	119	264	1
NMTAP	119	288	0
NMTAP	119	288	6
NMTAP	119	312	5
NMTAP	119	336	4
NMTAP	119	360	2
NMTAP	119	360	3
NMTAP	120	0	1
NMTAP	120	24	0
NMTAP	120	48	6
NMTAP	120	48	7
NMTAP	120	72	5
NMTAP	120	96	4
NMTAP	120	120	0
NMTAP	120	120	3
NMTAP	120	144	1
NMTAP	120	168	2
NMTAP	120	192	3
NMTAP	120	192	5
NMTAP	120	216	6
NMTAP	120	240	7
NMTAP	120	264	0
NMTAP	120	264	1
NMTAP	120	288	2
NMTAP	120	312	3
NMTAP	120	336	4
NMTAP	120	336	5
NMTAP	120	360	6
BRTAP	121	0	1
NMTAP	121	24	0
NMTAP	121	48	1
NMTAP	121	72	0
BRTAP	121	96	1
NMTAP	121	120	0
NMTAP	121	144	1
NMTAP	121	168	0
BRTAP	121	192	2
NMTAP	121	216	7
NMTAP	121	240	1
NMTAP	121	264	0
BRTAP	121	288	2
NMTAP	121	312	7
NMTAP	121	336	1
NMTAP	121	360	0
BRTAP	122	0	2
NMTAP	122	24	6
BRTAP	122	48	3
NMTAP	122	72	6
BRTAP	122	96	4
NMTAP	122	120	6
BRTAP	122	144	5
NMTAP	122	168	6
BXTAP	122	192	7
NMTAP	122	204	0
NMTAP	122	216	1
NMTAP	122	228	2
NMTAP	122	240	3
NMTAP	122	252	4
NMTAP	122	264	5
NMTAP	122	276	6
BXTAP	122	288	7
NMTAP	122	300	0
NMTAP	122	312	1
NMTAP	122	324	2
NMTAP	122	336	3
NMTAP	122	348	4
NMTAP	122	360	5
NMTAP	122	372	6
BXSTR	123	0	3
NMSXL	123	0	3	96	576	7
BXSTR	123	0	7
NMSXL	123	0	7	96	576	3
NMSTR	125	0	2
NMSXR	125	0	2	96	288	0
NMSTR	125	0	6
NMSXR	125	0	6	96	288	4
CNSCR	126	0	0	0	336	4
CNSCR	126	0	4	0	336	0

T_REC_TAP	691
T_REC_BRK	37
T_REC_XTP	30
T_REC_BXX	11
T_REC_HLD	70
T_REC_XHO	2
T_REC_BHO	2
T_REC_BXH	0
T_REC_STR	73
T_REC_BST	4
T_REC_XST	2
T_REC_XBS	2
T_REC_TTP	56
T_REC_THO	1
T_REC_SLD	79
T_REC_BSL	2
T_REC_ALL	1062
T_NUM_TAP	852
T_NUM_BRK	58
T_NUM_HLD	73
T_NUM_SLD	79
T_NUM_ALL	1062
T_JUDGE_TAP	906
T_JUDGE_HLD	299
T_JUDGE_SLD	81
T_JUDGE_ALL	1286
TTM_EACHPAIRS	156
TTM_SCR_TAP	426000
TTM_SCR_BRK	150800
TTM_SCR_HLD	73000
TTM_SCR_SLD	118500
TTM_SCR_ALL	768300
TTM_SCR_S	739650
TTM_SCR_SS	762500
TTM_RAT_ACV	10076

