VERSION	0.00.00	1.04.00
FES_MODE	0
BPM_DEF	198.220	198.220	198.220	198.220
MET_DEF	4	4
RESOLUTION	384
CLK_DEF	384
COMPATIBLE_CODE	MA2

BPM	0	0	198.220
MET	0	0	4	4
MET	46	0	8	6
MET	49	0	4	4
MET	116	0	8	6
MET	119	0	4	4

NMSTR	2	0	3
NMSCL	2	0	3	96	1056	5
NMHLD	2	0	4	2112
NMSTR	6	0	5
NMSUR	6	0	5	96	480	3
NMTAP	8	0	3
NMTAP	8	24	4
NMTAP	8	48	3
NMTAP	8	72	4
NMTAP	8	96	3
NMTAP	8	120	4
NMTAP	8	144	3
NMTAP	8	168	4
NMTAP	8	192	3
NMTAP	8	288	2
NMTAP	8	288	5
NMHLD	8	336	2	240
NMHLD	8	336	5	240
NMTAP	9	288	0
NMTAP	9	288	7
BRTAP	10	0	1
BRHLD	10	0	6	1056
NMTAP	10	96	7
NMTAP	10	144	7
NMTAP	10	240	4
NMTAP	10	288	4
EXTAP	11	0	1
NMTAP	11	96	7
NMTAP	11	144	7
NMTAP	11	240	4
NMTAP	11	288	4
EXTAP	12	0	1
NMTAP	12	96	7
NMTAP	12	144	7
NMTAP	12	240	4
NMTAP	12	288	4
NMTAP	13	0	1
NMTAP	13	0	3
NMTAP	13	96	3
NMTAP	13	96	4
NMTAP	13	192	4
NMTAP	13	192	6
NMTAP	13	288	0
NMTAP	13	288	7
BRHLD	14	0	1	288
BRTAP	14	0	6
NMTAP	14	96	0
NMTAP	14	144	0
NMTAP	14	240	3
NMTAP	14	288	3
NMHLD	15	0	4	288
EXTAP	15	0	6
NMTAP	15	96	5
NMTAP	15	144	5
NMTAP	15	240	3
NMSTR	15	288	3
BRSI_	15	288	3	96	48	7
NMSTR	18	0	6
NMSCL	18	0	6	96	384	2
NMSTR	20	0	1
NMSUR	20	0	1	96	384	5
NMSTR	22	0	6
NMSCR	22	0	6	96	672	4
NMTHO	24	0	0	384	C	1	M1
BRTAP	25	288	0
BRTAP	25	288	7
NMTAP	26	0	2
NMTAP	26	0	6
NMTAP	26	96	3
NMTAP	26	96	5
NMTAP	26	144	4
NMTAP	26	192	2
NMTAP	26	240	2
NMTAP	26	288	1
NMTAP	26	288	3
NMTAP	27	0	1
NMTAP	27	0	5
NMTAP	27	96	2
NMTAP	27	96	4
NMTAP	27	144	3
NMTAP	27	192	5
NMTAP	27	240	5
NMTAP	27	288	4
NMTAP	27	288	6
NMTAP	28	0	2
NMTAP	28	0	6
NMTAP	28	96	3
NMTAP	28	96	5
NMTAP	28	144	4
NMTAP	28	192	2
NMTAP	28	240	2
NMTAP	28	288	1
NMTAP	28	288	3
NMSTR	29	0	0
NMSI_	29	0	0	96	48	4
NMSTR	29	0	6
NMSI_	29	0	6	96	48	4
NMSTR	29	192	1
NMSI_	29	192	1	96	48	3
NMSTR	29	192	7
NMSI_	29	192	7	96	48	3
NMTAP	30	0	4
NMTAP	30	0	6
NMTAP	30	96	1
NMTAP	30	96	5
NMTAP	30	144	5
NMTAP	30	192	3
NMTAP	30	240	3
NMTAP	30	288	6
NMTAP	30	336	6
NMTAP	31	0	1
NMTAP	31	0	5
NMTAP	31	48	1
NMTAP	31	96	7
NMTAP	31	144	7
NMTAP	31	192	0
NMTAP	31	240	0
NMTAP	31	288	1
NMTAP	31	288	7
NMHLD	32	0	4	96
NMHLD	32	0	6	96
NMTAP	32	144	4
NMTAP	32	144	6
NMTAP	32	240	1
NMTAP	32	240	3
NMTAP	32	336	2
NMTAP	32	336	5
BRTAP	33	48	0
BRTAP	33	48	7
BRSTR	33	96	0
NMSCR	33	96	0	96	96	3
BRSTR	33	96	7
NMSCL	33	96	7	96	96	4
NMHLD	34	0	3	336
NMTTP	34	96	0	A	0	M1
NMTTP	34	120	0	B	0	M1
NMTTP	34	144	0	C	0	M1
NMTTP	34	168	4	B	0	M1
NMTTP	34	192	4	A	0	M1
NMHLD	34	336	5	384
NMTTP	35	96	7	A	0	M1
NMTTP	35	120	7	B	0	M1
NMTTP	35	144	0	C	0	M1
NMTTP	35	168	3	B	0	M1
NMTTP	35	192	3	A	0	M1
NMHLD	35	336	2	384
NMTTP	36	96	1	A	0	M1
NMTTP	36	120	0	A	0	M1
NMTTP	36	144	7	A	0	M1
NMTTP	36	168	6	A	0	M1
NMTTP	36	192	5	A	0	M1
NMHLD	36	336	4	336
NMTTP	37	96	6	A	0	M1
NMTTP	37	120	7	A	0	M1
NMTTP	37	144	0	A	0	M1
NMTTP	37	168	1	A	0	M1
NMTTP	37	192	2	A	0	M1
NMTAP	38	0	1
NMTAP	38	0	7
NMTAP	38	96	2
NMHLD	38	144	2	96
NMSTR	38	240	3
NMSCL	38	240	3	96	192	5
NMHLD	39	192	1	72
NMHLD	39	264	2	72
NMTAP	39	336	3
NMTAP	40	0	3
NMTAP	40	96	4
NMTAP	40	96	5
NMTAP	40	144	4
NMTAP	40	144	5
NMTAP	40	240	1
NMTAP	40	240	2
BRSTR	40	336	6
NMSUL	40	336	6	96	240	3
BRSTR	40	336	7
NMSXL	40	336	7	96	240	2
NMTAP	42	0	1
EXTAP	42	0	7
NMTAP	42	48	1
EXTAP	42	48	7
NMTAP	42	96	1
EXTAP	42	96	7
NMSTR	42	144	1
NMSI_	42	144	1	96	96	4
EXHLD	42	144	7	336
CNSI_	42	336	4	0	48	6
CNSI_	43	0	6	0	96	3
NMTAP	43	192	2
NMTAP	43	192	4
NMTAP	43	264	3
NMTAP	43	264	5
NMTAP	43	336	7
EXTAP	44	0	0
NMTAP	44	0	6
EXTAP	44	48	0
NMTAP	44	48	6
EXTAP	44	96	0
NMTAP	44	96	6
EXSTR	44	144	0
NMSLR	44	144	0	96	120	4
NMTAP	44	144	6
EXHLD	45	0	5	64
EXHLD	45	64	4	64
EXHLD	45	128	6	64
EXHLD	45	192	2	64
EXHLD	45	256	3	64
EXTAP	45	320	1
NMTAP	46	0	6
NMTAP	46	48	5
NMTAP	46	96	4
NMTAP	46	144	6
NMTAP	46	192	5
NMTAP	46	240	4
NMTAP	46	288	6
NMTAP	46	336	5
NMTAP	47	0	4
NMTAP	47	48	6
NMTAP	47	96	3
NMTAP	47	96	5
NMTAP	47	192	1
NMTAP	47	240	2
NMTAP	47	288	3
NMTAP	47	336	1
NMTAP	48	0	2
NMTAP	48	48	3
NMTAP	48	96	1
NMTAP	48	144	2
NMTAP	48	192	3
NMTAP	48	240	1
NMTAP	48	288	2
NMTAP	48	288	4
NMHLD	49	0	6	72
NMHLD	49	72	5	72
NMHLD	49	144	4	72
NMHLD	49	216	3	72
NMHLD	49	288	2	72
NMHLD	49	360	1	72
NMHLD	50	48	0	72
NMHLD	50	120	7	72
NMHLD	50	192	6	72
NMHLD	50	264	5	72
NMTAP	50	336	4
EXTAP	51	0	1
NMTAP	51	24	7
EXTAP	51	48	1
NMTAP	51	72	7
EXTAP	51	96	1
NMTAP	51	120	7
EXTAP	51	144	1
NMTAP	51	168	7
EXTAP	51	192	1
NMTAP	51	216	7
EXTAP	51	240	1
NMTAP	51	264	7
EXTAP	51	288	1
NMTAP	51	312	7
EXTAP	51	336	1
NMTAP	51	360	7
BXSTR	52	0	0
NMSF_	52	0	0	96	384	4
NMSTR	54	0	3
NMSCL	54	0	3	96	1056	4
NMSTR	58	0	3
BRSCL	58	0	3	96	1056	4
NMHLD	62	0	2	768
NMTTP	63	0	3	E	0	M1
NMTTP	63	192	4	E	0	M1
NMHLD	64	0	5	768
NMTTP	65	0	5	E	0	M1
NMTTP	65	192	4	E	0	M1
NMTTP	66	0	2	B	0	M1
NMTTP	66	0	3	B	0	M1
NMTTP	66	192	4	B	0	M1
NMTTP	66	192	5	B	0	M1
NMTTP	67	0	1	B	0	M1
NMTTP	67	0	2	E	0	M1
NMTTP	67	192	6	B	0	M1
NMTTP	67	192	6	E	0	M1
NMSTR	68	0	0
NMSCR	68	0	0	96	384	3
NMSTR	68	0	7
NMSCL	68	0	7	96	384	4
EXTAP	70	0	2
NMTAP	70	32	3
NMTAP	70	64	2
EXTAP	70	96	3
EXTAP	70	192	5
NMTAP	70	224	4
NMTAP	70	256	5
EXTAP	70	288	4
EXTAP	71	0	1
NMTAP	71	32	0
NMTAP	71	64	1
EXTAP	71	96	0
EXTAP	71	192	6
NMTAP	71	224	7
NMTAP	71	256	6
EXSTR	71	288	7
NMSI_	71	288	7	96	48	3
BXTAP	72	96	1
BXTAP	72	96	5
NMSTR	72	192	2
NMSI_	72	192	2	96	48	4
EXTAP	72	288	5
NMSTR	73	0	6
NMSI_	73	0	6	96	48	3
EXTAP	73	96	2
NMSTR	73	192	1
NMSI_	73	192	1	96	48	5
EXTAP	73	288	7
NMTAP	74	0	0
NMTAP	74	0	6
NMTAP	74	96	2
NMTAP	74	96	4
NMTAP	74	144	2
NMTAP	74	144	4
NMTAP	74	240	0
NMSTR	74	240	1
NMSXR	74	240	1	96	240	5
EXTAP	74	336	6
NMTAP	75	288	6
NMTAP	75	288	7
NMTAP	76	0	4
NMTAP	76	0	5
NMTAP	76	48	3
NMTAP	76	96	2
NMTAP	76	144	1
NMHLD	76	192	0	72
NMHLD	76	264	3	72
NMTAP	76	336	2
NMTAP	77	0	3
NMTAP	77	48	4
NMTAP	77	96	5
NMTAP	77	144	6
NMHLD	77	192	7	72
NMHLD	77	264	4	72
NMTAP	77	336	5
NMTAP	78	0	4
NMTAP	78	0	6
NMTAP	78	96	2
NMTAP	78	144	1
NMTAP	78	144	3
NMTAP	78	240	6
NMTAP	78	240	7
NMTAP	78	288	0
NMTAP	78	288	5
NMTAP	79	0	0
NMTAP	79	0	1
NMTAP	79	48	2
NMTAP	79	48	7
NMTAP	79	144	3
NMTAP	79	144	4
NMTAP	79	192	2
NMTAP	79	192	5
BRTAP	79	288	0
BRTAP	79	288	7
NMSTR	80	0	1
NMSI_	80	0	1	96	48	3
NMSTR	80	96	5
NMSI_	80	96	5	96	48	7
NMSTR	80	192	0
NMSI_	80	192	0	96	48	4
NMTAP	80	288	5
NMSTR	81	0	6
NMSI_	81	0	6	96	48	4
NMSTR	81	96	2
NMSI_	81	96	2	96	48	0
NMSTR	81	192	7
NMSI_	81	192	7	96	48	3
NMTAP	81	288	2
NMHLD	82	0	1	96
NMHLD	82	96	3	96
NMHLD	82	192	5	96
NMHLD	82	288	7	96
NMTAP	83	0	0
NMTAP	83	48	0
NMTAP	83	96	6
NMTAP	83	144	6
NMTAP	83	192	2
NMTAP	83	240	2
NMTAP	83	288	3
NMTAP	83	288	4
NMSTR	84	0	5
NMSI_	84	0	5	96	48	3
NMTAP	84	96	1
NMSTR	84	144	1
NMSI_	84	144	1	96	48	5
NMTAP	84	240	7
NMSTR	84	288	7
NMSI_	84	288	7	96	48	3
NMTAP	85	0	2
NMHLD	85	48	2	144
NMTAP	85	144	4
NMTAP	85	192	4
NMTAP	85	288	1
NMTAP	85	288	5
NMTHO	86	0	0	384	C	1	M1
NMTTP	87	0	0	B	0	M1
NMTTP	87	0	0	E	0	M1
NMTTP	87	0	1	B	0	M1
NMTTP	87	0	1	E	0	M1
NMTTP	87	0	6	B	0	M1
NMTTP	87	0	7	B	0	M1
NMTTP	87	0	7	E	0	M1
NMTAP	88	0	1
NMTAP	88	24	0
NMTAP	88	48	1
NMTAP	88	72	0
NMTAP	88	96	1
NMTAP	88	144	6
NMTAP	88	168	7
NMTAP	88	192	6
NMTAP	88	216	7
NMTAP	88	240	6
NMTAP	88	288	1
NMTAP	88	312	3
NMTAP	88	336	1
NMTAP	88	360	3
NMTAP	89	0	1
NMTAP	89	48	6
NMTAP	89	72	4
NMTAP	89	96	6
NMTAP	89	120	4
NMTAP	89	144	6
NMTAP	89	192	2
NMTAP	89	192	5
NMTAP	89	288	0
NMTAP	89	288	7
NMTAP	90	0	1
NMTAP	90	24	0
NMTAP	90	48	1
NMTAP	90	72	0
NMTAP	90	96	1
NMTAP	90	144	6
NMTAP	90	168	7
NMTAP	90	192	6
NMTAP	90	216	7
NMTAP	90	240	6
NMTAP	90	288	2
NMTAP	90	312	0
NMTAP	90	336	2
NMTAP	90	360	0
NMTAP	91	0	2
NMTAP	91	48	5
NMTAP	91	72	7
NMTAP	91	96	5
NMTAP	91	120	7
NMTAP	91	144	5
EXTAP	91	192	1
EXTAP	91	192	6
EXTAP	91	264	3
EXTAP	91	264	4
EXTAP	91	336	0
EXTAP	91	336	7
NMTTP	92	96	0	C	1	M1
NMTTP	92	96	1	B	0	M1
NMTTP	92	96	1	A	0	M1
NMTTP	92	96	2	B	0	M1
NMTTP	92	96	2	E	0	M1
NMTTP	92	96	2	A	0	M1
NMTTP	92	96	5	B	0	M1
NMTTP	92	96	5	A	0	M1
NMTTP	92	96	6	B	0	M1
NMTTP	92	96	6	E	0	M1
NMTTP	92	96	6	A	0	M1
NMTAP	93	0	0
NMTAP	93	48	1
NMTAP	93	96	2
NMTAP	93	144	3
NMTAP	93	192	7
NMTAP	93	240	6
NMTAP	93	288	5
NMTAP	93	336	4
NMHLD	94	0	2	96
NMSTR	94	0	3
NMSI_	94	0	3	96	48	7
NMSTR	94	192	4
NMSI_	94	192	4	96	48	0
NMHLD	94	192	5	96
NMHLD	95	0	1	72
NMHLD	95	72	3	72
NMHLD	95	144	4	72
NMTAP	95	216	6
BXTAP	95	288	0
BXTAP	95	288	7
NMTAP	96	0	6
NMTAP	96	0	7
NMTAP	96	96	2
NMTAP	96	96	4
NMTAP	96	192	5
NMTAP	96	240	4
NMTAP	96	288	3
NMTAP	96	288	6
NMTAP	97	0	0
NMTAP	97	0	1
NMTAP	97	96	3
NMTAP	97	96	5
NMTAP	97	192	2
NMTAP	97	240	3
NMTAP	97	288	1
NMTAP	97	288	4
NMTAP	97	336	1
NMHLD	97	336	4	112
EXTAP	98	64	2
EXTAP	98	128	3
EXTAP	98	128	5
EXTAP	98	192	1
EXTAP	98	192	4
EXTAP	98	256	3
EXTAP	98	256	6
EXTAP	98	320	0
EXTAP	98	320	4
BXSTR	99	0	3
BRSXR	99	0	3	96	288	0
BXSTR	99	0	7
BRSXR	99	0	7	96	288	4
NMTAP	103	192	0
NMTAP	103	192	7
NMTAP	103	264	1
NMTAP	103	264	6
NMTAP	103	336	2
NMTAP	103	336	5
NMTAP	104	0	2
NMHLD	104	0	5	192
NMTAP	104	96	3
NMTAP	104	144	2
NMHLD	104	192	1	192
NMTAP	104	288	5
NMTAP	104	336	6
NMSTR	105	0	7
NMSI_	105	0	7	96	48	2
NMSTR	105	96	1
NMSI_	105	96	1	96	48	4
NMSTR	105	192	6
NMSI_	105	192	6	96	48	3
NMSTR	105	288	0
NMSI_	105	288	0	96	48	5
NMSTR	106	0	7
NMSF_	106	0	7	96	192	3
NMHLD	107	0	1	288
NMHLD	107	0	5	288
BRSTR	108	0	2
NMSI_	108	0	2	96	48	7
BRTAP	108	0	4
NMSTR	108	96	6
NMSI_	108	96	6	96	48	3
NMSTR	108	192	0
NMSI_	108	192	0	96	48	3
NMSTR	108	288	4
NMSI_	108	288	4	96	48	7
NMSTR	109	0	1
NMSI_	109	0	1	96	48	6
NMSTR	109	96	5
NMSI_	109	96	5	96	48	0
NMSTR	109	192	1
NMSI_	109	192	1	96	48	4
NMSTR	109	288	7
NMSI_	109	288	7	96	48	4
NMSTR	110	0	3
NMSI_	110	0	3	96	48	0
NMSTR	110	96	6
NMSI_	110	96	6	96	48	2
NMSTR	110	192	1
NMSI_	110	192	1	96	48	4
NMSTR	110	288	5
NMSI_	110	288	5	96	48	0
NMSTR	111	0	2
NMSI_	111	0	2	96	48	7
NMSTR	111	96	6
NMSI_	111	96	6	96	48	3
NMSTR	111	192	1
NMSI_	111	192	1	96	48	5
NMSTR	111	288	7
NMSCL	111	288	7	96	288	0
NMTTP	112	0	0	C	1	M1
NMSTR	113	0	0
NMSI_	113	0	0	96	48	4
NMSTR	113	0	7
NMSI_	113	0	7	96	48	5
NMSTR	113	192	2
NMSI_	113	192	2	96	48	0
NMSTR	113	192	3
NMSI_	113	192	3	96	48	7
NMTAP	114	0	4
NMTAP	114	0	6
NMTAP	114	96	2
NMTAP	114	96	3
NMTAP	114	144	2
NMTAP	114	144	3
NMTAP	114	240	4
NMTAP	114	240	5
NMTAP	114	288	4
NMTAP	114	288	5
NMTAP	115	0	1
NMTAP	115	0	3
NMTAP	115	48	1
NMTAP	115	48	3
NMTAP	115	144	2
NMTAP	115	144	6
NMTAP	115	192	2
NMTAP	115	192	6
BRTAP	115	288	1
BRTAP	115	288	7
EXTAP	116	0	0
NMTAP	116	48	5
NMTAP	116	72	4
NMTAP	116	96	5
EXTAP	116	144	0
NMTAP	116	192	5
NMTAP	116	216	4
NMTAP	116	240	5
EXTAP	116	288	0
NMTAP	116	336	5
NMTAP	116	360	4
NMTAP	117	0	5
EXTAP	117	48	2
EXTAP	117	48	6
EXTAP	117	96	2
EXTAP	117	96	6
EXTAP	117	192	7
NMTAP	117	240	2
NMTAP	117	264	3
NMTAP	117	288	2
EXTAP	117	336	7
NMTAP	118	0	2
NMTAP	118	24	3
NMTAP	118	48	2
EXTAP	118	96	7
NMTAP	118	144	2
NMTAP	118	168	3
NMTAP	118	192	2
EXTAP	118	240	1
EXTAP	118	240	5
EXTAP	118	288	1
EXTAP	118	288	5
NMHLD	119	0	4	72
NMHLD	119	72	2	72
NMHLD	119	144	0	72
NMHLD	119	216	6	72
NMHLD	119	288	4	72
NMHLD	119	360	1	72
NMHLD	120	48	3	72
NMHLD	120	120	5	72
NMHLD	120	192	7	72
NMHLD	120	264	1	72
EXTAP	120	336	3
NMTAP	121	0	0
NMTAP	121	24	4
NMTAP	121	48	0
NMTAP	121	72	4
NMTAP	121	96	0
NMTAP	121	120	4
NMTAP	121	144	0
NMTAP	121	168	4
NMTAP	121	192	0
NMTAP	121	216	4
NMTAP	121	240	0
NMTAP	121	264	4
NMTAP	121	288	0
NMTAP	121	312	4
NMTAP	121	336	0
NMTAP	121	360	4
NMTAP	122	0	0
NMTAP	122	24	1
NMTAP	122	48	2
NMTAP	122	72	3
NMTAP	122	96	4
NMTAP	122	120	5
NMTAP	122	144	6
NMTAP	122	168	7
NMTAP	122	192	0
NMTAP	122	216	1
NMTAP	122	240	2
NMTAP	122	264	3
NMTAP	122	288	4
NMTAP	122	312	5
NMTAP	122	336	6
NMTAP	122	360	7
BRSTR	123	0	0
NMSUL	123	0	0	96	672	7
BRTAP	123	0	4
NMSTR	125	0	4
NMSUL	125	0	4	96	672	3
NMTTP	127	0	0	C	0	M1

T_REC_TAP	358
T_REC_BRK	12
T_REC_XTP	59
T_REC_BXX	4
T_REC_HLD	54
T_REC_XHO	6
T_REC_BHO	2
T_REC_BXH	0
T_REC_STR	56
T_REC_BST	6
T_REC_XST	2
T_REC_XBS	3
T_REC_TTP	52
T_REC_THO	2
T_REC_SLD	63
T_REC_BSL	4
T_REC_ALL	683
T_NUM_TAP	527
T_NUM_BRK	31
T_NUM_HLD	62
T_NUM_SLD	63
T_NUM_ALL	683
T_JUDGE_TAP	552
T_JUDGE_HLD	285
T_JUDGE_SLD	67
T_JUDGE_ALL	904
TTM_EACHPAIRS	112
TTM_SCR_TAP	263500
TTM_SCR_BRK	80600
TTM_SCR_HLD	62000
TTM_SCR_SLD	94500
TTM_SCR_ALL	500600
TTM_SCR_S	482600
TTM_SCR_SS	497500
TTM_RAT_ACV	10062

