VERSION	0.00.00	1.04.00
FES_MODE	0
BPM_DEF	198.200	198.200	198.200	198.200
MET_DEF	4	4
RESOLUTION	384
CLK_DEF	384
COMPATIBLE_CODE	MA2

BPM	0	0	198.200
MET	0	0	4	4
MET	46	0	8	6
MET	49	0	4	4
MET	116	0	8	6
MET	119	0	4	4

NMTAP	2	0	1
NMTAP	3	0	2
NMTAP	4	0	3
NMTAP	5	0	4
NMTAP	6	0	5
NMTAP	7	0	6
BRTAP	8	0	0
BRTAP	8	0	7
NMTAP	10	0	6
NMTAP	10	192	6
NMTAP	11	0	5
NMTAP	11	192	5
NMTAP	12	0	4
NMTAP	12	192	4
NMTAP	13	0	2
NMTAP	13	0	3
NMTAP	14	0	1
NMTAP	14	192	1
NMTAP	15	0	2
NMTAP	15	192	2
NMHLD	16	0	3	384
NMHLD	16	0	4	384
NMTTP	18	0	5	B	0	L1
NMTTP	18	192	6	B	0	L1
NMTTP	19	0	7	B	0	L1
NMTTP	20	0	2	B	0	L1
NMTTP	20	192	1	B	0	L1
NMTTP	21	0	0	B	0	L1
NMTTP	22	0	5	B	0	L1
NMTTP	22	192	6	B	0	L1
NMTTP	23	0	7	B	0	L1
NMTTP	23	192	0	B	0	L1
NMTTP	24	0	1	B	0	L1
NMTTP	24	192	2	B	0	L1
NMTTP	25	0	3	B	0	L1
NMTTP	25	0	4	B	0	L1
NMTAP	26	0	6
NMTAP	26	96	6
NMTAP	26	192	6
NMTAP	26	192	7
NMTAP	27	0	5
NMTAP	27	96	5
NMTAP	27	192	4
NMTAP	27	192	5
NMTAP	28	0	3
NMTAP	28	96	3
NMTAP	28	192	2
NMTAP	28	192	3
NMTAP	29	0	0
NMTAP	29	0	1
NMTAP	30	0	1
NMTAP	30	96	1
NMTAP	30	192	0
NMTAP	30	192	1
NMTAP	31	0	2
NMTAP	31	96	2
NMTAP	31	192	2
NMTAP	31	192	3
NMTAP	32	0	4
NMTAP	32	96	4
NMTAP	32	192	4
NMTAP	32	192	5
EXTAP	33	0	6
EXTAP	33	0	7
NMHLD	34	0	5	192
NMTAP	34	192	4
NMTAP	35	0	4
NMTAP	35	0	5
NMTAP	35	96	4
NMTAP	35	96	5
NMTAP	35	192	4
NMTAP	35	192	5
NMHLD	36	0	2	192
NMTAP	36	192	3
NMTAP	37	0	2
NMTAP	37	0	3
NMTAP	37	96	2
NMTAP	37	96	3
NMTAP	37	192	2
NMTAP	37	192	3
NMHLD	38	0	5	192
NMTAP	38	192	4
NMTAP	39	0	4
NMTAP	39	0	5
NMTAP	39	96	4
NMTAP	39	96	5
NMTAP	39	192	3
NMTAP	39	192	6
NMHLD	40	0	2	192
NMTAP	40	192	3
NMTAP	41	0	2
NMTAP	41	0	3
NMTAP	41	96	2
NMTAP	41	96	3
NMTAP	41	192	1
NMTAP	41	192	4
NMTAP	42	0	2
NMTAP	42	96	2
NMTAP	42	192	1
NMTAP	42	288	1
NMTAP	43	0	0
NMTAP	43	96	0
NMTAP	43	192	6
NMTAP	43	192	7
NMTAP	44	0	5
NMTAP	44	96	5
NMTAP	44	192	6
NMTAP	44	288	6
NMTAP	45	0	7
NMTAP	45	96	7
NMTAP	45	192	0
NMTAP	45	192	1
EXTAP	46	0	1
EXTAP	46	0	3
EXTAP	46	144	1
EXTAP	46	144	3
EXTAP	46	288	1
EXTAP	46	288	3
EXTAP	47	48	1
EXTAP	47	48	3
EXTAP	47	192	4
EXTAP	47	192	6
EXTAP	47	336	4
EXTAP	47	336	6
EXTAP	48	96	4
EXTAP	48	96	6
EXTAP	48	240	4
EXTAP	48	240	6
EXHLD	49	0	0	768
EXHLD	49	0	7	768
NMSTR	54	0	6
NMSCL	54	0	6	96	288	3
NMSTR	56	0	2
NMSCL	56	0	2	96	288	7
NMSTR	58	0	6
NMSCL	58	0	6	96	288	3
NMSTR	60	0	2
NMSCL	60	0	2	96	288	7
NMHLD	62	0	5	192
NMHLD	62	192	4	192
NMHLD	63	0	3	192
NMTAP	63	192	2
NMHLD	64	0	2	192
NMHLD	64	192	3	192
NMHLD	65	0	4	192
NMTAP	65	192	5
NMHLD	66	0	6	192
NMHLD	66	192	5	192
NMHLD	67	0	4	192
NMHLD	67	192	3	192
NMHLD	68	0	2	192
NMTAP	68	192	1
NMTAP	69	0	0
NMTAP	69	0	7
NMTAP	70	0	0
NMTAP	70	0	7
NMTAP	70	96	0
NMTAP	70	96	7
NMTAP	70	192	1
NMTAP	70	192	6
NMTAP	70	288	1
NMTAP	70	288	6
NMTAP	71	0	2
NMTAP	71	0	5
NMTAP	71	96	2
NMTAP	71	96	5
BXTAP	71	192	3
BXTAP	71	192	4
NMTAP	72	0	2
NMTAP	72	96	2
NMTAP	72	192	0
NMTAP	72	192	1
NMTAP	72	288	0
NMTAP	72	288	1
NMTAP	73	0	7
NMTAP	73	96	7
NMTAP	73	192	6
NMTAP	73	192	7
NMTAP	74	0	5
NMTAP	74	96	5
NMTAP	74	192	6
NMTAP	74	192	7
NMTAP	74	288	6
NMTAP	74	288	7
NMTAP	75	0	0
NMTAP	75	96	0
NMTAP	75	192	0
NMTAP	75	192	1
NMTAP	76	0	2
NMTAP	76	48	2
NMTAP	76	96	2
NMTAP	76	192	2
NMTAP	76	192	3
NMTAP	77	0	5
NMTAP	77	48	5
NMTAP	77	96	5
NMTAP	77	192	4
NMTAP	77	192	5
EXTAP	78	0	4
EXTAP	78	0	6
EXTAP	78	144	4
EXTAP	78	144	6
EXTAP	78	288	1
EXTAP	78	288	3
EXTAP	79	48	1
EXTAP	79	48	3
BXTAP	79	192	2
BXTAP	79	192	5
NMTAP	80	0	3
NMTAP	80	96	3
NMTAP	80	192	3
NMTAP	80	288	2
NMTAP	80	288	3
NMTAP	81	0	1
NMTAP	81	96	1
NMTAP	81	192	1
NMTAP	81	288	0
NMTAP	81	288	1
NMTAP	82	0	7
NMTAP	82	96	7
NMTAP	82	192	7
NMTAP	82	288	6
NMTAP	82	288	7
NMTAP	83	0	4
NMTAP	83	0	5
NMTAP	83	96	4
NMTAP	83	96	5
NMTAP	83	192	3
NMTAP	83	192	6
NMTAP	84	0	4
NMTAP	84	96	4
NMTAP	84	192	4
NMTAP	84	288	4
NMTAP	84	288	5
NMTAP	85	0	6
NMTAP	85	96	6
NMTAP	85	192	6
NMTAP	85	288	6
NMTAP	85	288	7
NMTAP	86	0	0
NMTAP	86	96	0
NMTAP	86	192	0
NMTAP	86	288	0
NMTAP	86	288	1
NMTAP	87	0	2
NMTAP	87	0	3
NMTAP	87	96	2
NMTAP	87	96	3
NMTAP	87	192	1
NMTAP	87	192	4
EXTAP	88	0	1
EXTAP	88	0	3
EXTAP	88	144	1
EXTAP	88	144	3
EXTAP	88	288	4
EXTAP	88	288	6
EXTAP	89	48	4
EXTAP	89	48	6
EXTAP	89	192	2
EXTAP	89	192	5
NMTAP	90	0	1
NMTAP	90	48	1
NMTAP	90	96	1
NMTAP	90	192	0
NMTAP	90	240	0
NMTAP	90	288	0
NMTAP	91	0	7
NMTAP	91	48	7
NMTAP	91	96	7
NMTAP	91	192	6
NMTAP	91	240	6
NMTAP	91	288	6
EXHLD	92	0	0	576
EXHLD	92	0	7	576
NMTAP	94	0	6
NMTAP	94	48	6
NMTAP	94	96	6
NMTAP	94	192	6
NMTAP	94	192	7
NMTAP	95	0	1
NMTAP	95	48	1
NMTAP	95	96	1
NMTAP	95	192	0
NMTAP	95	192	1
NMTAP	96	0	1
NMTAP	96	96	2
NMTAP	96	192	3
NMTAP	96	288	4
NMTAP	97	0	5
NMTAP	97	96	6
NMTAP	97	192	0
NMTAP	97	192	7
EXHLD	98	0	1	576
EXHLD	98	0	6	576
NMSTR	100	0	1
NMSUR	100	0	1	96	480	4
NMSTR	102	0	6
NMSUL	102	0	6	96	480	3
NMTAP	104	0	2
NMTAP	104	96	2
NMTAP	104	192	2
NMTAP	104	192	3
NMTAP	105	0	1
NMTAP	105	96	1
NMTAP	105	192	0
NMTAP	105	192	1
NMTAP	106	0	6
NMTAP	106	96	6
NMTAP	106	192	6
NMTAP	106	192	7
NMTAP	107	0	5
NMTAP	107	96	5
NMTAP	107	192	4
NMTAP	107	192	5
NMTAP	108	0	5
NMTAP	108	48	5
NMTAP	108	96	5
NMTAP	108	192	6
NMTAP	108	240	6
NMTAP	108	288	6
NMTAP	109	0	7
NMTAP	109	48	7
NMTAP	109	96	7
NMTAP	109	192	0
NMTAP	109	192	1
NMTAP	110	0	2
NMTAP	110	48	2
NMTAP	110	96	2
NMTAP	110	192	1
NMTAP	110	240	1
NMTAP	110	288	1
NMTAP	111	0	0
NMTAP	111	48	0
NMTAP	111	96	0
NMTAP	111	192	6
NMTAP	111	192	7
NMTAP	112	0	6
NMTAP	112	48	6
NMTAP	112	96	6
NMTAP	112	192	5
NMTAP	112	240	5
NMTAP	112	288	5
NMTAP	113	0	4
NMTAP	113	48	4
NMTAP	113	96	4
NMTAP	113	192	2
NMTAP	113	192	3
NMTAP	114	0	1
NMTAP	114	48	1
NMTAP	114	96	1
NMTAP	114	192	2
NMTAP	114	240	2
NMTAP	114	288	2
NMTAP	115	0	3
NMTAP	115	48	3
NMTAP	115	96	3
NMTAP	115	192	4
NMTAP	115	192	5
EXTAP	116	0	4
EXTAP	116	0	6
EXTAP	116	144	4
EXTAP	116	144	6
EXTAP	116	288	1
EXTAP	116	288	3
EXTAP	117	48	1
EXTAP	117	48	3
EXTAP	117	192	4
EXTAP	117	192	6
EXTAP	117	336	4
EXTAP	117	336	6
EXTAP	118	96	1
EXTAP	118	96	3
EXTAP	118	240	1
EXTAP	118	240	3
EXTAP	119	0	2
EXTAP	119	72	2
EXTAP	119	144	1
EXTAP	119	144	3
EXTAP	119	288	5
EXTAP	119	360	5
EXTAP	120	48	4
EXTAP	120	48	6
EXTAP	120	192	2
EXTAP	120	192	5
EXTAP	120	264	2
EXTAP	120	264	5
EXHLD	120	336	2	624
EXHLD	120	336	5	624
NMTAP	123	0	3
NMTAP	123	192	2
NMTAP	124	0	1
NMTAP	124	192	0
NMTAP	125	0	7
NMTAP	125	192	6
NMTAP	126	0	5
BRTAP	126	192	3
BRTAP	126	192	4

T_REC_TAP	274
T_REC_BRK	4
T_REC_XTP	64
T_REC_BXX	4
T_REC_HLD	17
T_REC_XHO	8
T_REC_BHO	0
T_REC_BXH	0
T_REC_STR	6
T_REC_BST	0
T_REC_XST	0
T_REC_XBS	0
T_REC_TTP	14
T_REC_THO	0
T_REC_SLD	6
T_REC_BSL	0
T_REC_ALL	397
T_NUM_TAP	358
T_NUM_BRK	8
T_NUM_HLD	25
T_NUM_SLD	6
T_NUM_ALL	397
T_JUDGE_TAP	366
T_JUDGE_HLD	182
T_JUDGE_SLD	6
T_JUDGE_ALL	554
TTM_EACHPAIRS	99
TTM_SCR_TAP	179000
TTM_SCR_BRK	20800
TTM_SCR_HLD	25000
TTM_SCR_SLD	9000
TTM_SCR_ALL	233800
TTM_SCR_S	226050
TTM_SCR_SS	233000
TTM_RAT_ACV	10034

