VERSION	0.00.00	1.04.00
FES_MODE	0
BPM_DEF	163.000	163.000	163.000	163.000
MET_DEF	4	4
RESOLUTION	384
CLK_DEF	384
COMPATIBLE_CODE	MA2

BPM	0	0	163.000
MET	0	0	4	4

NMSTR	2	0	0
NMSCR	2	0	0	96	96	3
NMSTR	2	192	7
NMSCL	2	192	7	96	96	4
NMTAP	3	0	2
NMTAP	3	48	1
NMSTR	3	96	0
NMSUL	3	96	0	96	96	4
NMSUR	3	96	0	96	96	4
NMTAP	3	144	0
NMSTR	4	0	3
NMSXL	4	0	3	96	192	0
NMSTR	4	0	5
NMSXR	4	0	5	96	192	0
NMSTR	5	0	1
NMSXR	5	0	1	96	192	4
NMSTR	5	0	7
NMSXL	5	0	7	96	192	4
NMSTR	6	0	3
NMSCL	6	0	3	96	96	0
NMSTR	6	192	4
NMSCR	6	192	4	96	96	7
NMTAP	7	0	1
NMTAP	7	48	2
NMSTR	7	96	3
NMSUL	7	96	3	96	96	7
NMSUR	7	96	3	96	96	7
NMTAP	7	144	3
NMSTR	8	0	0
NMSXR	8	0	0	96	192	3
NMSTR	8	0	6
NMSXL	8	0	6	96	192	3
NMHLD	9	0	1	672
NMSTR	9	96	6
NMSI_	9	96	6	96	168	3
NMTAP	9	144	6
CNSLR	9	360	3	0	216	0
NMTAP	10	288	6
BXTAP	11	0	0
BXTAP	11	0	7
EXTAP	11	12	1
EXTAP	11	12	6
EXTAP	11	24	2
EXTAP	11	24	5
EXTAP	11	36	3
EXTAP	11	36	4
NMTAP	11	96	2
NMTAP	11	120	3
NMTAP	11	144	2
NMTAP	11	168	4
NMTAP	11	192	3
NMTAP	11	216	4
NMTAP	11	240	2
NMTAP	11	264	3
NMHLD	11	288	1	48
NMTAP	11	336	0
BRTAP	12	0	0
BRTAP	12	0	1
NMTAP	12	12	2
NMTAP	12	12	7
NMTAP	12	24	3
NMTAP	12	24	6
NMTAP	12	36	4
NMTAP	12	36	5
NMSTR	12	96	6
NMSCR	12	96	6	96	96	4
NMTAP	12	120	4
NMTAP	12	144	5
NMTAP	12	168	4
NMTAP	12	192	6
BRTAP	13	0	6
BRTAP	13	0	7
NMTAP	13	12	0
NMTAP	13	12	5
NMTAP	13	24	1
NMTAP	13	24	4
NMTAP	13	36	2
NMTAP	13	36	3
NMTAP	13	96	5
NMTAP	13	120	3
NMTAP	13	144	4
NMTAP	13	168	3
NMTAP	13	192	5
NMTAP	13	216	4
NMTAP	13	240	5
NMHLD	13	288	3	48
NMHLD	13	288	6	48
BRTAP	14	0	0
BRTAP	14	0	7
NMTAP	14	12	1
NMTAP	14	12	6
NMTAP	14	24	2
NMTAP	14	24	5
NMTAP	14	36	3
NMTAP	14	36	4
NMTAP	14	96	1
NMTAP	14	120	3
NMTAP	14	144	2
NMTAP	14	168	4
NMTAP	14	192	3
NMTAP	14	216	5
NMTAP	14	240	2
NMTAP	14	264	4
NMTAP	14	288	3
NMTAP	14	336	2
NMTAP	14	336	5
NMTAP	15	0	1
NMTAP	15	16	0
NMTAP	15	32	1
NMTAP	15	48	0
NMTAP	15	96	2
NMTAP	15	96	7
NMTAP	15	144	2
NMTAP	15	144	7
NMTAP	15	192	3
NMTAP	15	192	6
NMTAP	15	240	4
NMTAP	15	256	5
NMTAP	15	272	4
NMTAP	15	288	5
NMTAP	15	336	3
NMTAP	15	336	6
NMTAP	16	0	2
NMTAP	16	16	3
NMTAP	16	32	2
NMTAP	16	48	3
NMTAP	16	96	2
NMTAP	16	96	4
NMTAP	16	144	1
NMTAP	16	144	5
NMTAP	16	192	0
NMTAP	16	192	6
NMTAP	16	240	7
NMTAP	16	264	7
NMTAP	16	288	7
NMTAP	16	312	7
NMTAP	16	336	7
NMTAP	17	0	2
NMTAP	17	16	3
NMTAP	17	32	2
NMTAP	17	48	3
NMTAP	17	96	1
NMTAP	17	96	4
NMTAP	17	144	1
NMTAP	17	144	4
NMTAP	17	192	0
NMTAP	17	192	5
NMTAP	17	240	6
NMTAP	17	256	7
NMTAP	17	272	6
NMTAP	17	288	7
NMTAP	17	336	0
NMTAP	17	336	5
NMTAP	18	0	1
NMTAP	18	16	0
NMTAP	18	32	1
NMTAP	18	48	0
NMTAP	18	96	2
NMTAP	18	96	7
NMTAP	18	144	3
NMTAP	18	144	6
NMHLD	18	192	4	48
NMHLD	18	240	5	48
NMTAP	18	288	4
NMTAP	18	336	3
NMTAP	18	336	6
NMTAP	19	0	1
NMTAP	19	0	4
NMTAP	19	48	2
NMTAP	19	72	3
NMTAP	19	120	5
NMTAP	19	144	4
NMTAP	19	192	2
NMTAP	19	192	6
NMTAP	19	240	5
NMTAP	19	264	3
NMTAP	19	264	5
NMTAP	19	312	2
NMTAP	19	336	2
NMTAP	19	336	4
NMTAP	20	0	1
NMTAP	20	0	5
NMTAP	20	48	2
NMTAP	20	72	2
NMTAP	20	72	3
NMTAP	20	120	5
NMTAP	20	144	4
NMTAP	20	144	5
NMTAP	20	192	2
NMTAP	20	216	3
NMTAP	20	240	2
NMTAP	20	264	3
NMTAP	20	288	1
NMTAP	20	312	4
NMTAP	20	336	1
NMTAP	20	360	4
EXHLD	21	0	0	24
EXHLD	21	48	0	24
EXHLD	21	96	1	24
EXHLD	21	96	7	24
EXHLD	21	144	2	24
EXHLD	21	144	6	24
EXSTR	21	192	3
NMSI_	21	192	3	96	48	7
EXHLD	21	192	5	24
NMTAP	21	288	3
NMTAP	22	0	0
NMTAP	22	0	6
NMTAP	22	48	1
NMTAP	22	72	3
NMTAP	22	96	2
NMTAP	22	120	4
NMTAP	22	144	3
NMTAP	22	168	5
NMSTR	22	192	1
NMSI_	22	192	1	96	48	5
NMTAP	22	216	6
NMTAP	22	240	0
NMTAP	22	264	7
BRTAP	22	288	1
NMTAP	23	0	2
NMTAP	23	0	3
NMTAP	23	48	0
NMTAP	23	96	1
NMTAP	23	96	3
NMTAP	23	120	1
NMTAP	23	120	3
NMTAP	23	168	2
NMTAP	23	192	4
NMTAP	23	216	2
NMTAP	23	240	4
NMTAP	23	264	2
NMTAP	23	288	4
NMTAP	23	336	3
NMTAP	23	336	5
NMTAP	24	0	4
NMTAP	24	0	6
NMTAP	24	48	7
NMTAP	24	96	4
NMTAP	24	96	6
NMTAP	24	120	4
NMTAP	24	120	6
NMTAP	24	168	5
NMTAP	24	192	4
NMTAP	24	216	5
NMTAP	24	240	4
NMTAP	24	264	5
NMTAP	24	288	3
NMTAP	24	312	5
NMTAP	24	336	3
NMTAP	25	0	2
NMTAP	25	0	4
NMTAP	25	48	0
NMTAP	25	96	2
NMTAP	25	96	4
NMTAP	25	120	2
NMTAP	25	120	4
NMTAP	25	168	1
NMTAP	25	192	3
NMTAP	25	216	1
NMTAP	25	240	3
NMTAP	25	264	1
NMTAP	25	288	3
NMTAP	25	336	2
NMTAP	25	336	4
NMTAP	26	0	3
NMTAP	26	0	5
NMSTR	26	48	6
NMSI_	26	48	6	96	48	3
NMTAP	26	72	4
NMTAP	26	120	3
NMTAP	26	144	6
NMTAP	26	192	1
NMTAP	26	216	1
NMTAP	26	240	3
NMTAP	26	264	2
NMTAP	26	288	4
NMTAP	26	312	3
NMTAP	26	336	4
NMTAP	27	0	3
NMTAP	27	0	5
NMTAP	27	48	7
NMTAP	27	96	4
NMTAP	27	96	5
NMTAP	27	120	4
NMTAP	27	120	5
NMTAP	27	168	6
NMTAP	27	192	4
NMTAP	27	216	6
NMTAP	27	240	4
NMTAP	27	264	6
NMTAP	27	288	4
NMTAP	27	336	3
NMTAP	27	336	5
NMTAP	28	0	2
NMTAP	28	0	4
NMTAP	28	48	1
NMTAP	28	96	0
NMTAP	28	96	7
NMTAP	28	120	0
NMTAP	28	120	7
NMTAP	28	168	1
NMTAP	28	192	1
NMTAP	28	192	3
NMTAP	28	240	2
NMTAP	28	240	4
NMTAP	28	288	3
NMTAP	28	288	5
BRTAP	28	336	4
BRTAP	28	336	6
NMTAP	29	0	4
NMTAP	29	0	5
NMTAP	29	48	7
NMTAP	29	96	3
NMTAP	29	96	5
NMTAP	29	120	3
NMTAP	29	120	5
NMTAP	29	168	6
NMTAP	29	192	4
NMTAP	29	216	5
NMTAP	29	240	3
NMTAP	29	264	4
NMTAP	29	288	2
NMTAP	29	336	1
NMTAP	29	336	3
NMTAP	30	0	2
NMTAP	30	0	4
NMTAP	30	48	3
NMTAP	30	48	6
NMTAP	30	96	5
NMTAP	30	120	4
NMTAP	30	168	6
NMSTR	30	192	7
NMSCR	30	192	7	96	48	2
NMTAP	30	240	4
NMTAP	30	288	5
NMTAP	30	336	6
NMTAP	31	0	1
NMTAP	31	0	7
NMTAP	31	48	0
NMTAP	31	96	2
NMTAP	31	120	3
NMTAP	31	168	4
NMTAP	31	192	3
NMTAP	31	240	2
NMTAP	31	264	3
NMTAP	31	288	1
NMTAP	31	312	3
NMTAP	31	336	0
NMTAP	32	0	4
NMTAP	32	0	5
NMTAP	32	48	3
NMTAP	32	48	6
NMTAP	32	96	5
NMTAP	32	120	4
NMTAP	32	168	3
NMTAP	32	192	4
NMTAP	32	240	5
NMTAP	32	264	4
NMTAP	32	288	6
NMTAP	32	312	4
NMTAP	32	336	7
BRTAP	33	0	1
BRTAP	33	0	3
BRTAP	33	48	0
BRTAP	33	48	7
BRTAP	33	96	4
BRTAP	33	96	6
NMTAP	33	168	6
NMTAP	33	192	4
NMTAP	33	240	1
NMTAP	33	264	0
NMTAP	33	288	2
NMTAP	33	312	0
NMTAP	33	336	3
NMTAP	34	0	5
NMTAP	34	24	4
NMTAP	34	72	6
NMTAP	34	96	7
NMTAP	34	144	0
NMSTR	34	144	5
NMSCL	34	144	5	96	48	2
CNSUR	34	288	2	0	48	7
EXTAP	35	0	0
EXTAP	35	0	6
NMTAP	35	72	3
NMTAP	35	72	5
NMTAP	35	120	2
NMTAP	35	120	4
NMTAP	35	144	2
NMTAP	35	144	4
NMTAP	35	192	1
NMSTR	35	192	3
NMSV_	35	192	3	96	48	0
NMTAP	35	288	2
EXTAP	36	0	1
EXTAP	36	0	7
NMTAP	36	72	2
NMTAP	36	72	4
NMTAP	36	120	3
NMTAP	36	120	5
NMTAP	36	144	3
NMTAP	36	144	5
NMSTR	36	192	4
NMSV_	36	192	4	96	48	7
NMSTR	36	240	6
NMSCL	36	240	6	96	48	3
NMTAP	37	0	1
NMTAP	37	72	0
NMTAP	37	72	6
NMTAP	37	120	5
NMTAP	37	120	7
NMTAP	37	144	5
NMTAP	37	144	7
NMSTR	37	192	2
NMSV_	37	192	2	96	48	7
NMTAP	37	192	4
NMTAP	37	240	0
NMTAP	37	240	3
NMTAP	38	0	1
NMTAP	38	24	1
NMSTR	38	72	3
NMSUR	38	72	3	96	72	4
NMTAP	38	72	5
NMTAP	38	120	4
NMTAP	38	144	3
NMTAP	38	288	7
NMTAP	38	312	0
NMTAP	38	336	7
NMTAP	38	360	0
BXSTR	39	0	1
NMSI_	39	0	1	96	48	4
BXTAP	39	0	6
NMTAP	39	96	1
NMSTR	39	96	5
NMSI_	39	96	5	96	48	0
NMTAP	39	144	6
NMSTR	39	192	3
NMSI_	39	192	3	96	48	0
NMTAP	39	192	5
NMTAP	39	240	4
NMTAP	39	288	3
NMSTR	39	288	5
NMSI_	39	288	5	96	48	2
NMTAP	39	336	6
NMSTR	40	0	1
NMSI_	40	0	1	96	48	5
NMTAP	40	0	5
NMTAP	40	48	0
NMTAP	40	96	1
NMSTR	40	96	6
NMSI_	40	96	6	96	48	0
NMTAP	40	144	7
NMSTR	40	192	2
NMSI_	40	192	2	96	48	4
NMTAP	40	192	6
NMTAP	40	240	1
NMTAP	40	288	2
NMTAP	40	288	6
NMTAP	41	0	5
NMTAP	41	24	4
NMTAP	41	72	0
NMTAP	41	72	7
NMTAP	41	120	2
NMTAP	41	144	3
NMTAP	41	192	2
NMTAP	41	216	4
NMTAP	41	240	1
NMTAP	41	264	5
NMHLD	41	288	0	96
NMTAP	42	0	1
NMTAP	42	24	1
NMTAP	42	48	2
NMTAP	42	72	2
NMTAP	42	96	3
NMTAP	42	120	3
NMTAP	42	144	4
NMTAP	42	168	4
NMTAP	42	192	7
NMTAP	42	216	6
NMTAP	42	240	5
NMTAP	42	264	4
NMTAP	42	288	3
NMTAP	42	288	7
NMTAP	42	312	0
NMTAP	42	336	1
NMTAP	42	360	2
NMSTR	43	0	3
NMSI_	43	0	3	96	48	0
NMTAP	43	0	5
NMTAP	43	96	3
NMSTR	43	96	7
NMSI_	43	96	7	96	48	4
NMTAP	43	144	6
NMSTR	43	192	1
NMSI_	43	192	1	96	48	4
NMTAP	43	192	7
NMTAP	43	240	0
NMTAP	43	288	1
NMSTR	43	288	7
NMSI_	43	288	7	96	48	2
NMTAP	43	336	6
NMSTR	44	0	3
NMSI_	44	0	3	96	48	7
NMTAP	44	0	7
NMTAP	44	48	4
NMTAP	44	96	3
NMSTR	44	96	6
NMSI_	44	96	6	96	48	4
NMTAP	44	144	5
NMSTR	44	192	2
NMSI_	44	192	2	96	48	0
NMTAP	44	192	6
NMTAP	44	240	1
NMTAP	44	288	2
NMTAP	44	288	3
NMTAP	45	0	6
NMTAP	45	24	4
NMTAP	45	72	0
NMTAP	45	72	7
NMTAP	45	120	1
NMTAP	45	144	3
NMTAP	45	192	1
NMTAP	45	216	1
NMTAP	45	240	3
NMTAP	45	264	3
NMTAP	45	288	4
NMTAP	45	312	4
NMTAP	45	336	6
NMTAP	45	360	6
NMTAP	46	0	0
NMTAP	46	48	1
NMTAP	46	72	1
NMTAP	46	72	3
NMTAP	46	120	6
NMTAP	46	144	4
NMTAP	46	144	6
NMTAP	46	192	2
NMTAP	46	216	2
NMTAP	46	216	3
EXTAP	46	256	7
EXTAP	46	272	6
EXTAP	46	288	5
EXTAP	46	304	4
EXTAP	46	320	3
EXTAP	46	336	2
EXTAP	46	352	1
EXTAP	46	368	0
EXSTR	47	0	7
NMSLL	47	0	7	96	96	3
CNSV_	47	192	3	0	96	6
NMTAP	47	288	1
NMSTR	48	0	3
NMSLL	48	0	3	96	96	7
CNSV_	48	192	7	0	96	2
NMTAP	48	288	5
BRTAP	48	336	5
BRTAP	49	0	6
BRSTR	49	48	0
NMSXL	49	48	0	96	144	3
BRSTR	49	48	7
NMSXR	49	48	7	96	144	4
NMTAP	50	0	2
NMTAP	50	24	3
NMTAP	50	48	2
NMTAP	50	72	3
NMTAP	50	96	1
NMTAP	50	120	4
NMTAP	50	144	1
NMTAP	50	168	4
NMTAP	50	192	0
NMTAP	50	216	5
NMTAP	50	240	0
NMTAP	50	264	5
BXTAP	50	288	6
BXTAP	50	288	7
NMTAP	51	0	6
NMTAP	51	0	7
NMTAP	51	24	6
NMTAP	51	24	7
NMTAP	51	72	0
NMTAP	51	72	5
NMTAP	51	120	1
NMTAP	51	120	4
NMTAP	51	168	2
NMTAP	51	192	3
NMTAP	51	216	2
NMTAP	51	240	3
NMTAP	51	264	2
NMTAP	51	312	0
NMTAP	51	312	1
NMTAP	51	336	0
NMTAP	51	336	1
NMTAP	52	0	2
NMTAP	52	0	3
NMTAP	52	24	2
NMTAP	52	24	3
NMTAP	52	72	1
NMTAP	52	72	4
NMTAP	52	120	3
NMTAP	52	120	6
NMTAP	52	168	5
NMTAP	52	192	4
NMTAP	52	216	5
NMTAP	52	240	4
NMTAP	52	264	5
NMTAP	52	312	6
NMTAP	52	312	7
NMTAP	52	336	6
NMTAP	52	336	7
NMTAP	53	0	4
NMTAP	53	0	5
NMTAP	53	24	4
NMTAP	53	24	5
NMTAP	53	72	3
NMTAP	53	72	6
NMTAP	53	120	2
NMTAP	53	120	7
NMTAP	53	168	1
NMTAP	53	192	0
NMTAP	53	216	2
NMTAP	53	240	0
NMTAP	53	264	1
NMTAP	53	312	3
NMTAP	53	312	7
NMTAP	53	360	1
NMTAP	53	360	5
NMSTR	54	0	1
NMSXL	54	0	1	96	96	0
NMSTR	54	0	5
NMSXL	54	0	5	96	96	4
NMTTP	54	288	0	C	0	M1
EXSTR	55	0	0
NMSCR	55	0	0	96	1248	7
NMSTR	59	0	7
NMSCL	59	0	7	96	1152	0
NMTTP	59	336	5	B	0	M1
NMTTP	59	336	6	B	0	M1
NMTTP	60	336	3	B	0	M1
NMTTP	60	336	4	B	0	M1
NMTHO	62	0	0	384	C	0	M1
NMTTP	63	0	1	E	0	M1
NMTTP	63	96	2	E	0	M1
NMTTP	63	192	3	E	0	M1
NMTTP	63	288	4	E	0	M1
NMTTP	64	0	5	E	0	M1
NMTTP	64	96	6	E	0	M1
NMTTP	64	192	7	E	0	M1
NMTTP	64	288	0	E	0	M1
NMTTP	65	0	0	B	0	M1
NMTTP	65	48	1	B	0	M1
NMTTP	65	96	2	B	0	M1
NMTTP	65	144	3	B	0	M1
NMTTP	65	192	4	B	0	M1
NMTTP	65	240	5	B	0	M1
NMTTP	65	288	6	B	0	M1
NMTTP	65	336	7	B	0	M1
NMTTP	66	0	0	E	0	M1
NMTTP	66	24	1	E	0	M1
NMTTP	66	48	2	E	0	M1
NMTTP	66	72	3	E	0	M1
NMTTP	66	96	4	E	0	M1
NMTTP	66	120	5	E	0	M1
NMTTP	66	144	6	E	0	M1
NMTTP	66	168	7	E	0	M1
NMTTP	66	192	0	A	0	M1
NMTTP	66	204	1	A	0	M1
NMTTP	66	216	2	A	0	M1
NMTTP	66	228	3	A	0	M1
NMTTP	66	240	4	A	0	M1
NMTTP	66	252	5	A	0	M1
NMTTP	66	264	6	A	0	M1
NMTTP	66	276	7	A	0	M1
NMTTP	66	288	0	C	0	M1
NMTTP	66	288	0	A	0	M1
BRHLD	67	0	0	96
BRHLD	67	0	6	96
BRHLD	67	192	2	96
BRHLD	67	192	4	96
NMTAP	67	352	2
NMTAP	67	368	3
NMHLD	68	0	2	48
NMHLD	68	48	3	48
NMHLD	68	96	4	48
NMSTR	68	144	5
NMSUR	68	144	5	96	48	2
NMSTR	69	0	1
NMSXR	69	0	1	96	192	6
NMTAP	69	0	3
NMHLD	69	96	2	48
NMHLD	69	168	3	48
NMHLD	69	240	4	0
NMHLD	69	288	4	0
NMSTR	70	0	5
NMSXR	70	0	5	96	192	2
NMTAP	70	0	7
NMHLD	70	96	6	48
NMHLD	70	168	7	48
NMHLD	70	240	0	0
NMHLD	70	288	0	0
BRHLD	71	0	1	96
BRHLD	71	0	7	96
BRHLD	71	192	3	96
BRHLD	71	192	5	96
NMTAP	71	352	5
NMTAP	71	368	4
NMHLD	72	0	5	48
NMHLD	72	48	4	48
NMHLD	72	96	3	48
NMSTR	72	144	2
NMSUR	72	144	2	96	48	7
NMTAP	73	0	0
NMSTR	73	0	6
NMSI_	73	0	6	96	48	4
NMHLD	73	96	1	48
CNSI_	73	144	4	0	96	0
NMHLD	73	168	2	48
CNSI_	73	240	0	0	48	2
NMHLD	73	240	3	0
NMHLD	73	288	3	0
NMTAP	74	0	4
NMTAP	74	0	5
NMTAP	74	96	0
NMTAP	74	96	7
NMSTR	74	144	1
NMSLR	74	144	1	96	96	7
NMSTR	74	144	6
NMSLL	74	144	6	96	96	0
NMTAP	75	0	2
NMTAP	75	16	3
NMTAP	75	32	2
NMTAP	75	48	3
NMTAP	75	96	1
NMTAP	75	96	4
NMTAP	75	144	1
NMTAP	75	144	4
NMTAP	75	192	0
NMTAP	75	192	5
NMTAP	75	240	6
NMTAP	75	256	7
NMTAP	75	272	6
NMTAP	75	288	7
NMTAP	75	336	0
NMTAP	75	336	5
NMTAP	76	0	1
NMTAP	76	16	0
NMTAP	76	32	1
NMTAP	76	48	0
NMTAP	76	96	1
NMTAP	76	96	7
NMTAP	76	144	2
NMTAP	76	144	6
NMTAP	76	192	3
NMTAP	76	192	5
NMTAP	76	240	4
NMTAP	76	264	4
NMTAP	76	288	4
NMTAP	76	312	4
NMTAP	76	336	4
NMTAP	77	0	1
NMTAP	77	16	0
NMTAP	77	32	1
NMTAP	77	48	0
NMTAP	77	96	2
NMTAP	77	96	7
NMTAP	77	144	2
NMTAP	77	144	7
NMTAP	77	192	3
NMTAP	77	192	6
NMTAP	77	240	5
NMTAP	77	256	4
NMTAP	77	272	5
NMTAP	77	288	4
NMTAP	77	336	3
NMTAP	77	336	6
NMTAP	78	0	0
NMTAP	78	16	7
NMTAP	78	32	0
NMTAP	78	48	7
NMTAP	78	96	1
NMTAP	78	96	6
NMSTR	78	144	2
NMSLL	78	144	2	96	48	6
NMTAP	78	144	5
NMSTR	78	192	6
NMSLL	78	192	6	96	48	2
NMTAP	79	0	1
NMTAP	79	0	7
NMTAP	79	48	2
NMTAP	79	72	2
NMTAP	79	72	4
NMTAP	79	120	5
NMTAP	79	144	3
NMTAP	79	144	5
NMTAP	79	192	0
NMTAP	79	192	6
NMTAP	79	240	2
NMTAP	79	264	2
NMTAP	79	264	3
NMTAP	79	312	5
NMTAP	79	336	4
NMTAP	79	336	5
NMTAP	80	0	0
NMTAP	80	0	7
NMTAP	80	48	1
NMTAP	80	72	1
NMTAP	80	72	3
NMTAP	80	120	6
NMTAP	80	144	4
NMTAP	80	144	6
NMTAP	80	192	0
NMTAP	80	192	7
NMTAP	80	240	1
NMTAP	80	240	6
NMTAP	80	288	2
NMTAP	80	300	3
NMTAP	80	312	2
NMTAP	80	336	5
NMTAP	80	348	4
NMTAP	80	360	5
EXHLD	81	0	0	24
EXHLD	81	48	1	24
EXHLD	81	48	7	24
EXHLD	81	96	2	24
EXHLD	81	96	6	24
EXHLD	81	144	3	24
EXHLD	81	144	5	24
NMSTR	81	192	4
NMSI_	81	192	4	96	48	0
NMTAP	81	288	4
NMTAP	82	0	3
NMTAP	82	24	4
NMTAP	82	48	3
NMTAP	82	72	5
NMTAP	82	96	3
NMTAP	82	120	6
NMTAP	82	144	3
NMTAP	82	168	7
NMSTR	82	192	3
NMSF_	82	192	3	96	48	7
NMTAP	82	204	4
NMTAP	82	216	5
NMTAP	82	228	6
NMTAP	82	240	7
NMTAP	82	252	0
NMTAP	82	264	1
NMTAP	82	276	2
NMTAP	82	288	3
NMTAP	83	0	2
NMTAP	83	24	3
NMTAP	83	48	0
NMTAP	83	72	7
NMTAP	83	96	4
NMTAP	83	120	5
NMTAP	83	144	1
NMHLD	83	168	1	48
NMTAP	83	216	2
NMTAP	83	240	1
NMTAP	83	264	4
NMTAP	83	288	3
NMTAP	83	312	6
NMTAP	83	336	5
NMTAP	83	360	7
NMTAP	84	0	0
NMTAP	84	24	3
NMTAP	84	48	2
NMTAP	84	72	7
NMTAP	84	96	0
NMTAP	84	120	6
NMTAP	84	144	4
NMTAP	84	168	7
NMTAP	84	192	1
NMTAP	84	216	5
NMTAP	84	240	4
NMTAP	84	264	6
NMTAP	84	288	0
NMTAP	84	300	1
NMTAP	84	312	2
NMTAP	84	336	5
NMTAP	84	360	5
NMSTR	85	0	1
NMSCR	85	0	1	96	48	4
NMTAP	85	48	3
NMTAP	85	72	3
NMSTR	85	96	1
NMSCL	85	96	1	96	48	6
NMTAP	85	144	7
NMTAP	85	168	7
NMSTR	85	192	1
NMSI_	85	192	1	96	48	5
NMTAP	85	240	4
NMTAP	85	264	4
NMTAP	85	288	1
NMTAP	85	336	6
NMTAP	86	0	0
NMSTR	86	0	4
NMSI_	86	0	4	96	48	7
NMTAP	86	48	1
NMTAP	86	72	1
NMTAP	86	96	4
NMTAP	86	144	3
NMTAP	86	168	3
NMSTR	86	192	6
NMSI_	86	192	6	96	48	2
NMTAP	86	240	5
NMTAP	86	240	7
BRTAP	86	288	6
NMTAP	87	0	6
NMTAP	87	24	4
NMTAP	87	48	7
NMTAP	87	72	0
NMTAP	87	96	3
NMTAP	87	120	2
NMTAP	87	144	6
NMHLD	87	168	6	48
NMTAP	87	216	5
NMTAP	87	240	6
NMTAP	87	264	3
NMTAP	87	288	4
NMTAP	87	312	1
NMTAP	87	336	2
NMTAP	87	360	0
NMTAP	88	0	7
NMTAP	88	24	4
NMTAP	88	48	5
NMTAP	88	72	0
NMTAP	88	96	7
NMTAP	88	120	2
NMTAP	88	144	4
NMTAP	88	168	0
NMTAP	88	192	6
NMTAP	88	216	2
NMTAP	88	240	3
NMTAP	88	264	1
NMTAP	88	288	7
NMTAP	88	300	6
NMTAP	88	312	5
NMTAP	88	336	2
NMTAP	88	360	2
NMSTR	89	0	6
NMSCL	89	0	6	96	48	3
NMTAP	89	48	4
NMTAP	89	72	4
NMSTR	89	96	6
NMSCR	89	96	6	96	48	1
NMTAP	89	144	0
NMTAP	89	168	0
NMSTR	89	192	6
NMSI_	89	192	6	96	48	2
NMTAP	89	240	2
NMTAP	89	264	2
BRTAP	89	288	6
NMTAP	89	336	1
NMTAP	90	0	3
NMTAP	90	0	7
NMTAP	90	48	2
NMTAP	90	72	1
NMTAP	90	72	3
NMTAP	90	120	5
NMTAP	90	144	4
NMTAP	90	144	6
NMTAP	90	192	1
NMTAP	90	216	0
NMTAP	90	216	2
NMTAP	90	264	6
NMTAP	90	288	5
NMTAP	90	288	7
NMTAP	90	336	0
NMTAP	90	336	4
NMSTR	91	0	1
NMSI_	91	0	1	96	48	6
NMTAP	91	24	4
NMTAP	91	48	3
NMTAP	91	72	7
NMTAP	91	96	1
NMTAP	91	144	5
NMTAP	91	168	5
NMTAP	91	192	7
NMTAP	91	216	4
NMTAP	91	240	0
NMTAP	91	264	3
NMTAP	91	288	1
NMTAP	91	312	2
NMTAP	91	336	0
NMTAP	91	360	7
NMTAP	92	0	5
NMTAP	92	24	6
NMTAP	92	48	3
NMTAP	92	72	4
NMTAP	92	96	1
NMTAP	92	120	0
NMTAP	92	144	2
NMTAP	92	168	3
NMTAP	92	192	0
NMTAP	92	216	7
NMTAP	92	240	3
NMTAP	92	264	4
NMTAP	92	288	7
NMTAP	92	312	6
NMTAP	92	336	4
NMTAP	92	360	5
NMSTR	93	0	3
NMSCL	93	0	3	96	48	0
NMTAP	93	48	1
NMTAP	93	48	7
BRTAP	93	96	3
BRTAP	93	96	5
NMSTR	93	192	6
NMSCL	93	192	6	96	48	3
NMTAP	93	216	7
NMTAP	93	264	0
BRTAP	93	288	6
NMSTR	94	0	2
NMSCL	94	0	2	96	48	7
NMTAP	94	0	4
EXTAP	94	32	3
EXTAP	94	64	3
BRTAP	94	96	2
BRTAP	94	96	4
NMSTR	94	192	0
NMSV_	94	192	0	96	48	3
NMSTR	94	192	6
NMSV_	94	192	6	96	48	3
BRTAP	94	240	1
BRTAP	94	240	5
NMTAP	95	0	2
NMTAP	95	0	6
NMTAP	95	48	5
NMTAP	95	72	4
NMTAP	95	120	2
NMTAP	95	144	3
NMSTR	95	192	0
NMSI_	95	192	0	96	48	4
NMSTR	95	192	1
NMSI_	95	192	1	96	48	4
NMTAP	95	240	2
NMTAP	95	240	7
NMTAP	96	0	3
NMTAP	96	0	7
NMTAP	96	48	6
NMTAP	96	72	4
NMTAP	96	120	1
NMTAP	96	144	3
NMSTR	96	192	6
NMSI_	96	192	6	96	48	3
NMSTR	96	192	7
NMSI_	96	192	7	96	48	3
NMTAP	96	240	0
NMTAP	96	240	5
NMHLD	97	0	1	48
NMTAP	97	0	4
NMTAP	97	48	0
BRTAP	97	72	2
BRTAP	97	72	7
NMTAP	97	192	3
NMHLD	97	192	6	48
NMTAP	97	240	7
BRTAP	97	264	0
BRTAP	97	264	5
NMTAP	98	0	3
NMTAP	98	16	4
NMTAP	98	32	3
NMTAP	98	48	4
NMTAP	98	64	3
NMTAP	98	80	4
NMTAP	98	96	2
NMTAP	98	120	5
NMTAP	98	144	2
NMTAP	98	168	5
EXTAP	98	192	1
EXTAP	98	224	6
EXTAP	98	256	1
EXTAP	98	288	0
EXTAP	98	288	7
BRHLD	99	0	1	96
BRHLD	99	0	4	96
BRHLD	99	192	3	96
BRHLD	99	192	6	96
NMTAP	99	352	5
NMTAP	99	368	4
NMHLD	100	0	5	48
NMHLD	100	48	4	48
NMHLD	100	96	3	48
NMHLD	100	144	2	48
NMTAP	100	192	7
NMTAP	100	204	6
NMTAP	100	216	5
NMTAP	100	228	4
NMTAP	100	240	3
NMTAP	100	252	2
NMTAP	100	264	1
NMTAP	100	276	0
BRTAP	100	288	3
BRTAP	100	288	7
NMTAP	101	0	2
NMTAP	101	0	4
NMTAP	101	24	2
NMTAP	101	48	5
NMHLD	101	96	1	48
NMTAP	101	96	3
NMTAP	101	144	6
NMTAP	101	192	2
NMTAP	101	192	4
NMTAP	101	216	2
NMTAP	101	240	6
NMHLD	101	288	3	48
NMTAP	101	288	5
NMTAP	101	336	7
NMTAP	102	0	2
NMTAP	102	0	4
NMTAP	102	24	2
NMTAP	102	48	6
NMHLD	102	96	1	48
NMHLD	102	96	7	48
NMHLD	102	168	0	48
NMHLD	102	168	6	48
NMTAP	102	240	4
NMTAP	102	240	5
NMTAP	102	288	3
NMTAP	102	288	4
NMTAP	102	336	2
NMTAP	102	336	3
EXSTR	103	0	1
NMSI_	103	0	1	96	48	4
EXSTR	103	0	6
NMSI_	103	0	6	96	48	3
NMTAP	103	24	1
NMTAP	103	24	6
NMTAP	103	72	0
NMTAP	103	72	7
BRTAP	103	96	1
BRTAP	103	96	6
NMTAP	103	192	2
NMTAP	103	216	2
NMTAP	103	240	3
NMTAP	103	264	1
NMTAP	103	288	5
NMTAP	103	312	5
NMTAP	103	336	4
NMTAP	103	360	6
NMTAP	104	0	1
NMTAP	104	24	0
NMTAP	104	48	3
NMTAP	104	72	4
NMTAP	104	96	7
NMTAP	104	120	6
NMTAP	104	144	3
NMTAP	104	168	4
NMTAP	104	192	0
NMTAP	104	216	0
NMTAP	104	240	2
NMTAP	104	264	1
NMTAP	104	288	6
NMTAP	104	312	6
NMTAP	104	336	4
NMTAP	104	360	5
NMTAP	105	0	1
NMTAP	105	12	2
NMTAP	105	24	3
NMTAP	105	48	6
NMTAP	105	72	6
NMTAP	105	96	7
NMTAP	105	120	5
NMTAP	105	144	1
NMTAP	105	168	1
NMTAP	105	192	7
NMTAP	105	204	6
NMTAP	105	216	5
NMTAP	105	240	2
NMTAP	105	264	2
NMTAP	105	288	3
NMTAP	105	312	1
NMTAP	105	336	6
NMTAP	105	360	4
NMTAP	106	0	5
NMTAP	106	24	5
NMTAP	106	48	2
NMTAP	106	72	3
NMTAP	106	96	1
NMTAP	106	120	1
NMTAP	106	144	7
NMTAP	106	168	7
NMSTR	106	192	0
NMSF_	106	192	0	96	48	4
NMTAP	106	204	1
NMTAP	106	216	2
NMTAP	106	228	3
NMTAP	106	240	4
NMTAP	106	252	5
NMTAP	106	264	6
NMTAP	106	276	7
NMTAP	106	288	0
NMSTR	107	0	1
NMSI_	107	0	1	96	48	4
NMHLD	107	0	5	96
NMTAP	107	96	1
NMHLD	107	192	2	96
NMSTR	107	192	6
NMSI_	107	192	6	96	48	3
NMTAP	107	288	6
NMTAP	108	0	1
NMTAP	108	0	4
NMTAP	108	48	2
NMSTR	108	96	3
NMSCL	108	96	3	96	96	4
NMTAP	108	96	6
NMTAP	108	144	5
NMTAP	108	192	3
NMTAP	108	192	4
NMTAP	109	0	6
NMTAP	109	24	7
BRTAP	109	72	0
BRTAP	109	72	5
BRTAP	109	120	1
BRTAP	109	120	4
NMTAP	109	168	2
NMTAP	109	168	3
NMTAP	109	192	2
NMTAP	109	192	4
NMTAP	109	216	2
NMTAP	109	216	5
NMTAP	109	240	2
NMTAP	109	240	6
NMTAP	109	264	2
NMTAP	109	264	7
NMTAP	109	312	1
NMTAP	109	336	0
NMTAP	110	0	2
NMTAP	110	24	3
BRTAP	110	72	1
BRTAP	110	72	4
BRTAP	110	120	0
BRTAP	110	120	5
NMTAP	110	168	6
NMTAP	110	168	7
NMTAP	110	192	0
NMTAP	110	192	6
NMTAP	110	216	1
NMTAP	110	216	6
NMTAP	110	240	2
NMTAP	110	240	6
NMTAP	110	264	3
NMTAP	110	264	6
NMTAP	110	312	5
NMTAP	110	336	4
NMTAP	111	0	2
NMTAP	111	24	3
BRTAP	111	72	1
BRTAP	111	72	4
BRTAP	111	120	2
BRTAP	111	120	7
NMTAP	111	168	0
NMTAP	111	168	1
NMTAP	111	192	1
NMTAP	111	192	7
NMTAP	111	216	1
NMTAP	111	216	6
NMTAP	111	240	1
NMTAP	111	240	5
NMTAP	111	264	1
NMTAP	111	264	4
NMTAP	111	312	2
NMTAP	111	324	3
NMTAP	111	336	2
NMTAP	111	348	3
NMTAP	111	360	2
NMTAP	112	48	0
NMHLD	112	48	6	48
NMTAP	112	60	1
NMTAP	112	72	2
NMTAP	112	84	3
NMHLD	112	120	5	48
NMTAP	112	120	7
NMTAP	112	132	0
NMTAP	112	144	1
NMTAP	112	156	2
EXTAP	112	192	1
EXTAP	112	192	5
NMTAP	112	240	0
NMTAP	112	252	4
NMSTR	112	264	0
NMSI_	112	264	0	96	48	3
NMTAP	112	276	4
NMSTR	112	288	0
NMSI_	112	288	0	96	48	5
NMTAP	112	300	4
NMTAP	112	312	0
NMTAP	112	324	4
NMTAP	112	336	0
NMSTR	112	348	4
NMSI_	112	348	4	96	36	1
NMTAP	112	360	0
NMSTR	112	372	4
NMSI_	112	372	4	96	36	7
NMTAP	113	0	0

T_REC_TAP	930
T_REC_BRK	46
T_REC_XTP	27
T_REC_BXX	5
T_REC_HLD	43
T_REC_XHO	14
T_REC_BHO	12
T_REC_BXH	0
T_REC_STR	77
T_REC_BST	2
T_REC_XST	5
T_REC_XBS	1
T_REC_TTP	39
T_REC_THO	1
T_REC_SLD	87
T_REC_BSL	0
T_REC_ALL	1289
T_NUM_TAP	1078
T_NUM_BRK	66
T_NUM_HLD	58
T_NUM_SLD	87
T_NUM_ALL	1289
T_JUDGE_TAP	1132
T_JUDGE_HLD	105
T_JUDGE_SLD	87
T_JUDGE_ALL	1324
TTM_EACHPAIRS	248
TTM_SCR_TAP	539000
TTM_SCR_BRK	171600
TTM_SCR_HLD	58000
TTM_SCR_SLD	130500
TTM_SCR_ALL	899100
TTM_SCR_S	865750
TTM_SCR_SS	892500
TTM_RAT_ACV	10073

