VERSION	0.00.00	1.04.00
FES_MODE	0
BPM_DEF	163.000	163.000	163.000	163.000
MET_DEF	4	4
RESOLUTION	384
CLK_DEF	384
COMPATIBLE_CODE	MA2

BPM	0	0	163.000
MET	0	0	4	4

NMSTR	2	0	0
BRSI_	2	0	0	96	48	3
BRSI_	2	0	0	96	48	5
NMSTR	2	192	4
BRSI_	2	192	4	96	48	1
BRSI_	2	192	4	96	48	7
NMTAP	3	0	0
NMTAP	3	48	1
NMTAP	3	96	2
NMTAP	3	144	3
NMHLD	3	144	4	240
NMHLD	4	0	1	384
NMTTP	4	144	2	B	0	M1
NMTTP	4	168	3	B	0	M1
NMTTP	4	192	4	B	0	M1
NMHLD	5	0	6	384
NMTTP	5	144	5	B	0	M1
NMTTP	5	168	4	B	0	M1
NMTTP	5	192	3	B	0	M1
NMSTR	6	0	0
BRSI_	6	0	0	96	48	3
BRSI_	6	0	0	96	48	5
NMSTR	6	192	4
BRSI_	6	192	4	96	48	1
BRSI_	6	192	4	96	48	7
NMTAP	7	0	0
NMTAP	7	48	1
NMTAP	7	96	2
NMHLD	7	144	3	240
NMTAP	7	144	4
NMHLD	8	0	7	384
NMTTP	8	144	4	B	0	M1
NMTTP	8	168	0	C	0	M1
NMTTP	8	192	0	B	0	M1
NMTAP	9	0	1
NMTAP	9	96	4
NMSTR	9	144	3
NMSXR	9	144	3	96	336	0
NMSTR	9	144	4
NMSXL	9	144	4	96	336	7
EXSTR	11	0	2
NMSV_	11	0	2	96	48	7
EXHLD	11	0	4	192
NMTAP	11	192	0
NMTAP	11	240	0
NMTAP	11	288	0
EXHLD	12	0	3	192
EXSTR	12	0	5
NMSV_	12	0	5	96	48	0
NMSTR	12	192	7
NMSI_	12	192	7	96	48	3
EXSTR	13	0	2
NMSV_	13	0	2	96	48	7
EXHLD	13	0	4	192
NMTAP	13	192	0
NMTAP	13	240	0
NMTAP	13	288	5
NMTAP	13	336	5
EXTAP	14	0	3
EXTAP	14	0	4
NMSTR	14	96	0
NMSF_	14	96	0	96	96	4
EXTAP	15	0	2
EXTAP	15	0	6
NMTAP	15	48	5
NMTAP	15	72	4
NMTAP	15	96	5
NMTAP	15	120	4
NMTAP	15	144	5
NMHLD	15	192	1	96
NMTAP	15	240	3
NMHLD	15	288	4	96
NMTAP	15	336	2
NMTAP	16	0	1
NMTAP	16	48	0
NMTAP	16	96	7
NMTAP	16	144	6
NMSTR	16	192	5
NMSI_	16	192	5	96	48	0
EXTAP	17	0	1
NMTAP	17	48	2
NMTAP	17	72	3
NMTAP	17	96	2
NMTAP	17	120	3
NMTAP	17	144	2
NMHLD	17	192	6	96
NMTAP	17	240	4
NMHLD	17	288	3	96
NMTAP	17	336	5
NMTAP	18	0	6
NMTAP	18	48	7
NMTAP	18	96	0
NMSTR	18	144	1
NMSLR	18	144	1	96	96	7
EXTAP	19	0	0
EXTAP	19	0	6
NMTAP	19	48	5
NMTAP	19	96	5
NMTAP	19	144	5
EXTAP	19	192	3
EXTAP	19	192	4
NMTAP	19	240	2
NMTAP	19	288	2
NMTAP	19	336	2
EXTAP	20	0	0
EXTAP	20	0	1
NMTAP	20	48	7
NMTAP	20	96	7
NMTAP	20	144	7
NMHLD	20	192	5	48
NMHLD	20	192	6	48
NMHLD	20	288	1	48
NMHLD	20	288	2	48
NMTAP	21	0	0
NMTAP	21	48	0
NMTAP	21	96	0
NMTAP	21	144	0
NMHLD	21	192	0	96
NMSTR	21	192	3
NMSI_	21	192	3	96	48	7
NMTHO	22	0	0	192	C	0	M1
BXTAP	23	0	0
BXTAP	23	0	6
NMTAP	23	96	4
NMTAP	23	96	5
NMTAP	23	144	4
NMTAP	23	192	4
NMTAP	23	192	6
NMTAP	23	240	4
NMTAP	23	288	4
NMTAP	23	288	7
NMTAP	23	336	4
NMTAP	24	0	0
NMTAP	24	0	4
NMTAP	24	48	4
NMTAP	24	96	4
NMTAP	24	96	7
NMTAP	24	144	4
NMTAP	24	192	4
NMTAP	24	192	6
NMTAP	24	240	4
NMTAP	24	288	4
NMSTR	24	288	5
NMSI_	24	288	5	96	48	0
BXTAP	25	0	1
NMTAP	25	96	2
NMTAP	25	96	3
NMTAP	25	144	3
NMTAP	25	192	1
NMTAP	25	192	3
NMTAP	25	240	3
NMTAP	25	288	0
NMTAP	25	288	3
NMTAP	25	336	3
NMTAP	26	0	3
NMHLD	26	0	7	96
NMHLD	26	96	5	96
NMTAP	26	192	3
NMTAP	26	288	3
NMTAP	26	288	4
NMTAP	26	336	3
NMTAP	26	336	4
BXTAP	27	0	1
BXTAP	27	0	5
NMTAP	27	96	2
NMTAP	27	96	3
NMTAP	27	144	3
NMTAP	27	192	1
NMTAP	27	192	3
NMTAP	27	240	3
NMTAP	27	288	0
NMTAP	27	288	3
NMTAP	27	336	3
NMTAP	28	0	3
NMTAP	28	0	7
NMTAP	28	48	3
NMTAP	28	96	0
NMTAP	28	96	3
NMTAP	28	144	3
NMTAP	28	192	1
NMTAP	28	192	3
NMTAP	28	240	1
NMTAP	28	240	3
NMSTR	28	288	2
NMSI_	28	288	2	96	48	7
NMTAP	28	288	3
BXTAP	29	0	6
NMTAP	29	96	4
NMTAP	29	96	5
NMTAP	29	144	4
NMTAP	29	192	4
NMTAP	29	192	6
NMTAP	29	240	4
NMTAP	29	288	4
NMTAP	29	288	7
NMTAP	29	336	4
NMSTR	30	0	0
NMSCL	30	0	0	96	192	3
NMTAP	30	0	4
NMTHO	30	96	0	192	C	0	M1
BXTAP	31	0	1
BXTAP	31	0	7
NMTAP	31	48	0
NMSTR	31	96	1
NMSCR	31	96	1	96	96	4
NMTAP	31	96	7
NMTAP	31	192	0
NMTAP	31	240	0
NMTAP	31	288	0
NMTAP	32	0	3
NMSTR	32	0	7
NMSI_	32	0	7	96	48	3
NMTAP	32	48	3
NMTAP	32	96	2
NMTAP	32	144	2
NMHLD	32	192	1	96
NMSTR	32	192	4
NMSI_	32	192	4	96	48	0
NMTAP	33	0	2
NMTAP	33	0	7
EXTAP	33	48	0
EXTAP	33	48	1
NMSTR	33	96	2
NMSCR	33	96	2	96	48	5
NMTAP	33	96	7
NMTAP	33	192	0
NMTAP	33	240	0
NMTAP	33	288	0
EXTAP	34	0	3
EXTAP	34	0	7
EXTAP	34	72	1
EXTAP	34	72	5
EXSTR	34	144	0
NMSUL	34	144	0	96	96	3
EXSTR	34	144	7
NMSCL	34	144	7	96	96	4
NMHLD	35	0	2	72
NMHLD	35	72	1	72
NMTAP	35	144	0
NMTAP	35	192	0
NMTAP	35	240	0
NMHLD	35	288	0	288
NMTTP	36	0	7	D	0	M1
NMTTP	36	48	6	D	0	M1
NMTTP	36	96	5	D	0	M1
NMTTP	36	144	4	D	0	M1
NMTTP	36	192	3	D	0	M1
NMTAP	36	288	3
NMTAP	36	288	4
NMHLD	37	0	5	72
NMHLD	37	72	6	72
NMTAP	37	144	7
NMTAP	37	192	7
NMTAP	37	240	7
NMHLD	37	288	7	288
NMTTP	38	0	1	D	0	M1
NMTTP	38	48	2	D	0	M1
NMTTP	38	96	3	D	0	M1
NMTTP	38	144	4	D	0	M1
NMTTP	38	192	5	D	0	M1
NMTAP	38	288	0
NMTAP	38	288	7
BXTAP	39	0	2
BXHLD	39	0	6	192
NMTAP	39	96	3
NMTAP	39	144	2
NMHLD	39	192	1	192
NMTAP	39	288	5
NMTAP	39	336	6
NMHLD	40	0	7	384
NMTAP	40	96	4
NMTAP	40	144	4
NMTAP	40	192	3
NMTAP	40	240	3
NMTAP	40	288	2
NMTAP	40	336	2
NMSTR	41	0	1
NMSI_	41	0	1	96	48	7
CNSI_	41	144	7	0	48	3
CNSI_	41	192	3	0	48	5
CNSI_	41	240	5	0	48	2
NMHLD	42	0	0	96
NMHLD	42	96	4	96
NMTAP	42	192	6
NMTAP	42	288	3
NMTAP	42	288	4
BXHLD	43	0	1	192
BXTAP	43	0	5
NMTAP	43	96	4
NMTAP	43	144	5
NMHLD	43	192	6	192
NMTAP	43	288	2
NMTAP	43	336	1
NMHLD	44	0	0	384
NMTAP	44	96	3
NMTAP	44	144	3
NMTAP	44	192	4
NMTAP	44	240	4
NMTAP	44	288	5
NMTAP	44	336	5
NMSTR	45	0	6
NMSI_	45	0	6	96	48	0
CNSI_	45	144	0	0	48	4
CNSI_	45	192	4	0	48	2
CNSI_	45	240	2	0	48	7
NMTAP	46	0	6
EXTAP	46	48	0
EXTAP	46	48	6
EXTAP	46	120	1
EXTAP	46	120	3
EXTAP	46	192	2
EXTAP	46	192	7
EXHLD	46	264	0	72
EXHLD	46	264	5	72
BXTAP	47	0	6
BXSTR	47	0	7
NMSCR	47	0	7	96	576	5
NMTTP	48	0	0	B	0	M1
NMTTP	48	192	7	B	0	M1
EXTAP	48	336	6
EXTAP	49	0	7
EXSTR	49	48	0
NMSCL	49	48	0	96	528	2
NMTTP	50	0	7	B	0	M1
NMTTP	50	192	0	B	0	M1
BXTAP	51	0	1
BXTAP	51	0	4
NMTAP	51	48	2
NMTAP	51	72	3
NMTAP	51	120	1
NMTAP	51	120	4
NMTAP	51	168	2
NMTAP	51	192	3
NMHLD	51	240	1	96
NMHLD	51	240	4	96
EXTAP	52	0	3
EXTAP	52	0	6
NMTAP	52	48	5
NMTAP	52	72	4
NMTAP	52	120	3
NMTAP	52	120	6
NMTAP	52	168	5
NMTAP	52	192	4
NMHLD	52	240	3	96
NMHLD	52	240	6	96
EXTAP	53	0	1
EXTAP	53	0	4
NMTAP	53	48	2
NMTAP	53	72	3
NMTAP	53	120	1
NMTAP	53	120	4
NMTAP	53	168	2
NMTAP	53	192	3
NMHLD	53	240	1	96
NMHLD	53	240	4	96
NMTHO	54	0	0	384	C	0	M1
BRTAP	55	0	7
NMTTP	56	288	5	B	0	M1
NMTTP	56	336	4	B	0	M1
NMTTP	57	288	0	B	0	M1
NMTTP	57	336	1	B	0	M1
NMTTP	58	144	3	E	0	M1
NMTTP	58	144	5	E	0	M1
NMHLD	59	0	5	336
NMHLD	59	336	4	336
NMHLD	60	288	3	480
NMHLD	62	0	0	384
NMSTR	63	0	4
NMSXR	63	0	4	96	288	0
CNSCR	64	0	0	0	288	5
NMSTR	64	288	7
NMSXR	64	288	7	96	336	3
NMSTR	65	336	1
NMSF_	65	336	1	96	144	5
NMSTR	67	0	0
BRSI_	67	0	0	96	48	3
BRSI_	67	0	0	96	48	5
NMSTR	67	192	4
BRSI_	67	192	4	96	48	1
BRSI_	67	192	4	96	48	7
NMTAP	68	0	0
NMTAP	68	48	1
NMTAP	68	96	2
NMTAP	68	144	3
NMHLD	68	144	4	240
NMSTR	69	0	5
NMSSR	69	0	5	96	96	1
CNSCL	69	192	1	0	48	0
CNSI_	69	240	0	0	48	4
NMSTR	70	0	2
NMSV_	70	0	2	96	48	3
CNSCR	70	144	3	0	24	4
CNSLR	70	168	4	0	120	0
NMSTR	71	0	0
BRSI_	71	0	0	96	48	3
BRSI_	71	0	0	96	48	5
NMSTR	71	192	4
BRSI_	71	192	4	96	48	1
BRSI_	71	192	4	96	48	7
NMTAP	72	0	0
NMTAP	72	48	1
NMTAP	72	96	2
NMHLD	72	144	3	240
NMTAP	72	144	4
NMSTR	73	0	2
NMSSL	73	0	2	96	96	6
CNSCR	73	192	6	0	48	7
CNSI_	73	240	7	0	48	3
NMTAP	74	0	6
NMTAP	74	0	7
NMTAP	74	96	0
NMTAP	74	96	5
NMHLD	74	144	0	144
NMHLD	74	144	5	144
EXSTR	75	0	2
NMSV_	75	0	2	96	48	7
EXHLD	75	0	4	192
NMTAP	75	192	0
NMTAP	75	240	0
NMTAP	75	288	0
EXHLD	76	0	3	192
EXSTR	76	0	5
NMSV_	76	0	5	96	48	0
NMSTR	76	192	7
NMSI_	76	192	7	96	48	3
EXSTR	77	0	2
NMSV_	77	0	2	96	48	7
EXHLD	77	0	4	192
NMTAP	77	192	0
NMTAP	77	240	0
NMTAP	77	288	5
NMTAP	77	336	5
EXTAP	78	0	3
EXTAP	78	0	4
NMSTR	78	96	0
NMSF_	78	96	0	96	96	4
EXTAP	79	0	3
EXTAP	79	0	6
NMTAP	79	48	5
NMTAP	79	72	4
NMTAP	79	96	5
NMTAP	79	120	4
NMTAP	79	144	5
EXTAP	79	192	1
EXTAP	79	192	4
NMTAP	79	240	2
NMTAP	79	264	3
NMTAP	79	288	2
NMTAP	79	312	3
NMTAP	79	336	2
EXTAP	80	0	3
EXTAP	80	0	6
NMTAP	80	48	5
NMTAP	80	72	4
NMTAP	80	96	5
NMTAP	80	120	4
NMTAP	80	144	5
NMTAP	80	192	1
NMTAP	80	216	3
NMTAP	80	240	1
NMTAP	80	288	6
NMTAP	80	312	4
NMTAP	80	336	6
NMTAP	81	0	0
NMTAP	81	48	0
NMTAP	81	96	0
NMTAP	81	144	0
NMHLD	81	192	0	96
NMSTR	81	192	3
NMSI_	81	192	3	96	48	7
NMTHO	82	0	0	192	C	0	M1
NMTAP	82	288	0
NMTAP	82	288	7
EXTAP	83	0	6
NMTAP	83	24	7
NMTAP	83	48	6
NMTAP	83	72	7
NMSTR	83	96	6
NMSI_	83	96	6	96	48	3
NMTAP	83	144	0
NMTAP	83	192	1
NMTAP	83	240	1
NMTAP	83	288	1
NMTAP	83	288	2
NMTAP	84	0	1
NMTAP	84	24	0
NMTAP	84	48	1
NMTAP	84	72	0
NMSTR	84	96	1
NMSI_	84	96	1	96	48	4
NMTAP	84	144	7
NMTAP	84	192	6
NMTAP	84	240	6
NMTAP	84	288	5
NMTAP	84	288	6
NMTAP	85	0	2
NMTAP	85	24	3
NMTAP	85	48	2
NMTAP	85	96	5
NMTAP	85	120	4
NMTAP	85	144	5
NMTAP	85	192	1
NMTAP	85	216	3
NMTAP	85	240	1
NMTAP	85	288	6
NMTAP	85	312	4
NMTAP	85	336	6
NMTAP	86	0	0
NMTAP	86	24	3
NMTAP	86	48	0
NMTAP	86	96	7
NMTAP	86	120	4
NMTAP	86	144	7
NMSTR	86	192	0
NMSUL	86	192	0	96	48	4
NMSUR	86	192	0	96	48	4
EXTAP	87	0	5
NMTAP	87	24	4
NMTAP	87	48	5
NMTAP	87	72	4
NMSTR	87	96	5
NMSI_	87	96	5	96	48	0
NMTAP	87	144	3
NMTAP	87	192	2
NMTAP	87	240	2
NMTAP	87	288	1
NMTAP	87	288	2
NMTAP	88	0	2
NMTAP	88	24	3
NMTAP	88	48	2
NMTAP	88	72	3
NMSTR	88	96	2
NMSI_	88	96	2	96	48	7
NMTAP	88	144	4
NMTAP	88	192	5
NMTAP	88	240	5
NMTAP	88	288	5
NMTAP	88	288	6
NMTAP	89	0	5
NMTAP	89	24	4
NMTAP	89	48	5
NMTAP	89	96	2
NMTAP	89	120	3
NMTAP	89	144	2
NMTAP	89	192	6
NMTAP	89	216	4
NMTAP	89	240	6
NMTAP	89	288	1
NMTAP	89	312	3
NMTAP	89	336	1
EXTAP	90	0	3
EXTAP	90	0	6
EXTAP	90	72	1
EXTAP	90	72	4
EXTAP	90	144	2
EXTAP	90	144	7
EXTAP	90	216	0
EXTAP	90	216	5
EXSTR	90	288	3
NMSI_	90	288	3	96	48	0
EXSTR	90	288	7
NMSI_	90	288	7	96	48	4
BRTAP	91	96	2
BRTAP	91	96	6
NMTAP	91	192	1
NMTAP	91	192	5
NMTAP	91	240	1
NMTAP	91	288	0
NMTAP	91	288	7
NMTAP	92	0	6
NMTAP	92	24	7
NMTAP	92	48	6
NMTAP	92	72	7
NMSTR	92	96	6
NMSI_	92	96	6	96	48	3
NMTAP	92	144	2
NMTAP	92	192	1
NMTAP	92	240	1
NMTAP	92	288	1
NMTAP	92	288	2
NMTAP	93	0	5
NMTAP	93	24	4
NMTAP	93	48	5
BRTAP	93	96	3
BRTAP	93	96	6
NMTAP	93	192	2
NMTAP	93	216	3
NMTAP	93	240	2
BRTAP	93	288	1
BRTAP	93	288	4
EXTAP	94	0	0
EXTAP	94	0	1
EXTAP	94	32	0
EXTAP	94	32	1
EXTAP	94	64	0
EXTAP	94	64	1
BRTAP	94	96	2
BRTAP	94	96	7
NMSTR	94	192	0
NMSI_	94	192	0	96	48	4
EXSTR	95	0	5
NMSI_	95	0	5	96	48	1
NMTAP	95	24	4
NMTAP	95	48	5
NMTAP	95	96	0
NMSTR	95	192	2
NMSI_	95	192	2	96	48	6
NMTAP	95	216	3
NMTAP	95	240	2
NMTAP	95	288	7
NMSTR	96	0	5
NMSI_	96	0	5	96	48	0
NMTAP	96	24	4
NMTAP	96	48	5
NMTAP	96	96	0
NMSTR	96	192	2
NMSI_	96	192	2	96	48	7
NMTAP	96	216	3
NMTAP	96	240	2
NMTAP	96	288	7
NMTAP	97	0	0
NMTAP	97	0	6
NMTAP	97	48	7
NMTAP	97	96	0
NMTAP	97	96	6
NMTAP	97	192	1
NMTAP	97	192	7
NMTAP	97	240	0
NMTAP	97	288	1
NMTAP	97	288	7
NMTHO	98	0	0	192	C	1	M1
BRTAP	98	192	7
NMSTR	99	0	0
BRSI_	99	0	0	96	48	3
BRSI_	99	0	0	96	48	5
NMSTR	99	192	4
BRSI_	99	192	4	96	48	1
BRSI_	99	192	4	96	48	7
NMTAP	100	0	0
NMTAP	100	48	1
NMTAP	100	96	2
NMTAP	100	144	3
NMHLD	100	144	4	240
EXTAP	101	0	7
NMTAP	101	96	6
NMTAP	101	96	7
NMTAP	101	144	0
NMTAP	101	192	5
NMTAP	101	192	7
NMTAP	101	240	0
NMSTR	101	288	4
NMSI_	101	288	4	96	48	0
NMTAP	101	288	7
NMTAP	101	336	0
EXHLD	102	0	1	288
NMSTR	102	96	7
NMSCR	102	96	7	96	96	3
NMSTR	103	0	0
BRSI_	103	0	0	96	48	3
BRSI_	103	0	0	96	48	5
NMSTR	103	192	4
BRSI_	103	192	4	96	48	1
BRSI_	103	192	4	96	48	7
NMTAP	104	0	0
NMTAP	104	48	1
NMTAP	104	96	2
NMHLD	104	144	3	240
NMTAP	104	144	4
NMTAP	104	240	6
NMTAP	104	288	6
EXSTR	105	0	0
NMSCL	105	0	0	96	96	4
NMSTR	105	96	1
NMSI_	105	96	1	96	48	5
NMTAP	105	288	6
NMTAP	105	336	7
EXTAP	106	0	0
EXSTR	106	0	6
NMSI_	106	0	6	96	48	2
NMTAP	106	96	7
CNSI_	106	144	2	0	48	5
NMHLD	106	144	7	144
EXHLD	107	0	3	192
EXSTR	107	0	5
NMSV_	107	0	5	96	48	0
NMTAP	107	192	7
NMTAP	107	240	7
NMTAP	107	288	7
EXSTR	108	0	2
NMSV_	108	0	2	96	48	7
EXHLD	108	0	4	192
NMSTR	108	192	0
NMSI_	108	192	0	96	48	4
BXTAP	109	0	6
BXTAP	109	0	7
NMTAP	109	48	5
NMTAP	109	72	4
NMTAP	109	120	3
NMTAP	109	120	6
NMTAP	109	168	1
NMTAP	109	192	0
NMTAP	109	216	1
NMTAP	109	240	0
NMTAP	109	264	1
NMTAP	109	312	0
NMTAP	109	312	7
NMTAP	109	336	0
NMTAP	109	336	7
NMTAP	110	0	0
NMTAP	110	0	1
NMTAP	110	48	2
NMTAP	110	72	3
NMTAP	110	120	1
NMTAP	110	120	4
NMTAP	110	168	6
NMTAP	110	192	7
NMTAP	110	216	6
NMTAP	110	240	7
NMTAP	110	264	6
NMTAP	110	312	0
NMTAP	110	312	7
NMTAP	110	336	0
NMTAP	110	336	7
NMTAP	111	0	6
NMTAP	111	0	7
NMTAP	111	48	5
NMTAP	111	72	4
NMTAP	111	120	3
NMTAP	111	120	6
NMTAP	111	168	1
NMTAP	111	192	0
NMTAP	111	216	1
NMTAP	111	240	0
NMTAP	111	264	1
NMTAP	111	312	7
NMTAP	111	336	7
NMTAP	111	360	7
BRTAP	112	48	0
BRTAP	112	48	1
NMTAP	112	96	2
NMTAP	112	96	3
NMTAP	112	144	4
NMTAP	112	144	5
NMTAP	112	192	6
NMTAP	112	192	7
NMTAP	112	240	0
NMTAP	112	240	5
NMTAP	112	288	1
NMTAP	112	312	4
NMTAP	112	336	1
NMTAP	112	360	4
NMSTR	113	0	1
NMSF_	113	0	1	96	48	5

T_REC_TAP	412
T_REC_BRK	12
T_REC_XTP	55
T_REC_BXX	15
T_REC_HLD	47
T_REC_XHO	11
T_REC_BHO	0
T_REC_BXH	2
T_REC_STR	52
T_REC_BST	0
T_REC_XST	16
T_REC_XBS	1
T_REC_TTP	29
T_REC_THO	5
T_REC_SLD	58
T_REC_BSL	24
T_REC_ALL	739
T_NUM_TAP	564
T_NUM_BRK	54
T_NUM_HLD	63
T_NUM_SLD	58
T_NUM_ALL	739
T_JUDGE_TAP	592
T_JUDGE_HLD	251
T_JUDGE_SLD	82
T_JUDGE_ALL	925
TTM_EACHPAIRS	130
TTM_SCR_TAP	282000
TTM_SCR_BRK	140400
TTM_SCR_HLD	63000
TTM_SCR_SLD	87000
TTM_SCR_ALL	572400
TTM_SCR_S	550000
TTM_SCR_SS	567000
TTM_RAT_ACV	10095

