VERSION	0.00.00	1.04.00
FES_MODE	0
BPM_DEF	163.000	163.000	163.000	163.000
MET_DEF	4	4
RESOLUTION	384
CLK_DEF	384
COMPATIBLE_CODE	MA2

BPM	0	0	163.000
MET	0	0	4	4

NMHLD	2	0	2	384
NMHLD	3	0	3	384
NMHLD	4	0	4	384
NMTAP	5	0	5
NMHLD	6	0	5	384
NMHLD	7	0	4	384
NMHLD	8	0	3	384
NMTAP	9	0	2
EXTAP	11	0	0
EXTAP	11	0	1
EXTAP	12	0	2
EXTAP	12	0	3
EXTAP	13	0	4
EXTAP	13	0	5
EXTAP	14	0	6
EXTAP	14	0	7
NMTAP	15	0	5
NMTAP	15	192	5
NMTAP	16	0	4
NMTAP	16	192	4
NMTAP	17	0	3
NMTAP	17	192	3
NMTAP	18	0	2
NMTAP	18	192	2
NMTAP	19	0	0
NMTAP	19	0	1
NMTAP	19	192	0
NMTAP	19	192	1
NMTAP	20	0	6
NMTAP	20	0	7
NMTAP	20	192	6
NMTAP	20	192	7
NMTAP	21	0	0
NMTAP	21	96	0
NMTAP	21	192	7
NMTAP	21	288	7
BRTAP	22	0	1
BRTAP	22	0	6
NMTAP	23	0	5
NMTAP	23	96	5
NMTAP	23	192	4
NMTAP	23	192	5
NMTAP	24	0	6
NMTAP	24	96	6
NMTAP	24	192	6
NMTAP	24	192	7
NMTAP	25	0	0
NMTAP	25	96	0
NMTAP	25	192	0
NMTAP	25	192	1
NMTAP	26	0	2
NMTAP	26	0	3
NMTAP	26	96	2
NMTAP	26	96	3
NMTAP	26	192	2
NMTAP	26	192	3
NMTAP	27	0	2
NMTAP	27	96	2
NMTAP	27	192	2
NMTAP	27	192	3
NMTAP	28	0	1
NMTAP	28	96	1
NMTAP	28	192	0
NMTAP	28	192	1
NMTAP	29	0	7
NMTAP	29	96	7
NMTAP	29	192	6
NMTAP	29	192	7
NMTAP	30	0	5
NMTAP	30	96	5
EXTAP	30	192	3
EXTAP	30	192	4
NMTTP	31	0	1	B	0	L1
NMTTP	31	96	2	B	0	L1
NMTTP	31	192	3	B	0	L1
NMTTP	32	0	6	B	0	L1
NMTTP	32	96	5	B	0	L1
NMTTP	32	192	4	B	0	L1
NMTTP	33	0	1	B	0	L1
NMTTP	33	96	2	B	0	L1
NMTTP	33	192	3	B	0	L1
NMTTP	33	288	4	B	0	L1
NMTTP	34	0	5	B	0	L1
NMTTP	34	96	6	B	0	L1
NMTTP	34	192	0	B	0	L1
NMTTP	34	192	7	B	0	L1
NMTTP	35	0	3	B	0	L1
NMTTP	35	96	2	B	0	L1
NMTTP	35	192	1	B	0	L1
NMTTP	36	0	4	B	0	L1
NMTTP	36	96	5	B	0	L1
NMTTP	36	192	6	B	0	L1
NMTTP	37	0	2	B	0	L1
NMTTP	37	96	1	B	0	L1
NMTTP	37	192	0	B	0	L1
NMTTP	37	288	7	B	0	L1
NMTTP	38	0	6	B	0	L1
NMTTP	38	96	5	B	0	L1
NMTTP	38	192	3	B	0	L1
NMTTP	38	192	4	B	0	L1
NMTAP	39	0	6
NMTAP	39	96	6
NMTAP	39	192	7
NMTAP	39	288	7
NMTAP	40	0	0
NMTAP	40	96	0
NMTAP	40	192	0
NMTAP	40	192	1
NMTAP	41	0	2
NMTAP	41	96	2
NMTAP	41	192	1
NMTAP	41	288	1
NMTAP	42	0	0
NMTAP	42	96	0
NMTAP	42	192	6
NMTAP	42	192	7
NMTAP	43	0	6
NMTAP	43	96	6
NMTAP	43	192	5
NMTAP	43	288	5
NMTAP	44	0	4
NMTAP	44	96	4
NMTAP	44	192	2
NMTAP	44	192	3
NMTAP	45	0	1
NMTAP	45	96	1
NMTAP	45	192	2
NMTAP	45	288	2
NMTAP	46	0	3
NMTAP	46	96	3
NMTAP	46	192	4
NMTAP	46	192	5
NMHLD	47	0	6	192
NMTAP	47	192	7
NMHLD	48	0	1	192
NMTAP	48	192	0
NMHLD	49	0	2	192
NMTAP	49	192	3
NMHLD	50	0	5	192
NMTAP	50	192	4
NMTAP	51	0	3
NMTAP	51	96	2
NMTAP	51	192	1
NMTAP	51	288	0
NMTAP	52	0	7
NMTAP	52	96	6
NMTAP	52	192	5
NMTAP	52	288	4
NMTAP	53	0	3
NMTAP	53	96	2
NMTAP	53	192	1
NMTAP	53	288	0
EXTAP	54	0	0
EXTAP	54	0	7
NMSTR	55	0	1
NMSI_	55	0	1	96	288	4
NMSTR	57	0	6
NMSI_	57	0	6	96	288	3
NMSTR	59	0	1
NMSI_	59	0	1	96	288	5
NMSTR	61	0	6
NMSI_	61	0	6	96	288	2
NMSTR	63	0	1
NMSUR	63	0	1	96	480	4
NMSTR	65	0	6
NMSUL	65	0	6	96	480	3
NMHLD	67	0	1	192
NMHLD	67	192	0	192
NMHLD	68	0	7	192
NMTAP	68	192	6
NMTAP	69	0	4
NMTAP	69	0	5
NMTAP	69	96	4
NMTAP	69	96	5
NMTAP	69	192	3
NMTAP	69	192	6
NMTAP	70	0	6
NMTAP	70	0	7
NMTAP	70	96	6
NMTAP	70	96	7
NMTAP	70	192	0
NMTAP	70	192	5
NMHLD	71	0	6	192
NMHLD	71	192	7	192
NMHLD	72	0	0	192
NMTAP	72	192	1
NMTAP	73	0	2
NMTAP	73	0	3
NMTAP	73	96	2
NMTAP	73	96	3
NMTAP	73	192	1
NMTAP	73	192	4
NMTAP	74	0	0
NMTAP	74	0	1
NMTAP	74	96	0
NMTAP	74	96	1
NMTAP	74	192	2
NMTAP	74	192	7
NMTAP	75	0	1
NMTAP	75	96	1
NMTAP	75	192	0
NMTAP	75	192	1
NMTAP	75	288	0
NMTAP	75	288	1
NMTAP	76	0	2
NMTAP	76	96	2
NMTAP	76	192	2
NMTAP	76	192	3
NMTAP	76	288	2
NMTAP	76	288	3
NMTAP	77	0	5
NMTAP	77	96	5
NMTAP	77	192	4
NMTAP	77	192	5
NMTAP	77	288	4
NMTAP	77	288	5
NMTAP	78	0	6
NMTAP	78	96	6
NMTAP	78	192	6
NMTAP	78	192	7
NMTAP	78	288	6
NMTAP	78	288	7
NMTAP	79	0	4
NMTAP	79	0	5
NMTAP	79	96	4
NMTAP	79	96	5
NMTAP	79	192	4
NMTAP	79	192	5
NMTAP	80	0	2
NMTAP	80	0	3
NMTAP	80	96	2
NMTAP	80	96	3
NMTAP	80	192	2
NMTAP	80	192	3
EXTAP	81	0	4
EXTAP	81	48	4
EXTAP	81	96	4
EXTAP	81	192	3
EXTAP	81	240	3
EXTAP	81	288	3
NMTAP	82	0	2
NMTAP	82	0	5
NMTAP	82	96	2
NMTAP	82	96	5
BRTAP	82	192	3
BRTAP	82	192	4
NMTAP	83	0	2
NMTAP	83	96	2
NMTAP	83	192	0
NMTAP	83	192	1
NMTAP	83	288	0
NMTAP	83	288	1
NMTAP	84	0	7
NMTAP	84	96	6
NMTAP	84	192	4
NMTAP	84	192	5
NMTAP	85	0	5
NMTAP	85	96	5
NMTAP	85	192	6
NMTAP	85	192	7
NMTAP	85	288	6
NMTAP	85	288	7
NMTAP	86	0	0
NMTAP	86	96	1
NMTAP	86	192	2
NMTAP	86	192	3
NMTAP	87	0	1
NMTAP	87	96	1
NMTAP	87	192	2
NMTAP	87	192	3
NMTAP	87	288	2
NMTAP	87	288	3
NMTAP	88	0	4
NMTAP	88	96	5
NMTAP	88	192	6
NMTAP	88	192	7
NMTAP	89	0	6
NMTAP	89	96	6
NMTAP	89	192	4
NMTAP	89	192	5
NMTAP	89	288	4
NMTAP	89	288	5
NMTAP	90	0	3
NMTAP	90	96	2
NMTAP	90	192	0
NMTAP	90	192	1
NMTAP	91	0	2
NMTAP	91	48	2
NMTAP	91	96	2
NMTAP	91	192	1
NMTAP	91	240	1
NMTAP	91	288	1
NMTAP	92	0	0
NMTAP	92	48	0
NMTAP	92	96	0
NMTAP	92	192	6
NMTAP	92	192	7
NMTAP	93	0	5
NMTAP	93	48	5
NMTAP	93	96	5
NMTAP	93	192	6
NMTAP	93	240	6
NMTAP	93	288	6
NMTAP	94	0	7
NMTAP	94	48	7
NMTAP	94	96	7
NMTAP	94	192	0
NMTAP	94	192	1
NMTAP	95	0	1
NMTAP	95	48	1
NMTAP	95	96	1
NMTAP	95	192	2
NMTAP	95	240	2
NMTAP	95	288	2
NMTAP	96	0	3
NMTAP	96	48	3
NMTAP	96	96	3
NMTAP	96	192	4
NMTAP	96	192	5
NMTAP	97	0	6
NMTAP	97	48	6
NMTAP	97	96	6
NMTAP	97	192	5
NMTAP	97	240	5
NMTAP	97	288	5
NMTAP	98	0	4
NMTAP	98	48	4
NMTAP	98	96	4
NMTAP	98	192	2
NMTAP	98	192	3
NMHLD	99	0	1	192
NMHLD	99	192	2	192
NMHLD	100	0	3	192
NMTAP	100	192	4
NMTAP	101	0	4
NMTAP	101	0	5
NMTAP	101	96	4
NMTAP	101	96	5
NMTAP	101	192	6
NMTAP	101	192	7
NMTAP	101	288	6
NMTAP	101	288	7
NMTAP	102	0	0
NMTAP	102	0	1
NMTAP	102	96	0
NMTAP	102	96	1
NMTAP	102	192	2
NMTAP	102	192	7
NMHLD	103	0	6	192
NMHLD	103	192	5	192
NMHLD	104	0	4	192
NMTAP	104	192	3
NMTAP	105	0	2
NMTAP	105	0	3
NMTAP	105	96	2
NMTAP	105	96	3
NMTAP	105	192	0
NMTAP	105	192	1
NMTAP	105	288	0
NMTAP	105	288	1
NMTAP	106	0	6
NMTAP	106	0	7
NMTAP	106	96	6
NMTAP	106	96	7
NMTAP	106	192	0
NMTAP	106	192	5
NMTAP	107	0	6
NMTAP	107	0	7
NMTAP	107	48	6
NMTAP	107	48	7
NMTAP	107	96	6
NMTAP	107	96	7
NMTAP	107	192	0
NMTAP	107	192	5
NMTAP	108	0	0
NMTAP	108	0	1
NMTAP	108	48	0
NMTAP	108	48	1
NMTAP	108	96	0
NMTAP	108	96	1
NMTAP	108	192	2
NMTAP	108	192	7
NMTAP	109	0	0
NMTAP	109	96	1
NMTAP	109	192	2
NMTAP	109	288	3
NMTAP	110	0	4
NMTAP	110	96	5
NMTAP	110	192	6
NMTAP	110	288	7
NMTAP	111	0	0
NMTAP	111	96	1
NMTAP	111	192	2
NMTAP	111	288	3
NMTAP	112	0	4
NMTAP	112	96	5
NMTAP	112	192	6
NMTAP	112	288	7
BRTAP	113	0	0
BRTAP	113	0	7

T_REC_TAP	314
T_REC_BRK	6
T_REC_XTP	18
T_REC_BXX	0
T_REC_HLD	22
T_REC_XHO	0
T_REC_BHO	0
T_REC_BXH	0
T_REC_STR	6
T_REC_BST	0
T_REC_XST	0
T_REC_XBS	0
T_REC_TTP	28
T_REC_THO	0
T_REC_SLD	6
T_REC_BSL	0
T_REC_ALL	400
T_NUM_TAP	366
T_NUM_BRK	6
T_NUM_HLD	22
T_NUM_SLD	6
T_NUM_ALL	400
T_JUDGE_TAP	372
T_JUDGE_HLD	112
T_JUDGE_SLD	6
T_JUDGE_ALL	490
TTM_EACHPAIRS	92
TTM_SCR_TAP	183000
TTM_SCR_BRK	15600
TTM_SCR_HLD	22000
TTM_SCR_SLD	9000
TTM_SCR_ALL	229600
TTM_SCR_S	222150
TTM_SCR_SS	229000
TTM_RAT_ACV	10026

