VERSION	0.00.00	1.04.00
FES_MODE	0
BPM_DEF	230.000	230.000	230.000	230.000
MET_DEF	4	4
RESOLUTION	384
CLK_DEF	384
COMPATIBLE_CODE	MA2

BPM	0	0	230.000
MET	0	0	4	4
MET	1	0	4	4
MET	73	0	4	4
MET	74	0	4	3
MET	74	288	4	4
MET	75	288	4	3
MET	76	192	4	4
MET	77	192	4	3
MET	79	288	4	4
MET	80	288	4	3
MET	83	0	4	4
MET	84	0	4	3
MET	84	288	4	4
MET	85	288	4	3
MET	91	0	4	2
MET	91	192	4	3
MET	103	192	4	4
MET	105	192	4	3
MET	111	192	4	4
MET	113	192	4	2
MET	114	0	4	3
MET	126	0	4	2
MET	126	192	4	3
MET	141	192	4	2
MET	142	0	4	3
MET	143	192	4	2
MET	144	0	4	4

NMTAP	2	192	0
NMTAP	2	240	0
NMTAP	2	288	6
NMTAP	2	336	6
BRSTR	3	0	1
NMSI_	3	0	1	96	192	4
BRTAP	3	0	5
NMSTR	4	0	6
NMSI_	4	0	6	96	192	3
NMSTR	5	0	0
NMSI_	5	0	0	96	192	4
NMSTR	6	0	6
NMSI_	6	0	6	96	192	2
NMSTR	7	0	0
NMSSL	7	0	0	96	384	4
NMSTR	8	192	5
NMSI_	8	192	5	96	96	3
NMSTR	9	0	2
NMSCR	9	0	2	96	480	7
NMSTR	11	0	0
NMSI_	11	0	0	96	144	3
NMHLD	11	0	6	576
NMSTR	12	0	4
NMSI_	12	0	4	96	144	0
NMHLD	13	0	1	576
NMSTR	13	0	7
NMSI_	13	0	7	96	144	4
NMSTR	14	0	3
NMSI_	14	0	3	96	144	7
NMSTR	15	0	2
NMSLR	15	0	2	96	288	6
NMHLD	15	0	7	384
NMSTR	16	192	7
NMSV_	16	192	7	96	96	2
NMSTR	17	0	0
NMSLL	17	0	0	96	480	4
NMSLR	17	0	0	96	480	4
BRTAP	19	0	3
NMHLD	19	0	5	576
NMTAP	19	192	4
NMTAP	19	288	4
NMTAP	20	0	3
NMTAP	20	192	3
NMTAP	20	288	4
NMTAP	20	336	3
NMHLD	21	0	2	192
NMTAP	21	0	4
NMTAP	21	192	4
NMTAP	22	0	2
NMTAP	22	32	4
NMTAP	22	64	3
NMTAP	22	96	5
NMTAP	22	128	3
NMTAP	22	160	4
NMTAP	22	192	2
NMTAP	22	192	5
NMTAP	22	288	4
NMTAP	22	320	4
NMTAP	22	352	3
NMSTR	23	0	5
NMSCR	23	0	5	96	192	0
NMTAP	23	192	3
NMTAP	23	288	2
NMSTR	24	0	1
NMSCR	24	0	1	96	192	4
NMTAP	24	192	0
NMTAP	24	288	7
NMSTR	25	0	6
NMSI_	25	0	6	96	96	3
NMTAP	25	192	2
NMTAP	26	0	1
NMTAP	26	32	2
NMTAP	26	64	3
NMTAP	26	96	2
NMTAP	26	128	3
NMTAP	26	160	4
NMTAP	26	192	2
NMTAP	26	192	5
NMTAP	26	288	3
NMTAP	26	288	6
NMTAP	27	0	4
NMTAP	27	0	5
NMTAP	27	48	5
NMTAP	27	96	4
NMTAP	27	144	6
NMTAP	27	192	3
NMTAP	27	240	5
NMTAP	27	288	2
NMTAP	27	336	4
NMTAP	28	0	1
NMTAP	28	0	5
NMTAP	28	48	2
NMTAP	28	96	4
NMTAP	28	144	3
NMTAP	28	192	2
NMTAP	28	192	6
NMTAP	28	240	5
NMTAP	28	288	3
NMTAP	28	336	4
NMTAP	29	0	1
NMTAP	29	0	5
NMTAP	29	48	2
NMTAP	29	96	3
NMTAP	29	144	1
NMTAP	29	192	4
NMTAP	29	240	2
NMTAP	29	288	5
NMTAP	29	336	3
NMTAP	30	0	2
NMTAP	30	0	6
NMTAP	30	48	5
NMTAP	30	96	3
NMTAP	30	144	4
NMTAP	30	192	1
NMTAP	30	192	5
NMTAP	30	240	6
NMTAP	30	288	0
NMTAP	30	336	7
NMTAP	31	0	1
NMHLD	31	48	1	96
NMTAP	31	144	3
NMTAP	31	192	4
NMHLD	31	240	5	96
NMTAP	31	336	4
NMTAP	32	48	3
NMTAP	32	48	6
NMTAP	32	96	3
NMTAP	32	96	6
NMTAP	32	144	4
NMTAP	32	192	5
NMTAP	32	240	3
NMTAP	32	288	6
NMTAP	32	336	4
NMTAP	33	0	5
NMTAP	33	48	5
NMTAP	33	96	3
NMTAP	33	144	3
NMTAP	33	192	4
NMSTR	33	240	2
NMSCL	33	240	2	96	48	0
NMTAP	33	336	2
NMTAP	33	336	3
NMTAP	34	48	4
NMTAP	34	96	4
NMTAP	34	144	1
NMTAP	34	192	3
NMTAP	34	240	2
NMTAP	34	288	5
NMTAP	34	336	4
NMTAP	35	0	6
NMHLD	35	48	6	96
NMTAP	35	144	4
NMTAP	35	192	3
NMHLD	35	240	2	96
NMTAP	35	336	3
NMTAP	36	48	1
NMTAP	36	48	4
NMTAP	36	96	1
NMTAP	36	96	4
NMTAP	36	144	3
NMTAP	36	192	2
NMTAP	36	240	4
NMTAP	36	288	1
NMTAP	36	336	3
NMTAP	37	0	2
NMTAP	37	48	2
NMTAP	37	96	4
NMTAP	37	144	4
NMTAP	37	192	3
NMSTR	37	240	5
NMSCR	37	240	5	96	48	7
NMTAP	37	336	4
NMTAP	37	336	5
NMTAP	38	48	3
NMTAP	38	96	3
NMTAP	38	144	7
NMTAP	38	192	4
NMTAP	38	240	6
NMTAP	38	288	3
NMTAP	38	336	5
NMTAP	39	0	2
NMHLD	39	48	2	96
NMTAP	39	144	3
NMTAP	39	192	3
NMHLD	39	240	1	96
NMTAP	39	336	7
NMTAP	40	48	0
NMTAP	40	48	6
NMTAP	40	96	0
NMTAP	40	96	6
NMTAP	40	144	7
NMTAP	40	192	0
NMTAP	40	240	6
NMTAP	40	288	7
NMTAP	40	336	5
NMTAP	41	0	5
NMTAP	41	48	4
NMTAP	41	96	6
NMTAP	41	144	3
NMTAP	41	192	5
NMTAP	41	240	2
NMTAP	41	336	0
NMTAP	41	336	4
NMTTP	42	0	1	E	0	M1
NMTTP	42	32	2	E	0	M1
NMTTP	42	64	3	E	0	M1
NMTTP	42	96	7	E	0	M1
NMTTP	42	128	6	E	0	M1
NMTTP	42	160	5	E	0	M1
NMTTP	42	192	1	A	0	M1
NMTTP	42	224	2	A	0	M1
NMTTP	42	256	3	A	0	M1
NMTTP	42	288	7	A	0	M1
NMTTP	42	320	6	A	0	M1
NMTTP	42	352	5	A	0	M1
NMTAP	43	0	2
NMTAP	43	48	2
NMTAP	43	96	3
NMTAP	43	144	1
NMTAP	43	192	6
NMTAP	43	240	6
NMTAP	43	288	4
NMHLD	43	336	5	96
NMTAP	44	48	3
NMTAP	44	96	3
NMTAP	44	144	5
NMTAP	44	192	4
NMTAP	44	240	6
NMTAP	44	288	0
NMTAP	44	336	0
NMTAP	45	0	3
NMTAP	45	48	3
NMTAP	45	96	1
NMTAP	45	144	4
NMTAP	45	192	2
NMTAP	45	240	5
NMTAP	45	288	0
NMTAP	45	336	3
NMTTP	46	0	1	B	0	M1
NMTTP	46	32	2	B	0	M1
NMTTP	46	64	3	B	0	M1
NMTTP	46	96	7	B	0	M1
NMTTP	46	128	6	B	0	M1
NMTTP	46	160	5	B	0	M1
NMTTP	46	192	0	A	0	M1
NMTTP	46	224	1	A	0	M1
NMTTP	46	256	2	A	0	M1
NMTTP	46	288	6	A	0	M1
NMTTP	46	320	5	A	0	M1
NMTTP	46	352	4	A	0	M1
EXHLD	47	0	3	336
NMHLD	47	0	7	480
NMTAP	48	48	3
NMSTR	48	96	3
NMSI_	48	96	3	96	48	6
NMSTR	48	192	0
NMSI_	48	192	0	96	48	4
BRTAP	49	0	3
BRTAP	49	0	7
NMSTR	49	96	1
NMSI_	49	96	1	96	48	5
NMTAP	49	144	0
NMTAP	49	192	1
NMSTR	49	240	6
NMSXL	49	240	6	96	144	3
NMTAP	49	288	4
NMTAP	49	336	6
NMTAP	50	192	1
NMTAP	50	192	4
NMTAP	50	288	3
NMTAP	50	288	6
NMHLD	51	0	0	96
NMTAP	51	0	7
NMSTR	51	96	6
NMSI_	51	96	6	96	48	3
NMTAP	51	144	0
NMTAP	51	192	6
NMSTR	51	240	2
NMSXL	51	240	2	96	144	7
NMTAP	51	288	4
NMTAP	51	336	2
NMTAP	52	192	4
NMTAP	52	192	6
NMTAP	52	288	1
NMTAP	52	288	3
BRSTR	53	0	0
NMSI_	53	0	0	96	48	4
NMTAP	53	96	0
NMTAP	53	96	7
NMSTR	53	144	6
NMSI_	53	144	6	96	48	2
NMTAP	53	240	6
NMTAP	53	240	7
NMTAP	53	288	0
BRSTR	54	0	1
NMSI_	54	0	1	96	48	5
NMTAP	54	96	0
NMTAP	54	96	1
NMSTR	54	144	7
NMSI_	54	144	7	96	48	3
NMTAP	54	240	0
NMTAP	54	240	7
NMSTR	54	288	1
NMSI_	54	288	1	96	48	4
NMSTR	55	0	5
NMSI_	55	0	5	96	48	0
NMSTR	55	96	2
NMSI_	55	96	2	96	48	7
NMSTR	55	192	6
NMSI_	55	192	6	96	48	3
NMTAP	55	288	0
NMTAP	56	0	2
NMTAP	56	0	6
NMTAP	56	96	0
NMTAP	56	96	4
NMSTR	56	144	0
NMSCR	56	144	0	96	48	3
NMTAP	56	144	4
NMSTR	56	240	0
NMSCL	56	240	0	96	48	5
NMTAP	56	240	5
NMTAP	56	336	0
BRTAP	56	336	2
NMTAP	57	48	3
NMTAP	57	96	2
NMTAP	57	96	4
NMTAP	57	192	1
NMTAP	57	192	3
NMTAP	57	240	2
NMTAP	57	264	3
NMSTR	57	288	1
NMSI_	57	288	1	96	48	4
NMTAP	57	336	0
NMTAP	58	0	1
NMTAP	58	0	7
NMTAP	58	96	6
NMTAP	58	144	6
NMTAP	58	192	5
NMTAP	58	240	5
NMTAP	58	288	4
NMSTR	59	0	2
NMSI_	59	0	2	96	48	4
NMTAP	59	96	2
NMTAP	59	96	5
NMSTR	59	144	6
NMSI_	59	144	6	96	48	0
NMSTR	59	240	1
NMSI_	59	240	1	96	48	5
NMTAP	59	240	6
BRTAP	59	336	1
NMTAP	60	48	7
NMTAP	60	96	7
NMTAP	60	192	4
NMTAP	60	192	6
NMTAP	60	240	5
NMTAP	60	288	1
NMTAP	60	288	3
NMTAP	60	336	2
NMSTR	61	0	4
NMSI_	61	0	4	96	48	1
NMTAP	61	0	5
NMTAP	61	96	4
NMTAP	61	96	7
NMSTR	61	144	5
NMSCR	61	144	5	96	48	0
NMTAP	61	240	1
NMTAP	61	240	5
NMTAP	61	288	3
NMTAP	62	0	2
NMSTR	62	0	3
NMSI_	62	0	3	96	48	6
NMTAP	62	96	0
NMTAP	62	96	3
NMSTR	62	144	2
NMSCL	62	144	2	96	48	7
NMTAP	62	240	2
NMTAP	62	240	6
NMTAP	62	288	4
NMTAP	63	0	2
NMTAP	63	0	3
NMTAP	63	48	1
NMTAP	63	96	4
NMTAP	63	96	5
NMTAP	63	144	6
NMTAP	63	192	0
NMTAP	63	192	7
NMTAP	63	240	0
NMTAP	63	240	7
NMTAP	63	288	1
NMTAP	63	288	6
NMSTR	64	0	2
NMSI_	64	0	2	96	48	7
NMTAP	64	96	2
NMTAP	64	96	7
NMSTR	64	144	6
NMSI_	64	144	6	96	48	2
NMSTR	64	240	3
BRSCL	64	240	3	96	144	4
NMTAP	64	240	6
NMTTP	64	336	0	C	1	M1
BRTAP	64	336	3
NMTAP	65	192	6
NMTAP	65	240	4
NMTAP	65	288	3
NMTAP	65	288	5
NMTAP	65	336	2
NMSTR	66	0	1
NMSV_	66	0	1	96	48	4
NMTAP	66	48	3
NMSTR	66	96	1
NMSI_	66	96	1	96	48	7
NMSTR	66	144	6
NMSI_	66	144	6	96	48	2
NMTAP	66	192	1
NMSTR	66	240	6
BRSCR	66	240	6	96	144	5
NMTAP	66	288	0
BXTAP	66	336	6
NMTAP	67	192	1
NMTAP	67	240	3
NMTAP	67	288	2
NMTAP	67	288	4
NMTAP	67	336	5
NMSTR	68	0	6
NMSV_	68	0	6	96	48	3
NMTAP	68	48	4
NMSTR	68	96	6
NMSI_	68	96	6	96	48	0
NMSTR	68	144	1
NMSI_	68	144	1	96	48	5
NMTAP	68	192	6
NMSTR	68	240	1
BRSCL	68	240	1	96	144	2
NMTAP	68	288	7
BXTAP	68	336	1
NMTAP	69	192	3
NMTAP	69	192	7
NMTAP	69	240	5
NMTAP	69	288	0
NMTAP	69	288	4
NMTAP	69	336	2
NMTAP	70	0	5
NMTAP	70	48	4
NMTAP	70	48	6
NMTAP	70	96	2
NMTAP	70	144	1
NMTAP	70	144	3
NMTAP	70	192	7
NMTAP	70	240	0
NMTAP	70	240	6
NMTAP	70	288	1
NMTAP	70	288	5
NMTAP	71	0	2
NMTAP	71	32	3
NMTAP	71	64	1
NMTAP	71	96	5
NMTAP	71	128	4
NMTAP	71	160	6
NMTAP	71	192	2
NMTAP	71	224	4
NMTAP	71	256	0
NMTAP	71	288	5
NMTAP	71	320	3
NMTAP	71	352	7
NMTAP	72	0	1
NMTAP	72	32	3
NMTAP	72	64	2
NMTAP	72	96	6
NMTAP	72	128	4
NMTAP	72	160	5
NMTAP	72	192	0
NMTAP	72	224	4
NMTAP	72	256	2
NMSTR	72	288	7
NMSI_	72	288	7	96	48	3
NMTAP	72	320	3
NMTAP	72	352	5
BRSTR	73	0	7
BRSI_	73	0	7	96	288	1
NMTAP	73	336	2
CNSI_	74	0	1	0	384	5
NMTAP	74	48	2
NMTAP	74	288	2
CNSI_	75	0	5	0	288	3
NMTAP	75	240	2
NMTAP	75	336	2
NMTAP	76	48	2
NMTAP	76	96	3
NMTAP	76	144	4
NMSTR	76	192	5
BRSCL	76	192	5	96	192	3
CNSUR	77	96	3	0	288	0
NMTAP	77	144	2
NMTAP	77	240	2
NMTAP	77	336	3
NMTAP	78	0	3
NMTAP	78	48	2
NMHLD	78	96	1	192
NMTAP	78	288	7
NMTAP	78	336	7
NMTAP	79	0	0
NMTAP	79	48	1
NMTAP	79	96	2
NMTAP	79	144	3
NMTAP	79	192	4
NMTAP	79	240	5
NMTAP	79	288	5
NMTAP	79	336	4
NMTAP	80	0	3
NMTAP	80	48	2
NMTAP	80	96	2
NMTAP	80	144	4
NMTAP	80	192	5
NMTAP	80	240	5
NMTAP	80	288	4
NMTAP	80	336	3
NMTAP	81	0	2
NMTAP	81	48	2
NMTAP	81	96	4
NMTAP	81	144	3
NMTAP	81	192	5
NMTAP	81	240	4
NMTAP	81	288	3
NMTAP	81	336	2
BRHLD	82	0	1	0
NMHLD	82	8	4	0
BRHLD	82	64	1	0
NMHLD	82	72	4	0
BRHLD	82	128	1	0
NMHLD	82	136	4	0
BRHLD	82	192	6	0
NMHLD	82	200	3	0
BRHLD	82	256	6	0
NMHLD	82	264	3	0
BRHLD	82	320	6	0
NMHLD	82	328	3	0
NMTAP	83	0	5
NMTAP	83	48	4
NMTAP	83	96	3
NMTAP	83	144	2
NMTAP	83	192	2
NMTAP	83	240	3
NMTAP	83	288	4
NMTAP	83	336	5
BRHLD	84	0	6	0
NMHLD	84	8	4	0
BRHLD	84	64	6	0
NMHLD	84	72	4	0
BRHLD	84	128	6	0
NMHLD	84	136	4	0
BRHLD	84	192	6	0
NMHLD	84	200	4	0
NMTAP	84	288	5
NMTAP	84	336	4
NMTAP	85	0	3
NMTAP	85	48	4
NMTAP	85	96	5
NMTAP	85	144	4
NMTAP	85	192	3
NMTAP	85	240	2
NMTAP	85	288	3
NMTAP	85	336	4
NMTAP	86	0	5
NMTAP	86	96	3
NMTAP	86	96	5
NMTAP	86	192	2
NMTAP	86	224	3
NMTAP	86	256	2
NMTAP	86	288	4
NMTAP	86	320	3
NMTAP	86	352	4
NMTAP	87	0	2
NMTAP	87	32	3
NMTAP	87	64	2
NMTAP	87	96	5
NMTAP	87	128	4
NMTAP	87	160	5
NMTAP	87	192	3
NMTAP	87	224	4
NMTAP	87	256	3
NMTAP	87	288	5
NMTAP	87	320	4
NMTAP	87	352	5
NMTAP	88	0	2
NMTAP	88	32	3
NMTAP	88	64	2
NMTAP	88	96	4
NMTAP	88	128	3
NMTAP	88	160	4
NMTAP	88	192	1
NMTAP	88	224	1
NMTAP	88	256	3
NMTAP	88	288	6
NMTAP	88	320	6
NMTAP	88	352	4
NMTAP	89	0	0
NMTAP	89	32	0
NMTAP	89	64	3
NMTAP	89	96	7
NMTAP	89	128	7
NMTAP	89	160	4
NMHLD	89	192	1	480
NMHLD	89	192	5	480
NMSTR	91	0	2
NMSI_	91	0	2	96	48	7
NMSTR	91	0	6
NMSI_	91	0	6	96	48	3
NMTAP	91	96	2
NMTAP	91	96	6
NMTAP	91	192	0
NMTAP	91	192	4
NMSTR	91	240	0
NMSCR	91	240	0	96	48	3
NMTAP	91	240	4
NMSTR	91	336	0
NMSCL	91	336	0	96	48	5
NMTAP	91	336	5
NMTAP	92	48	0
NMTAP	92	48	4
NMTAP	92	96	4
NMTAP	92	120	3
NMTAP	92	144	2
NMTAP	92	168	1
NMTAP	92	192	0
NMTAP	92	216	7
NMTAP	92	240	6
NMTAP	92	264	5
BRTAP	92	288	0
BRTAP	92	288	4
NMTAP	93	0	3
NMTAP	93	0	7
NMTAP	93	48	3
NMSTR	93	48	7
NMSCL	93	48	7	96	48	4
NMTAP	93	144	2
NMSTR	93	144	7
NMSCR	93	144	7	96	48	2
NMTAP	93	240	3
NMTAP	93	240	7
NMTAP	93	288	3
NMTAP	93	312	4
NMTAP	93	336	5
NMTAP	93	360	6
NMTAP	94	0	7
NMTAP	94	24	0
NMTAP	94	48	1
NMTAP	94	72	2
BRTAP	94	96	3
BRTAP	94	96	7
NMTAP	94	192	2
NMTAP	94	192	4
NMTAP	94	240	2
NMTAP	94	240	4
NMTAP	94	336	6
NMTAP	94	336	7
NMTAP	95	48	1
NMTAP	95	48	4
NMTAP	95	96	1
NMTAP	95	96	4
NMTAP	95	120	5
NMTAP	95	144	6
NMTAP	95	168	7
NMTAP	95	192	1
NMTAP	95	216	2
NMTAP	95	240	3
NMTAP	95	264	4
NMSTR	95	288	0
NMSI_	95	288	0	96	48	2
NMTAP	95	312	7
NMTAP	95	336	6
NMTAP	95	360	5
NMSTR	96	0	0
NMSI_	96	0	0	96	48	6
NMSTR	96	96	0
NMSI_	96	96	0	96	48	4
NMSTR	96	192	0
NMSCL	96	192	0	96	72	4
NMTAP	96	288	0
NMTAP	96	288	3
NMTAP	96	312	2
NMTAP	96	336	1
EXTAP	96	360	0
NMTAP	97	0	7
NMTAP	97	96	1
NMTAP	97	96	5
NMSTR	97	192	0
NMSI_	97	192	0	96	48	4
NMSTR	97	240	6
NMSI_	97	240	6	96	48	2
NMTAP	97	288	0
NMTAP	97	336	6
NMTAP	98	48	7
NMSTR	98	96	7
NMSI_	98	96	7	96	48	4
NMSI_	98	96	7	96	48	5
NMSTR	98	192	7
NMSI_	98	192	7	96	48	1
NMSI_	98	192	7	96	48	2
NMTAP	98	288	7
NMSTR	99	0	7
NMSI_	99	0	7	96	48	3
NMSTR	99	48	1
NMSI_	99	48	1	96	48	5
NMTAP	99	96	7
NMTAP	99	144	1
NMTAP	99	240	0
NMSTR	99	288	0
NMSI_	99	288	0	96	48	2
NMSI_	99	288	0	96	48	3
NMSTR	100	0	0
NMSI_	100	0	0	96	48	5
NMSI_	100	0	0	96	48	6
NMTAP	100	96	0
BRSTR	100	192	2
NMSI_	100	192	2	96	48	4
NMTAP	100	288	2
NMTAP	100	288	4
NMTAP	100	312	5
NMSTR	100	336	6
NMSI_	100	336	6	96	48	3
NMTAP	101	48	3
NMTAP	101	48	6
NMTAP	101	72	2
NMSTR	101	96	1
NMSI_	101	96	1	96	48	4
NMTAP	101	192	1
NMTAP	101	192	5
NMTAP	101	216	6
NMSTR	101	240	7
NMSI_	101	240	7	96	48	3
NMTAP	101	336	2
NMTAP	101	336	7
NMTAP	101	360	1
NMSTR	102	0	0
NMSI_	102	0	0	96	48	4
NMSTR	102	96	0
NMSF_	102	96	0	96	48	4
NMTAP	102	192	0
BRTAP	102	288	2
NMTAP	102	312	3
NMTAP	102	336	1
NMTAP	102	360	4
NMTAP	103	0	0
NMTAP	103	24	5
NMTAP	103	48	7
NMTAP	103	72	6
NMTAP	103	96	0
NMTAP	103	120	5
NMTAP	103	144	1
NMTAP	103	168	4
NMSTR	103	192	2
NMSCL	103	192	2	96	288	3
NMTAP	105	0	3
NMTAP	105	32	4
NMTAP	105	64	3
NMTAP	105	96	2
NMTAP	105	96	5
NMHLD	105	192	1	192
NMTAP	105	256	2
NMTAP	105	320	2
NMHLD	106	0	3	192
NMTAP	106	64	4
NMTAP	106	128	4
NMHLD	106	192	5	192
NMTAP	106	256	6
NMTAP	106	320	6
NMHLD	107	0	7	192
NMTAP	107	64	0
NMTAP	107	128	0
NMHLD	107	192	6	192
NMTAP	107	256	5
NMTAP	107	320	5
NMHLD	108	0	4	192
NMTAP	108	64	3
NMTAP	108	128	3
NMHLD	108	192	2	192
NMTAP	108	256	1
NMTAP	108	320	1
NMHLD	109	0	0	192
NMTAP	109	64	1
NMTAP	109	128	2
NMSTR	109	192	3
NMSCL	109	192	3	96	48	0
NMTAP	109	256	4
NMTAP	109	320	5
NMSTR	110	0	6
NMSCL	110	0	6	96	48	3
NMTAP	110	64	7
NMTAP	110	128	0
NMSTR	110	192	1
NMSCL	110	192	1	96	48	6
NMTAP	110	256	2
NMTAP	110	320	3
NMSTR	111	0	4
NMSCL	111	0	4	96	48	1
NMTAP	111	64	5
NMTAP	111	128	6
NMSTR	111	192	7
NMSCL	111	192	7	96	240	2
NMTTP	111	288	5	A	0	M1
NMSTR	112	0	3
NMSCL	112	0	3	96	240	6
NMTTP	112	96	1	A	0	M1
NMSTR	112	192	7
NMSCL	112	192	7	96	240	2
NMTTP	112	288	5	A	0	M1
NMTAP	113	0	3
NMTTP	113	96	1	A	0	M1
NMHLD	113	192	0	96
NMTAP	113	288	7
BRHLD	114	0	1	576
BRTAP	114	0	6
NMTAP	114	288	3
NMTAP	115	0	3
NMHLD	115	192	5	576
NMTAP	116	48	4
NMTAP	116	96	4
NMTAP	116	192	3
NMTAP	116	288	2
NMHLD	117	0	2	576
NMTAP	117	240	3
NMTAP	117	288	3
NMTAP	118	0	4
NMTAP	118	96	5
NMSTR	118	192	5
NMSUL	118	192	5	96	288	3
NMTAP	119	96	2
NMTAP	119	192	1
NMTAP	119	288	0
BRHLD	120	0	4	576
NMTAP	120	144	0
NMTAP	120	240	7
NMTAP	120	288	7
NMTAP	121	0	6
NMTAP	121	96	5
BRHLD	121	192	3	480
NMTAP	121	336	1
NMTAP	122	48	2
NMTAP	122	96	2
NMTAP	122	192	4
NMTAP	122	288	4
NMTAP	123	0	1
NMTAP	123	0	5
NMTAP	123	96	2
NMTAP	123	144	2
NMTAP	123	192	3
NMTAP	123	240	3
NMTAP	123	288	4
NMTAP	123	336	4
NMTAP	124	0	5
NMTAP	124	48	5
NMTAP	124	96	3
NMTAP	124	96	4
NMTAP	124	192	3
NMTAP	124	224	4
NMTAP	124	256	2
NMTAP	124	288	4
NMTAP	124	320	3
NMTAP	124	352	5
NMTAP	125	0	3
NMTAP	125	32	4
NMTAP	125	64	3
NMTAP	125	96	5
NMTAP	125	128	3
NMTAP	125	160	4
NMTAP	125	192	2
NMTAP	125	224	4
NMTAP	125	256	3
NMTAP	125	288	5
NMTAP	125	320	3
NMTAP	125	352	4
BRTAP	126	0	0
NMSTR	126	192	7
NMSI_	126	192	7	96	48	2
NMTAP	126	240	1
NMSTR	126	288	7
NMSCL	126	288	7	96	48	4
NMTAP	126	336	4
NMTAP	127	0	7
NMTAP	127	48	2
NMTAP	127	96	2
NMTAP	127	120	3
NMTAP	127	144	4
NMTAP	127	168	5
NMSTR	127	192	2
NMSI_	127	192	2	96	48	5
NMSTR	127	192	6
NMSI_	127	192	6	96	48	1
NMTAP	127	216	7
NMTAP	127	240	0
NMTAP	127	264	1
NMTAP	127	288	2
NMTAP	127	288	6
NMSTR	128	0	0
NMSI_	128	0	0	96	48	5
NMTAP	128	48	6
NMSTR	128	96	0
NMSCR	128	96	0	96	48	3
NMTAP	128	144	3
NMTAP	128	192	0
NMTAP	128	240	5
NMTAP	128	288	5
NMTAP	128	312	4
NMTAP	128	336	3
NMTAP	128	360	2
NMSTR	129	0	1
NMSI_	129	0	1	96	48	6
NMSTR	129	0	5
NMSI_	129	0	5	96	48	2
NMTAP	129	24	0
NMTAP	129	48	7
NMTAP	129	72	6
NMTAP	129	96	1
NMTAP	129	96	5
EXTAP	129	192	3
EXTAP	129	192	7
EXTAP	129	240	3
EXSTR	129	240	7
NMSCR	129	240	7	96	48	2
NMTAP	129	336	4
NMSTR	129	336	7
NMSCL	129	336	7	96	48	4
NMTAP	130	48	3
NMTAP	130	48	7
NMTAP	130	96	3
EXTAP	130	120	2
NMTAP	130	144	1
NMTAP	130	168	0
NMTAP	130	192	7
NMTAP	130	216	6
NMTAP	130	240	5
NMTAP	130	264	4
NMTAP	130	288	3
NMTAP	130	288	7
NMTAP	130	312	2
NMTAP	130	312	6
NMTAP	130	336	1
NMTAP	130	336	5
NMTAP	130	360	0
NMTAP	130	360	4
NMTAP	131	0	3
NMTAP	131	0	7
NMSTR	131	48	3
BRSCR	131	48	3	96	48	6
NMSTR	131	48	7
BRSCR	131	48	7	96	48	2
BRTAP	131	144	3
BRTAP	131	144	7
NMTAP	131	288	1
NMTAP	131	320	0
NMTAP	131	352	2
NMTAP	132	0	6
NMTAP	132	32	7
NMTAP	132	64	5
NMTAP	132	96	3
NMTAP	132	96	4
NMSTR	132	192	6
NMSI_	132	192	6	96	48	2
NMSTR	132	240	0
NMSI_	132	240	0	96	48	4
NMTAP	132	288	6
NMTAP	132	336	0
NMTAP	133	48	7
NMSTR	133	96	7
NMSI_	133	96	7	96	24	1
NMSI_	133	96	7	96	48	2
NMSTR	133	192	7
NMSI_	133	192	7	96	24	5
NMSI_	133	192	7	96	48	4
CNSCR	133	216	1	0	24	2
BRTAP	133	288	7
CNSCL	133	312	5	0	24	4
NMSTR	134	0	1
NMSI_	134	0	1	96	48	5
NMSTR	134	48	7
NMSI_	134	48	7	96	48	3
NMTAP	134	96	1
NMTAP	134	144	7
NMTAP	134	240	0
NMSTR	134	288	0
NMSI_	134	288	0	96	24	6
NMSI_	134	288	0	96	48	5
NMSTR	135	0	0
NMSI_	135	0	0	96	24	2
NMSI_	135	0	0	96	48	3
CNSCL	135	24	6	0	24	5
BRTAP	135	96	0
CNSCR	135	120	2	0	24	3
EXTAP	135	192	1
BXTAP	135	192	5
NMTAP	135	288	4
BRTAP	135	288	6
NMTAP	135	336	2
NMTAP	135	360	3
BRTAP	136	0	2
NMTAP	136	48	5
NMTAP	136	72	4
BRTAP	136	96	5
NMTAP	136	144	1
NMTAP	136	168	3
BRTAP	136	192	1
NMTAP	136	240	6
NMTAP	136	264	4
BRTAP	136	288	6
NMTAP	136	336	1
NMTAP	136	360	3
BRTAP	137	0	2
NMTAP	137	48	6
NMTAP	137	72	4
BRTAP	137	96	5
NMTAP	137	144	2
NMTAP	137	168	3
BRTAP	137	192	1
NMTAP	137	240	0
NMTAP	137	240	7
NMTAP	137	264	0
NMTAP	137	264	7
NMSTR	137	288	1
BRSI_	137	288	1	96	48	4
NMSTR	137	288	6
BRSI_	137	288	6	96	48	3
BRTAP	138	0	1
BRTAP	138	0	6
NMTAP	138	96	0
NMTAP	138	96	7
BRTAP	138	192	1
NMTAP	138	216	3
NMTAP	138	240	2
NMTAP	138	264	3
NMTAP	138	288	2
NMTAP	138	312	3
BRTAP	138	336	0
NMTAP	138	360	4
NMTAP	139	0	3
NMTAP	139	24	4
NMTAP	139	48	3
NMTAP	139	72	4
BRTAP	139	96	7
NMTAP	139	120	5
NMTAP	139	144	4
NMTAP	139	168	5
NMTAP	139	192	4
NMTAP	139	216	5
BRTAP	139	240	0
NMSTR	140	0	1
NMSI_	140	0	1	96	48	5
NMTAP	140	48	7
NMSTR	140	96	1
NMSI_	140	96	1	96	48	3
BRSTR	140	144	3
NMSI_	140	144	3	96	48	7
NMTAP	140	192	1
NMTAP	140	240	7
NMTAP	140	288	6
NMTAP	140	336	5
NMTAP	141	0	0
BRSTR	141	48	5
NMSV_	141	48	5	96	48	2
NMSTR	141	96	2
NMSCR	141	96	2	96	48	5
NMSTR	141	144	5
NMSLR	141	144	5	96	48	1
BRTAP	141	192	0
NMTAP	141	240	1
BRTAP	141	288	2
NMTAP	141	336	3
NMSTR	142	0	4
BRSI_	142	0	4	96	48	2
NMTAP	142	48	1
NMSTR	142	96	4
NMSI_	142	96	4	96	48	0
BRSTR	142	144	0
NMSI_	142	144	0	96	48	2
NMTAP	142	192	4
NMTAP	142	240	7
NMTAP	142	288	6
NMTAP	142	336	5
NMTAP	143	0	3
BRSTR	143	48	4
NMSV_	143	48	4	96	48	7
NMSTR	143	96	7
NMSCL	143	96	7	96	72	3
NMTAP	143	144	4
BRTAP	143	192	1
NMTAP	143	240	0
BXHLD	143	288	6	456
BRHLD	143	336	2	408
BRHLD	145	0	3	0
BRHLD	145	0	7	0
NMHLD	145	12	0	0
NMHLD	145	12	4	0
NMSTR	145	24	1
NMSUL	145	24	1	96	456	3
NMSTR	145	24	5
BRSUL	145	24	5	96	456	7
NMHLD	145	36	2	0
NMHLD	145	36	6	0
NMHLD	145	48	3	0
NMHLD	145	48	7	0
NMHLD	145	60	0	0
NMHLD	145	60	4	0
NMHLD	145	72	1	0
NMHLD	145	72	5	0
CNSCR	146	192	3	0	336	6
CNSCR	146	192	7	0	336	2
NMTAP	147	240	2
NMTAP	147	264	2
NMTAP	147	288	3
NMTAP	147	312	3
NMTAP	147	336	4
NMTAP	147	360	4
BRTAP	148	0	5

T_REC_TAP	704
T_REC_BRK	36
T_REC_XTP	6
T_REC_BXX	3
T_REC_HLD	48
T_REC_XHO	1
T_REC_BHO	16
T_REC_BXH	1
T_REC_STR	115
T_REC_BST	9
T_REC_XST	1
T_REC_XBS	0
T_REC_TTP	29
T_REC_THO	0
T_REC_SLD	123
T_REC_BSL	11
T_REC_ALL	1103
T_NUM_TAP	855
T_NUM_BRK	76
T_NUM_HLD	49
T_NUM_SLD	123
T_NUM_ALL	1103
T_JUDGE_TAP	903
T_JUDGE_HLD	248
T_JUDGE_SLD	134
T_JUDGE_ALL	1285
TTM_EACHPAIRS	127
TTM_SCR_TAP	427500
TTM_SCR_BRK	197600
TTM_SCR_HLD	49000
TTM_SCR_SLD	184500
TTM_SCR_ALL	858600
TTM_SCR_S	825500
TTM_SCR_SS	851000
TTM_RAT_ACV	10089

