VERSION	0.00.00	1.04.00
FES_MODE	0
BPM_DEF	230.000	230.000	230.000	230.000
MET_DEF	4	4
RESOLUTION	384
CLK_DEF	384
COMPATIBLE_CODE	MA2

BPM	0	0	230.000
MET	0	0	4	4
MET	1	0	4	4
MET	73	0	4	4
MET	74	0	4	3
MET	74	288	4	4
MET	75	288	4	3
MET	76	192	4	4
MET	77	192	4	3
MET	79	288	4	4
MET	80	288	4	3
MET	83	0	4	4
MET	84	0	4	3
MET	84	288	4	4
MET	85	288	4	3
MET	91	0	4	2
MET	91	192	4	3
MET	103	192	4	4
MET	105	192	4	3
MET	111	192	4	4
MET	113	192	4	2
MET	114	0	4	3
MET	126	0	4	2
MET	126	192	4	3
MET	141	192	4	2
MET	142	0	4	3
MET	143	192	4	2
MET	144	0	4	4

NMSTR	3	0	2
NMSCL	3	0	2	96	672	3
NMHLD	3	0	4	6144
CNSXL	5	0	3	0	576	0
NMSTR	7	0	0
NMSI_	7	0	0	96	144	6
CNSI_	7	240	6	0	144	1
CNSI_	8	0	1	0	144	5
CNSI_	8	144	5	0	144	2
CNSI_	8	288	2	0	144	4
CNSXR	9	48	4	0	528	7
NMSTR	11	0	7
NMSCL	11	0	7	96	144	5
CNSI_	11	240	5	0	144	0
CNSCR	12	0	0	0	96	3
CNSI_	12	96	3	0	144	6
CNSI_	12	240	6	0	144	4
CNSXR	13	0	4	0	576	1
NMSTR	15	0	1
NMSSR	15	0	1	96	288	5
CNSI_	16	0	5	0	192	7
CNSSR	16	192	7	0	384	3
CNSXR	17	192	3	0	384	0
NMTAP	19	0	0
NMTAP	19	192	1
NMTAP	19	192	3
NMTAP	20	0	3
NMTAP	20	0	5
NMTAP	20	96	3
NMHLD	20	96	5	192
NMTAP	20	288	4
NMTAP	21	96	6
NMTAP	21	96	7
NMTAP	21	288	0
NMTAP	21	288	1
NMTAP	22	0	2
NMTAP	22	96	3
NMTAP	22	96	4
NMTAP	22	192	2
NMHLD	22	192	5	192
NMTAP	23	0	4
NMTAP	23	192	0
NMTAP	23	192	7
NMTAP	24	0	2
NMTAP	24	0	4
NMHLD	24	96	2	192
NMTAP	24	96	4
NMTAP	24	288	3
NMTAP	25	96	0
NMTAP	25	96	1
NMTAP	25	288	6
NMTAP	25	288	7
NMTAP	26	0	5
NMTAP	26	96	3
NMTAP	26	96	4
NMTAP	26	192	2
NMTAP	26	192	5
NMTAP	27	0	5
NMTAP	27	48	4
NMTAP	27	96	3
NMTAP	27	144	2
NMTAP	27	192	4
NMTAP	27	288	4
NMTAP	28	0	5
NMTAP	28	48	4
NMTAP	28	96	3
NMTAP	28	144	2
NMHLD	28	192	2	96
NMTAP	28	288	4
NMTAP	29	0	5
NMTAP	29	48	4
NMTAP	29	96	3
NMTAP	29	144	2
NMTAP	29	192	4
NMTAP	29	288	4
NMTAP	30	0	5
NMTAP	30	48	4
NMTAP	30	96	3
NMTAP	30	144	2
NMHLD	30	192	2	96
NMTAP	30	288	4
NMHLD	31	0	1	96
NMHLD	31	0	3	96
NMTAP	31	144	1
NMTAP	31	144	3
NMTAP	31	240	3
NMTAP	31	240	4
NMTAP	31	336	4
NMTAP	31	336	6
NMTAP	32	48	7
NMHLD	32	96	7	96
NMTAP	32	192	4
NMHLD	33	0	4	96
NMHLD	33	0	6	96
NMTAP	33	144	4
NMTAP	33	144	6
NMTAP	33	240	3
NMTAP	33	240	4
NMTAP	33	336	1
NMTAP	33	336	3
NMTAP	34	48	0
NMHLD	34	96	0	96
NMTAP	34	192	3
NMTAP	35	0	2
NMTAP	35	0	4
NMTAP	35	96	5
NMTAP	35	192	7
NMTAP	35	288	1
NMTAP	35	336	1
NMTAP	36	0	2
NMTAP	36	0	3
NMTAP	36	96	0
NMTAP	36	192	6
NMTAP	36	288	4
NMTAP	36	336	4
NMTAP	37	0	3
NMTAP	37	0	5
NMTAP	37	96	2
NMTAP	37	192	0
NMTAP	37	288	6
NMTAP	37	336	6
NMTAP	38	0	4
NMTAP	38	0	5
NMTAP	38	96	7
NMTAP	38	192	1
NMTAP	38	288	3
NMTAP	38	336	3
NMHLD	39	0	2	96
NMHLD	39	0	4	96
NMHLD	39	192	3	96
NMHLD	39	192	5	96
NMTAP	40	0	6
NMTAP	40	96	6
NMTAP	40	192	6
NMTAP	40	192	7
NMTAP	40	288	6
NMTAP	40	288	7
NMTAP	41	0	1
NMTAP	41	96	1
NMTAP	41	192	0
NMTAP	41	192	1
NMTAP	41	288	0
NMSTR	41	288	1
NMSI_	41	288	1	96	96	6
CNSI_	42	96	6	0	96	3
CNSI_	42	192	3	0	96	0
NMTAP	43	0	7
NMTAP	43	48	0
NMTAP	43	96	1
NMTAP	43	192	3
NMTAP	43	192	5
NMTAP	43	288	2
NMTAP	43	288	6
NMTAP	44	0	0
NMTAP	44	48	7
NMTAP	44	96	6
NMTAP	44	192	2
NMTAP	44	192	4
NMTAP	44	288	1
NMTAP	44	288	5
NMTAP	45	0	6
NMTAP	45	48	5
NMTAP	45	96	4
NMTAP	45	192	1
NMTAP	45	240	2
NMSTR	45	288	3
NMSI_	45	288	3	96	96	7
CNSI_	46	96	7	0	96	5
CNSI_	46	192	5	0	96	1
NMHLD	47	0	0	576
NMTAP	48	288	1
NMTAP	48	288	7
NMHLD	49	0	6	96
NMHLD	49	96	4	96
NMSTR	49	192	3
NMSCL	49	192	3	96	192	7
NMTAP	50	192	4
NMTAP	50	192	5
NMTAP	50	288	2
NMTAP	50	288	3
NMHLD	51	0	1	96
NMHLD	51	96	3	96
NMSTR	51	192	4
NMSCR	51	192	4	96	192	0
NMTAP	52	192	2
NMTAP	52	192	3
NMTAP	52	288	4
NMTAP	52	288	5
NMHLD	53	0	5	96
NMHLD	53	0	7	96
NMHLD	53	144	0	96
NMHLD	53	144	7	96
NMTAP	53	288	0
NMTAP	53	288	2
NMHLD	54	0	0	96
NMHLD	54	0	2	96
NMHLD	54	144	0	96
NMHLD	54	144	7	96
NMSTR	54	288	5
NMSXR	54	288	5	96	288	1
NMTAP	54	288	7
EXTAP	56	0	0
NMTAP	56	96	1
NMTAP	56	96	7
NMTAP	56	144	1
NMTAP	56	144	7
NMSTR	56	240	4
NMSI_	56	240	4	96	96	0
NMSTR	56	240	6
NMSI_	56	240	6	96	96	2
NMTAP	57	240	1
NMHLD	57	288	1	96
NMHLD	58	0	3	96
NMTAP	58	96	4
NMHLD	58	144	4	96
NMTAP	58	240	6
NMHLD	58	288	6	96
NMTAP	59	0	0
NMTAP	59	96	1
NMTAP	59	96	3
NMTAP	59	144	1
NMTAP	59	144	3
NMTAP	59	240	3
NMTAP	59	240	4
NMTAP	59	336	4
NMTAP	59	336	6
NMTAP	60	48	7
NMHLD	60	96	7	96
NMTAP	60	192	4
NMTAP	60	288	3
NMTAP	60	288	5
NMTAP	61	0	2
NMSTR	61	96	1
NMSCR	61	96	1	96	96	4
NMTAP	61	288	5
NMTAP	62	0	6
NMSTR	62	96	7
NMSCL	62	96	7	96	96	4
NMTAP	62	288	3
NMTAP	63	0	2
NMTAP	63	48	2
NMTAP	63	96	5
NMTAP	63	144	5
NMTAP	63	192	3
NMTAP	63	216	4
NMTAP	63	240	3
NMTAP	63	264	4
NMTAP	63	288	3
NMHLD	64	0	1	96
NMTAP	64	96	0
NMTAP	64	144	0
NMTAP	64	240	2
NMTAP	64	240	7
BRTAP	64	336	0
BRTAP	64	336	5
NMTAP	65	48	6
NMHLD	65	96	6	96
NMTAP	65	192	4
NMTAP	65	240	4
NMTAP	65	288	5
NMTAP	65	336	5
NMTAP	66	0	0
NMTAP	66	96	1
NMTAP	66	96	3
NMTAP	66	144	1
NMTAP	66	144	3
NMSTR	66	240	0
NMSCR	66	240	0	96	96	3
NMSTR	66	240	4
NMSCR	66	240	4	96	96	7
NMTAP	67	240	7
NMHLD	67	288	7	96
NMTAP	68	0	5
NMTAP	68	96	4
NMTAP	68	96	6
NMTAP	68	144	4
NMTAP	68	144	6
NMSTR	68	240	3
NMSCL	68	240	3	96	96	0
NMSTR	68	240	7
NMSCL	68	240	7	96	96	4
NMTAP	69	240	0
NMHLD	69	288	0	96
NMTAP	70	0	3
NMTAP	70	96	5
NMTAP	70	192	6
NMTAP	70	288	0
NMTAP	70	288	7
NMTAP	71	0	1
NMTAP	71	0	2
NMTAP	71	96	4
NMTAP	71	96	5
NMTAP	71	192	1
NMTAP	71	192	3
NMTAP	71	288	4
NMTAP	71	288	6
NMTAP	72	0	2
NMTAP	72	0	3
NMTAP	72	96	5
NMTAP	72	96	6
NMTAP	72	192	0
NMTAP	72	192	1
NMTAP	72	288	2
NMSTR	72	288	4
NMSCR	72	288	4	96	384	3
NMTTP	73	0	0	C	1	M1
NMHLD	74	288	1	432
NMHLD	74	288	3	192
NMTAP	75	240	3
NMTAP	75	336	4
NMTAP	76	48	3
NMTAP	76	48	5
NMTAP	76	96	3
NMTAP	76	96	5
NMHLD	76	192	4	192
NMHLD	76	192	6	576
NMHLD	77	192	3	192
NMHLD	78	96	4	96
NMHLD	78	96	5	96
NMTAP	78	288	5
NMTAP	78	336	4
NMTAP	79	0	3
NMTAP	79	48	2
NMTAP	79	96	5
NMTAP	79	144	4
NMTAP	79	192	3
NMTAP	79	240	2
NMSTR	79	288	5
NMSI_	79	288	5	96	96	0
NMHLD	80	96	1	192
NMSTR	80	288	0
NMSI_	80	288	0	96	96	3
NMHLD	81	192	2	96
NMHLD	81	192	4	96
NMTAP	82	0	0
NMTAP	82	0	6
NMTAP	82	64	0
NMTAP	82	64	6
NMTAP	82	128	0
NMTAP	82	128	6
NMTAP	82	192	1
NMTAP	82	192	5
NMTAP	82	256	1
NMTAP	82	256	5
NMTAP	82	320	1
NMTAP	82	320	5
NMSTR	83	0	2
NMSI_	83	0	2	96	96	7
NMHLD	83	192	6	384
NMHLD	84	0	7	192
NMTAP	84	288	4
NMTAP	84	288	5
NMTAP	85	0	2
NMTAP	85	0	3
NMTAP	85	96	0
NMTAP	85	96	1
NMTAP	85	192	6
NMTAP	85	192	7
NMHLD	85	288	5	96
NMHLD	86	0	7	96
NMHLD	86	96	1	96
NMHLD	86	192	3	96
NMHLD	86	288	1	96
NMHLD	87	0	7	96
NMHLD	87	96	5	96
NMHLD	87	192	7	96
NMHLD	87	288	1	96
NMTAP	88	0	3
NMTAP	88	48	3
NMTAP	88	96	1
NMTAP	88	144	1
NMTAP	88	192	7
NMTAP	88	240	7
NMTAP	88	288	5
NMTAP	88	336	5
NMTAP	89	0	7
NMTAP	89	48	7
NMSTR	89	96	1
NMSCL	89	96	1	96	288	2
NMTAP	89	144	1
BRTAP	91	0	0
BRTAP	91	0	7
NMTAP	91	192	2
NMHLD	91	240	2	96
NMTAP	91	336	3
NMTAP	92	48	0
NMTAP	92	48	1
NMTAP	92	96	0
NMTAP	92	96	1
NMTAP	92	192	3
NMTAP	92	192	4
NMTAP	92	288	6
NMTAP	92	288	7
NMTAP	93	0	5
NMHLD	93	48	5	96
NMTAP	93	144	4
NMTAP	93	240	6
NMTAP	93	240	7
NMTAP	93	288	6
NMTAP	93	288	7
NMTAP	94	0	3
NMTAP	94	0	4
NMTAP	94	96	0
NMTAP	94	96	1
NMTAP	94	192	2
NMHLD	94	240	2	96
NMTAP	94	336	3
NMTAP	95	48	0
NMTAP	95	48	1
NMTAP	95	96	0
NMTAP	95	96	1
NMTAP	95	192	2
NMTAP	95	192	3
NMSTR	95	288	4
NMSCL	95	288	4	96	144	1
NMSTR	95	288	5
NMSCR	95	288	5	96	144	0
EXTAP	96	288	0
EXTAP	96	288	1
EXTAP	97	0	2
EXTAP	97	0	7
EXTAP	97	96	3
EXTAP	97	96	6
NMTAP	97	192	5
NMHLD	97	240	5	96
NMTAP	97	336	4
NMTAP	98	48	6
NMTAP	98	48	7
NMTAP	98	96	6
NMTAP	98	96	7
NMTAP	98	192	3
NMTAP	98	192	4
NMTAP	98	288	0
NMTAP	98	288	1
NMTAP	99	0	2
NMHLD	99	48	2	96
NMTAP	99	144	3
NMTAP	99	240	0
NMTAP	99	240	1
NMTAP	99	288	0
NMTAP	99	288	1
NMTAP	100	0	3
NMTAP	100	0	4
NMTAP	100	96	6
NMTAP	100	96	7
NMHLD	100	192	6	96
NMHLD	100	192	7	96
NMTTP	100	336	0	B	0	M1
NMTTP	100	336	0	E	0	M1
NMTTP	100	336	0	D	0	M1
NMTTP	100	336	5	B	0	M1
NMTTP	100	336	6	E	0	M1
NMTTP	100	336	6	D	0	M1
NMHLD	101	96	0	96
NMHLD	101	96	1	96
NMTTP	101	240	0	E	0	M1
NMTTP	101	240	0	D	0	M1
NMTTP	101	240	2	B	0	M1
NMTTP	101	240	2	E	0	M1
NMTTP	101	240	2	D	0	M1
NMTTP	101	240	7	B	0	M1
NMSTR	102	0	6
NMSI_	102	0	6	96	48	2
NMSTR	102	144	1
NMSI_	102	144	1	96	48	5
NMSTR	102	288	7
NMSI_	102	288	7	96	48	3
NMSTR	103	48	0
NMSI_	103	48	0	96	48	4
NMSTR	103	192	6
NMSCL	103	192	6	96	288	7
NMTAP	105	192	5
NMTAP	105	288	5
NMTAP	106	0	4
NMTAP	106	0	5
NMTAP	106	96	4
NMTAP	106	96	5
NMTAP	106	192	2
NMTAP	106	288	2
NMTAP	107	0	2
NMTAP	107	0	3
NMTAP	107	96	2
NMTAP	107	96	3
NMTAP	107	192	5
NMTAP	107	288	5
NMTAP	108	0	4
NMTAP	108	0	6
NMTAP	108	96	4
NMTAP	108	96	6
NMTAP	108	192	2
NMTAP	108	288	2
NMTAP	109	0	1
NMTAP	109	0	3
NMTAP	109	96	1
NMTAP	109	96	3
NMTAP	109	192	4
NMTAP	109	192	5
NMTAP	109	288	4
NMTAP	109	288	5
NMTAP	110	0	6
NMTAP	110	0	7
NMTAP	110	96	6
NMTAP	110	96	7
NMTAP	110	192	0
NMTAP	110	192	1
NMTAP	110	288	0
NMTAP	110	288	1
NMTAP	111	0	2
NMTAP	111	0	3
NMTAP	111	96	2
NMTAP	111	96	3
NMHLD	111	192	1	192
NMHLD	112	0	3	192
NMHLD	112	192	5	192
NMHLD	113	0	7	192
BRTAP	113	192	1
NMSTR	114	0	2
NMSI_	114	0	2	96	384	5
NMTTP	115	0	7	E	0	M1
NMSTR	115	192	6
NMSI_	115	192	6	96	384	1
NMTTP	116	192	3	E	0	M1
NMSTR	117	0	2
NMSI_	117	0	2	96	384	5
NMTTP	118	0	7	E	0	M1
NMSTR	118	192	6
NMSI_	118	192	6	96	384	1
NMTTP	119	192	3	B	0	M1
NMTTP	119	192	3	E	0	M1
NMSTR	120	0	2
NMSI_	120	0	2	96	384	7
NMTTP	120	288	4	E	0	M1
NMTTP	121	0	5	E	0	M1
NMSTR	121	192	5
NMSI_	121	192	5	96	384	0
NMTTP	122	96	4	E	0	M1
NMTTP	122	192	3	E	0	M1
NMHLD	123	0	1	144
NMTAP	123	144	3
NMHLD	123	288	6	144
NMTAP	124	48	4
NMHLD	124	192	1	144
NMHLD	124	336	3	144
NMHLD	125	96	4	144
NMHLD	125	240	6	144
NMTTP	126	0	0	B	0	M1
NMTTP	126	0	0	E	0	M1
NMTTP	126	0	0	A	1	M1
NMTAP	126	192	6
NMTAP	126	192	7
NMTAP	126	240	6
NMTAP	126	240	7
NMTAP	126	336	4
NMTAP	126	336	5
NMSTR	127	0	4
NMSI_	127	0	4	96	96	0
NMSTR	127	0	5
NMSLR	127	0	5	96	192	3
CNSI_	127	192	0	0	96	2
NMTAP	128	0	2
NMTAP	128	0	3
NMTAP	128	48	2
NMTAP	128	48	3
NMTAP	128	144	0
NMTAP	128	144	1
NMSTR	128	192	0
NMSI_	128	192	0	96	96	4
NMSTR	128	192	1
NMSLR	128	192	1	96	192	7
CNSI_	129	0	4	0	96	6
NMTAP	129	192	6
NMTAP	129	192	7
NMTAP	129	240	6
NMTAP	129	240	7
NMTAP	129	336	4
NMTAP	129	336	5
NMTAP	130	0	4
NMTAP	130	0	5
NMTAP	130	96	2
NMTAP	130	96	3
NMTAP	130	192	0
NMTAP	130	192	1
NMSTR	130	288	6
NMSUR	130	288	6	96	192	5
NMSTR	130	288	7
NMSCR	130	288	7	96	192	4
NMHLD	131	288	6	96
NMHLD	132	0	4	96
NMHLD	132	96	3	96
NMTAP	132	192	1
NMHLD	132	240	1	96
NMTAP	132	336	0
NMTAP	133	48	1
NMTAP	133	48	3
NMTAP	133	96	1
NMTAP	133	96	3
NMTAP	133	192	0
NMTAP	133	192	6
NMTAP	133	288	3
NMTAP	133	288	5
NMTAP	134	0	6
NMHLD	134	48	6	96
NMTAP	134	144	7
NMTAP	134	240	4
NMTAP	134	240	6
NMTAP	134	288	4
NMTAP	134	288	6
NMTAP	135	0	1
NMTAP	135	0	7
NMTAP	135	96	2
NMTAP	135	96	4
NMTAP	135	192	2
NMTAP	135	216	3
NMTAP	135	240	2
NMTAP	135	264	3
NMTAP	135	288	2
NMTAP	135	312	3
NMTAP	135	336	2
NMTAP	135	360	3
NMTAP	136	0	2
NMTAP	136	96	5
NMTAP	136	120	4
NMTAP	136	144	5
NMTAP	136	168	4
NMTAP	136	192	5
NMTAP	136	216	4
NMTAP	136	240	5
NMTAP	136	264	4
NMTAP	136	288	5
NMTAP	137	0	1
NMTAP	137	24	3
NMTAP	137	48	1
NMTAP	137	72	3
NMTAP	137	96	1
NMTAP	137	120	3
NMTAP	137	144	1
NMTAP	137	168	3
BRTAP	137	192	0
NMTAP	137	288	6
NMTAP	137	312	4
NMTAP	137	336	6
NMTAP	137	360	4
NMTAP	138	0	6
NMTAP	138	24	4
NMTAP	138	48	6
NMTAP	138	72	4
BRTAP	138	96	7
NMHLD	138	192	2	144
NMHLD	138	336	0	144
NMTAP	139	96	7
NMTAP	139	240	2
NMTAP	139	240	5
NMTAP	140	0	1
NMTAP	140	48	3
NMTAP	140	96	2
NMTAP	140	144	6
NMTAP	140	192	4
NMTAP	140	240	5
NMTAP	140	288	1
NMTAP	140	336	3
NMTAP	141	0	2
NMTAP	141	48	6
NMTAP	141	96	4
NMTAP	141	144	5
NMTAP	141	192	1
NMTAP	141	240	3
NMTAP	141	288	0
NMTAP	141	336	0
NMTAP	142	0	6
NMTAP	142	48	4
NMTAP	142	96	5
NMTAP	142	144	1
NMTAP	142	192	3
NMTAP	142	240	2
NMTAP	142	288	6
NMTAP	142	336	4
NMTAP	143	0	5
NMTAP	143	48	1
NMTAP	143	96	3
NMTAP	143	144	2
NMTAP	143	192	6
NMTAP	143	240	4
NMTAP	143	288	7
NMHLD	143	336	7	432
BRTAP	145	0	0
NMTAP	145	24	1
NMTAP	145	48	2
NMTAP	145	72	3
NMTAP	145	96	4
NMTAP	145	120	5
NMTAP	145	144	6
NMTAP	145	168	7
NMTAP	145	192	0
NMTAP	145	216	1
NMTAP	145	240	2
NMTAP	145	264	3
NMTAP	145	288	4
NMTAP	145	312	5
NMTAP	145	336	6
NMTAP	145	360	7
NMTAP	146	0	0
NMTAP	146	24	1
NMTAP	146	48	2
NMTAP	146	72	3
NMTAP	146	96	4
NMTAP	146	120	5
NMTAP	146	144	6
NMTAP	146	168	7
NMTAP	146	192	0
NMTAP	146	216	1
NMTAP	146	240	2
NMTAP	146	264	3
NMTAP	146	288	4
NMTAP	146	312	5
NMTAP	146	336	6
NMTAP	146	360	7
NMTAP	147	0	0
NMTAP	147	24	1
NMTAP	147	48	2
NMTAP	147	72	3
NMTAP	147	96	4
NMTAP	147	120	5
NMTAP	147	144	6
NMTAP	147	168	7
NMTAP	147	192	0
NMTAP	147	216	1
NMTAP	147	240	2
NMTAP	147	264	3
NMTAP	147	288	4
NMTAP	147	312	5
NMTAP	147	336	6
NMTAP	147	360	7
BRTAP	148	0	0

T_REC_TAP	504
T_REC_BRK	9
T_REC_XTP	7
T_REC_BXX	0
T_REC_HLD	86
T_REC_XHO	0
T_REC_BHO	0
T_REC_BXH	0
T_REC_STR	41
T_REC_BST	0
T_REC_XST	0
T_REC_XBS	0
T_REC_TTP	25
T_REC_THO	0
T_REC_SLD	41
T_REC_BSL	0
T_REC_ALL	713
T_NUM_TAP	577
T_NUM_BRK	9
T_NUM_HLD	86
T_NUM_SLD	41
T_NUM_ALL	713
T_JUDGE_TAP	586
T_JUDGE_HLD	370
T_JUDGE_SLD	41
T_JUDGE_ALL	997
TTM_EACHPAIRS	155
TTM_SCR_TAP	288500
TTM_SCR_BRK	23400
TTM_SCR_HLD	86000
TTM_SCR_SLD	61500
TTM_SCR_ALL	459400
TTM_SCR_S	444750
TTM_SCR_SS	458500
TTM_RAT_ACV	10019

