VERSION	0.00.00	1.04.00
FES_MODE	0
BPM_DEF	230.000	230.000	230.000	230.000
MET_DEF	4	4
RESOLUTION	384
CLK_DEF	384
COMPATIBLE_CODE	MA2

BPM	0	0	230.000
MET	0	0	4	4
MET	1	0	4	4
MET	73	0	4	4
MET	74	0	4	3
MET	74	288	4	4
MET	75	288	4	3
MET	76	192	4	4
MET	77	192	4	3
MET	79	288	4	4
MET	80	288	4	3
MET	83	0	4	4
MET	84	0	4	3
MET	84	288	4	4
MET	85	288	4	3
MET	91	0	4	2
MET	91	192	4	3
MET	103	192	4	4
MET	105	192	4	3
MET	111	192	4	4
MET	113	192	4	2
MET	114	0	4	3
MET	126	0	4	2
MET	126	192	4	3
MET	141	192	4	2
MET	142	0	4	3
MET	143	192	4	2
MET	144	0	4	4

NMHLD	3	0	2	384
NMHLD	4	0	3	384
NMHLD	5	0	4	384
NMTAP	6	0	5
NMHLD	7	0	5	384
NMHLD	8	0	4	384
NMHLD	9	0	3	384
NMTAP	10	0	2
NMHLD	11	0	1	384
NMHLD	12	0	2	384
NMHLD	13	0	3	384
NMTAP	14	0	4
NMHLD	15	0	6	384
NMHLD	16	0	5	384
NMHLD	17	0	4	384
NMTAP	18	0	3
NMTAP	19	0	2
NMTAP	19	192	2
NMTAP	20	0	3
NMTAP	20	192	3
NMTAP	21	0	4
NMTAP	21	192	4
NMTAP	22	0	3
NMTAP	22	0	5
NMTAP	23	0	5
NMTAP	23	192	5
NMTAP	24	0	4
NMTAP	24	192	4
NMTAP	25	0	3
NMTAP	25	192	3
NMTAP	26	0	2
NMTAP	26	0	4
NMTAP	27	0	3
NMTAP	27	96	3
NMTAP	27	192	2
NMTAP	27	288	2
NMTAP	28	0	1
NMTAP	28	96	1
NMTAP	28	192	0
NMTAP	28	192	7
NMTAP	29	0	7
NMTAP	29	96	7
NMTAP	29	192	6
NMTAP	29	288	6
NMTAP	30	0	5
NMTAP	30	96	5
NMTAP	30	192	3
NMTAP	30	192	4
NMSTR	31	0	2
NMSI_	31	0	2	96	288	5
NMTAP	32	192	6
NMSTR	33	0	6
NMSI_	33	0	6	96	288	2
NMTAP	34	192	1
NMSTR	35	0	0
NMSI_	35	0	0	96	288	4
NMTAP	36	192	5
NMSTR	37	0	6
NMSI_	37	0	6	96	288	3
NMTAP	38	192	2
NMTAP	38	192	3
NMTAP	39	0	2
NMTAP	39	96	2
NMTAP	39	192	2
NMTAP	39	192	3
NMTAP	40	0	1
NMTAP	40	96	1
NMTAP	40	192	0
NMTAP	40	192	1
NMTAP	41	0	7
NMTAP	41	96	7
NMTAP	41	192	6
NMTAP	41	192	7
EXTAP	42	0	5
EXTAP	42	96	5
EXTAP	42	192	4
EXTAP	42	192	5
EXTAP	42	288	4
EXTAP	42	288	5
NMTAP	43	0	6
NMTAP	43	96	6
NMTAP	43	192	6
NMTAP	43	192	7
NMTAP	44	0	1
NMTAP	44	96	1
NMTAP	44	192	0
NMTAP	44	192	1
NMTAP	45	0	2
NMTAP	45	96	2
NMTAP	45	192	2
NMTAP	45	192	3
EXTAP	46	0	4
EXTAP	46	96	4
EXTAP	46	192	3
EXTAP	46	192	4
EXTAP	46	288	3
EXSTR	46	288	4
NMSUL	46	288	4	96	576	3
NMTAP	49	0	2
NMTAP	49	96	2
NMTAP	49	192	1
NMTAP	49	288	1
NMTAP	50	0	0
NMTAP	50	96	0
NMTAP	50	192	6
NMTAP	50	192	7
NMTAP	51	0	5
NMTAP	51	96	5
NMTAP	51	192	6
NMTAP	51	288	6
NMTAP	52	0	7
NMTAP	52	96	7
NMTAP	52	192	0
NMTAP	52	192	1
NMTAP	53	0	1
NMTAP	53	96	1
NMTAP	53	192	2
NMTAP	53	288	2
NMTAP	54	0	3
NMTAP	54	96	3
NMTAP	54	192	4
NMTAP	54	192	5
NMTAP	55	0	6
NMTAP	55	96	6
NMTAP	55	192	5
NMTAP	55	288	5
NMTAP	56	0	4
NMTAP	56	96	4
NMTAP	56	192	2
NMTAP	56	192	3
NMTAP	57	0	2
NMTAP	57	96	2
NMTAP	57	192	0
NMTAP	57	192	1
NMTAP	57	288	0
NMTAP	57	288	1
NMTAP	58	0	7
NMTAP	58	96	7
NMTAP	58	192	6
NMTAP	58	192	7
NMTAP	59	0	5
NMTAP	59	96	5
NMTAP	59	192	6
NMTAP	59	192	7
NMTAP	59	288	6
NMTAP	59	288	7
NMTAP	60	0	0
NMTAP	60	96	0
NMTAP	60	192	0
NMTAP	60	192	1
NMTAP	61	0	1
NMTAP	61	96	1
NMTAP	61	192	2
NMTAP	61	288	2
NMTAP	62	0	3
NMTAP	62	96	3
NMTAP	62	192	4
NMTAP	62	288	4
NMTAP	63	0	5
NMTAP	63	96	5
NMTAP	63	192	4
NMTAP	63	192	5
EXTAP	64	0	3
EXTAP	64	0	4
EXTAP	64	192	2
EXTAP	64	192	3
NMTAP	65	0	2
NMTAP	65	96	2
NMTAP	65	192	0
NMTAP	65	192	1
NMTAP	65	288	0
NMTAP	65	288	1
NMTAP	66	0	7
NMTAP	66	96	6
NMTAP	66	192	4
NMTAP	66	192	5
NMTAP	67	0	5
NMTAP	67	96	5
NMTAP	67	192	6
NMTAP	67	192	7
NMTAP	67	288	6
NMTAP	67	288	7
NMTAP	68	0	0
NMTAP	68	96	1
NMTAP	68	192	2
NMTAP	68	192	3
NMTAP	69	0	1
NMTAP	69	96	1
NMTAP	69	192	2
NMTAP	69	192	3
NMTAP	69	288	2
NMTAP	69	288	3
NMTAP	70	0	4
NMTAP	70	96	5
NMTAP	70	192	6
NMTAP	70	192	7
NMTAP	71	0	6
NMTAP	71	96	6
NMTAP	71	192	4
NMTAP	71	192	5
NMTAP	71	288	4
NMTAP	71	288	5
NMTAP	72	0	3
NMTAP	72	96	2
NMTAP	72	192	0
NMTAP	72	192	1
BRTAP	73	0	0
BRTAP	73	0	7
NMSTR	74	288	1
NMSV_	74	288	1	96	288	4
NMSTR	76	192	6
NMSV_	76	192	6	96	288	3
NMSTR	78	96	1
NMSI_	78	96	1	96	288	4
NMTAP	79	288	5
NMTAP	80	0	5
NMTAP	80	96	4
NMTAP	80	96	5
EXTAP	80	288	5
EXTAP	81	0	5
EXTAP	81	192	4
EXTAP	81	288	4
EXTAP	82	96	3
EXTAP	82	192	3
NMTAP	83	0	2
NMTAP	83	96	2
NMTAP	83	192	2
NMTAP	83	192	3
NMTAP	84	0	0
NMTAP	84	0	1
NMTAP	84	96	0
NMTAP	84	96	1
NMTAP	84	288	7
NMTAP	85	0	7
NMTAP	85	96	6
NMTAP	85	96	7
NMTAP	85	288	0
NMTAP	85	288	7
NMTAP	86	0	0
NMTAP	86	0	7
NMTAP	86	192	1
NMTAP	86	288	1
NMTAP	87	0	1
NMTAP	87	96	2
NMTAP	87	192	2
NMTAP	87	288	2
NMTAP	88	0	3
NMTAP	88	96	3
NMTAP	88	192	3
NMTAP	88	288	4
NMTAP	89	0	4
NMTAP	89	96	4
NMHLD	89	192	3	576
NMHLD	89	192	4	576
NMTAP	91	192	2
NMTAP	91	288	2
NMTAP	92	0	2
NMTAP	92	96	0
NMTAP	92	96	1
NMTAP	92	192	0
NMTAP	92	192	1
NMTAP	92	288	0
NMTAP	92	288	1
NMTAP	93	0	7
NMTAP	93	96	7
NMTAP	93	192	7
NMTAP	93	288	6
NMTAP	93	288	7
NMTAP	94	192	5
NMTAP	94	288	5
NMTAP	95	0	5
NMTAP	95	96	6
NMTAP	95	96	7
NMTAP	95	192	6
NMTAP	95	192	7
NMTAP	95	288	6
NMTAP	95	288	7
NMTAP	96	0	0
NMTAP	96	96	0
NMTAP	96	192	0
NMTAP	96	288	0
NMTAP	96	288	1
NMTAP	97	192	1
NMTAP	97	288	1
NMTAP	98	0	1
NMTAP	98	96	2
NMTAP	98	96	3
NMTAP	98	192	2
NMTAP	98	192	3
NMTAP	98	288	2
NMTAP	98	288	3
NMTAP	99	0	4
NMTAP	99	96	4
NMTAP	99	192	4
NMTAP	99	288	4
NMTAP	99	288	5
NMTAP	100	192	6
NMTAP	100	288	6
NMTAP	101	0	6
NMTAP	101	96	4
NMTAP	101	96	5
NMTAP	101	192	4
NMTAP	101	192	5
NMTAP	101	288	4
NMTAP	101	288	5
NMTAP	102	0	3
NMTAP	102	96	3
NMTAP	102	192	3
NMTAP	102	288	2
NMTAP	102	288	3
NMHLD	103	192	0	384
NMHLD	103	192	1	384
NMHLD	105	192	1	192
NMHLD	106	0	2	192
NMHLD	106	192	3	192
NMHLD	107	0	4	192
NMHLD	107	192	5	192
NMTAP	108	0	6
NMHLD	108	192	6	192
NMHLD	109	0	5	192
NMHLD	109	192	4	192
NMHLD	110	0	3	192
NMHLD	110	192	2	192
NMTAP	111	0	1
NMTAP	111	192	1
NMTAP	112	0	2
NMTAP	112	192	3
NMTAP	113	0	4
NMTAP	113	192	3
NMTAP	113	192	4
EXSTR	114	0	2
NMSI_	114	0	2	96	288	5
EXSTR	115	192	6
NMSI_	115	192	6	96	288	3
NMSTR	117	0	1
NMSI_	117	0	1	96	288	5
NMSTR	118	192	7
NMSI_	118	192	7	96	288	3
NMSTR	120	0	2
NMSCL	120	0	2	96	288	7
NMSTR	121	192	6
NMSCL	121	192	6	96	288	3
EXTAP	123	0	2
EXTAP	123	0	3
EXTAP	123	288	4
EXTAP	123	288	5
EXTAP	124	192	6
EXTAP	124	192	7
EXTAP	125	96	0
EXTAP	125	96	1
BRTAP	126	0	0
BRTAP	126	0	7
NMTAP	126	192	1
NMTAP	126	288	1
NMTAP	127	0	0
NMTAP	127	0	1
NMTAP	127	96	2
NMTAP	127	192	2
NMTAP	127	288	2
NMTAP	127	288	3
NMTAP	128	0	2
NMTAP	128	0	3
NMTAP	128	96	1
NMTAP	128	96	4
NMTAP	128	192	0
NMTAP	128	192	5
NMTAP	128	288	6
NMTAP	128	288	7
NMTAP	129	192	6
NMTAP	129	288	6
NMTAP	130	0	6
NMTAP	130	0	7
NMTAP	130	96	5
NMTAP	130	192	5
NMTAP	130	288	4
NMTAP	130	288	5
NMTAP	131	0	4
NMTAP	131	0	5
NMTAP	131	96	3
NMTAP	131	96	6
NMTAP	131	192	2
NMTAP	131	192	7
NMTAP	131	288	0
NMTAP	131	288	1
NMTAP	132	192	1
NMTAP	132	288	1
NMTAP	133	0	0
NMTAP	133	0	1
NMTAP	133	96	7
NMTAP	133	192	7
NMTAP	133	288	6
NMTAP	133	288	7
NMTAP	134	0	6
NMTAP	134	0	7
NMTAP	134	96	0
NMTAP	134	96	5
NMTAP	134	192	1
NMTAP	134	192	4
NMTAP	134	288	2
NMTAP	134	288	3
EXTAP	135	192	2
EXTAP	135	192	4
EXTAP	135	336	2
EXTAP	135	336	4
EXTAP	136	96	2
EXTAP	136	96	4
EXTAP	136	240	2
EXTAP	136	240	4
EXTAP	137	0	3
EXTAP	137	0	5
EXTAP	137	144	3
EXTAP	137	144	5
EXTAP	137	288	3
EXTAP	137	288	5
EXTAP	138	48	3
EXTAP	138	48	5
NMTAP	138	192	4
NMTAP	138	288	4
NMTAP	139	0	4
BRTAP	139	96	3
BRTAP	139	96	4
NMTAP	140	0	3
NMTAP	140	96	3
NMTAP	140	192	2
NMTAP	140	192	4
NMTAP	140	288	2
NMTAP	140	288	4
NMTAP	141	0	1
NMTAP	141	0	5
NMTAP	141	96	1
NMTAP	141	96	5
NMTAP	141	192	0
NMTAP	141	192	6
NMTAP	141	288	0
NMTAP	141	288	6
NMTAP	142	0	7
NMTAP	142	96	7
NMTAP	142	192	0
NMTAP	142	288	0
NMTAP	143	0	1
NMTAP	143	0	7
NMTAP	143	96	1
NMTAP	143	96	7
NMTAP	143	192	2
NMTAP	143	192	6
NMTAP	143	288	3
NMTAP	143	288	5
EXSTR	145	0	3
NMSXR	145	0	3	96	1056	0
EXSTR	145	0	4
NMSXL	145	0	4	96	1056	7

T_REC_TAP	342
T_REC_BRK	6
T_REC_XTP	45
T_REC_BXX	0
T_REC_HLD	26
T_REC_XHO	0
T_REC_BHO	0
T_REC_BXH	0
T_REC_STR	11
T_REC_BST	0
T_REC_XST	5
T_REC_XBS	0
T_REC_TTP	0
T_REC_THO	0
T_REC_SLD	16
T_REC_BSL	0
T_REC_ALL	451
T_NUM_TAP	403
T_NUM_BRK	6
T_NUM_HLD	26
T_NUM_SLD	16
T_NUM_ALL	451
T_JUDGE_TAP	409
T_JUDGE_HLD	176
T_JUDGE_SLD	16
T_JUDGE_ALL	601
TTM_EACHPAIRS	110
TTM_SCR_TAP	201500
TTM_SCR_BRK	15600
TTM_SCR_HLD	26000
TTM_SCR_SLD	24000
TTM_SCR_ALL	267100
TTM_SCR_S	258550
TTM_SCR_SS	266500
TTM_RAT_ACV	10022

