VERSION	0.00.00	1.04.00
FES_MODE	0
BPM_DEF	230.000	230.000	230.000	230.000
MET_DEF	4	4
RESOLUTION	384
CLK_DEF	384
COMPATIBLE_CODE	MA2

BPM	0	0	230.000
MET	0	0	4	4
MET	1	0	4	4
MET	73	0	4	4
MET	74	0	4	3
MET	74	288	4	4
MET	75	288	4	3
MET	76	192	4	4
MET	77	192	4	3
MET	79	288	4	4
MET	80	288	4	3
MET	83	0	4	4
MET	84	0	4	3
MET	84	288	4	4
MET	85	288	4	3
MET	91	0	4	2
MET	91	192	4	3
MET	103	192	4	4
MET	105	192	4	3
MET	111	192	4	4
MET	113	192	4	2
MET	114	0	4	3
MET	126	0	4	2
MET	126	192	4	3
MET	141	192	4	2
MET	142	0	4	3
MET	143	192	4	2
MET	144	0	4	4

NMSTR	3	0	0
NMSI_	3	0	0	96	672	3
NMSTR	7	0	4
NMSI_	7	0	4	96	672	7
NMTAP	11	0	0
NMTAP	12	0	0
NMHLD	13	0	0	384
NMTAP	15	0	7
NMTAP	16	0	7
NMHLD	17	0	0	384
NMHLD	17	0	7	384
NMTAP	19	0	0
NMTAP	19	192	0
NMTAP	20	0	1
NMTAP	20	192	1
NMTAP	21	0	2
NMTAP	21	192	2
NMTAP	22	0	3
NMTAP	22	0	4
NMTAP	23	0	4
NMTAP	23	192	4
NMTAP	24	0	5
NMTAP	24	192	5
NMTAP	25	0	6
NMTAP	25	192	6
NMTAP	26	0	0
NMTAP	26	0	7
NMTTP	27	0	7	B	0	L1
NMTTP	28	0	0	B	0	L1
NMTTP	29	0	6	B	0	L1
NMTTP	30	0	1	B	0	L1
NMTTP	31	0	5	B	0	L1
NMTTP	32	0	2	B	0	L1
NMTTP	33	0	0	C	0	L1
NMHLD	35	0	6	192
NMHLD	35	0	7	192
NMTAP	36	0	6
NMTAP	36	0	7
NMHLD	37	0	4	192
NMHLD	37	0	5	192
NMTAP	38	0	4
NMTAP	38	0	5
NMHLD	39	0	2	192
NMHLD	39	0	3	192
NMTAP	40	0	2
NMTAP	40	0	3
NMHLD	41	0	0	192
NMHLD	41	0	1	192
BRTAP	42	0	0
BRTAP	42	0	1
NMTAP	43	0	7
NMTAP	43	192	7
NMTAP	44	0	0
NMTAP	44	192	0
NMTAP	45	0	0
NMTAP	45	0	7
NMTAP	45	192	0
NMTAP	45	192	7
NMTAP	46	0	1
NMTAP	46	0	6
NMTAP	46	192	1
NMTAP	46	192	6
BRTAP	47	0	2
BRTAP	47	0	5
NMSTR	49	0	1
NMSI_	49	0	1	96	480	5
NMTAP	52	0	6
NMTAP	52	192	6
NMSTR	53	0	6
NMSI_	53	0	6	96	480	2
EXTAP	56	0	0
NMTAP	56	192	0
NMTAP	57	0	1
NMTAP	57	192	1
NMTAP	58	0	0
NMTAP	58	0	1
NMTAP	58	192	0
NMTAP	58	192	1
NMTAP	59	0	2
NMTAP	59	192	2
NMTAP	60	0	3
NMTAP	60	0	4
NMTAP	60	192	3
NMTAP	60	192	4
NMTAP	61	0	4
NMTAP	61	192	4
NMTAP	62	0	4
NMTAP	62	0	5
NMTAP	62	192	4
NMTAP	62	192	5
NMTAP	63	0	6
NMTAP	63	192	6
EXTAP	64	0	0
EXTAP	64	0	7
BXTAP	65	0	7
EXTAP	65	96	7
EXTAP	65	192	7
NMTAP	66	0	6
NMTAP	66	192	6
NMTAP	67	0	5
NMTAP	67	96	5
NMTAP	67	192	5
NMTAP	68	0	3
NMTAP	68	0	4
NMTAP	68	192	3
NMTAP	68	192	4
NMTAP	69	0	3
NMTAP	69	96	3
NMTAP	69	192	3
NMTAP	70	0	2
NMTAP	70	192	2
NMTAP	71	0	1
NMTAP	71	96	1
NMTAP	71	192	1
NMTAP	72	0	0
NMTAP	72	0	7
NMTAP	72	192	0
NMTAP	72	192	7
NMSTR	73	0	0
NMSI_	73	0	0	96	480	4
NMSTR	76	192	5
NMSI_	76	192	5	96	480	1
NMSTR	79	288	0
NMSI_	79	288	0	96	384	5
NMSTR	83	0	6
NMSI_	83	0	6	96	480	2
BRTAP	86	192	1
NMTAP	86	288	1
NMTAP	87	0	1
NMTAP	87	192	0
NMTAP	87	192	7
NMTAP	88	0	0
NMTAP	88	0	7
NMTAP	88	192	6
NMTAP	88	288	6
NMTAP	89	0	6
NMHLD	89	192	0	384
NMHLD	89	192	7	384
BXTAP	91	192	0
NMTAP	91	288	0
NMTAP	92	96	1
NMTAP	92	192	1
NMTAP	93	0	2
NMTAP	93	96	2
NMTAP	93	288	3
NMTAP	93	288	4
NMTAP	94	0	3
NMTAP	94	0	4
NMTAP	94	192	4
NMTAP	94	288	4
NMTAP	95	96	5
NMTAP	95	192	5
NMTAP	96	0	6
NMTAP	96	96	6
NMTAP	96	288	0
NMTAP	96	288	7
NMTAP	97	0	0
NMTAP	97	0	7
NMTAP	97	192	6
NMTAP	97	288	6
NMTAP	98	96	6
NMTAP	98	96	7
NMTAP	98	192	6
NMTAP	98	192	7
NMTAP	99	0	1
NMTAP	99	96	1
NMTAP	99	288	0
NMTAP	99	288	1
NMTAP	100	0	0
NMTAP	100	0	1
NMTAP	100	192	7
NMTAP	100	288	7
NMTAP	101	96	0
NMTAP	101	192	0
NMTAP	102	0	0
NMTAP	102	0	7
NMTAP	102	96	0
NMTAP	102	96	7
NMTAP	102	288	1
NMTAP	102	288	6
NMTAP	103	0	1
NMTAP	103	0	6
BXTAP	103	192	2
BXTAP	103	192	5
EXTAP	105	192	6
EXTAP	105	192	7
NMTAP	106	0	6
NMTAP	106	0	7
NMTAP	106	192	4
NMTAP	106	192	5
NMTAP	107	0	4
NMTAP	107	0	5
NMTAP	107	192	2
NMTAP	107	192	3
NMTAP	108	0	2
NMTAP	108	0	3
NMTAP	108	192	0
NMTAP	108	192	1
NMTAP	109	0	0
NMTAP	109	0	1
NMTAP	109	192	2
NMTAP	109	192	3
NMTAP	110	0	2
NMTAP	110	0	3
NMTAP	110	192	4
NMTAP	110	192	5
NMTAP	111	0	4
NMTAP	111	0	5
NMTAP	111	192	6
NMTAP	111	192	7
NMTAP	112	0	6
NMTAP	112	0	7
BRTAP	112	192	6
BRTAP	112	192	7
NMTTP	114	0	0	B	0	L1
NMTTP	114	0	7	B	0	L1
NMTTP	115	192	1	B	0	L1
NMTTP	115	192	6	B	0	L1
NMTTP	117	0	2	B	0	L1
NMTTP	117	0	5	B	0	L1
NMTTP	118	192	3	B	0	L1
NMTTP	118	192	4	B	0	L1
NMTTP	120	0	5	B	0	L1
NMTTP	120	0	5	E	0	L1
NMTTP	120	0	6	E	0	L1
NMTTP	121	192	2	B	0	L1
NMTTP	121	192	2	E	0	L1
NMTTP	121	192	3	E	0	L1
NMTTP	123	0	1	B	0	L1
NMTTP	123	0	1	E	0	L1
NMTTP	123	0	6	B	0	L1
NMTTP	123	0	7	E	0	L1
NMTTP	124	192	0	C	1	L1
NMTTP	124	192	2	B	0	L1
NMTTP	124	192	3	B	0	L1
NMTTP	124	192	4	B	0	L1
NMTTP	124	192	5	B	0	L1
EXTAP	126	0	0
EXTAP	126	0	7
NMTAP	126	192	1
NMTAP	126	288	1
NMTAP	127	0	1
NMTAP	127	96	0
NMTAP	127	96	1
NMTAP	128	0	2
NMTAP	128	96	2
NMTAP	128	192	2
NMTAP	128	288	2
NMTAP	128	288	3
NMTAP	129	192	5
NMTAP	129	288	5
NMTAP	130	0	5
NMTAP	130	96	4
NMTAP	130	96	5
NMTAP	131	0	6
NMTAP	131	96	6
NMTAP	131	192	6
NMTAP	131	288	6
NMTAP	131	288	7
NMTAP	132	192	5
NMTAP	132	288	5
NMTAP	133	0	5
NMTAP	133	96	4
NMTAP	133	96	5
NMTAP	134	0	2
NMTAP	134	96	2
NMTAP	134	192	2
NMTAP	134	288	2
NMTAP	134	288	3
NMTAP	135	192	1
NMTAP	135	288	1
NMTAP	136	0	1
NMTAP	136	96	0
NMTAP	136	96	1
NMTAP	137	0	7
NMTAP	137	96	7
NMTAP	137	192	7
NMTAP	137	288	0
NMTAP	137	288	7
NMHLD	138	192	0	288
NMHLD	138	192	7	288
BRTAP	140	0	0
NMTAP	140	96	0
NMTAP	140	192	1
NMTAP	140	288	1
NMTAP	141	0	2
NMTAP	141	96	2
NMTAP	141	192	3
NMTAP	141	288	3
NMTAP	142	0	4
NMTAP	142	96	4
NMTAP	142	192	5
NMTAP	142	288	5
NMTAP	143	0	6
NMTAP	143	96	6
NMTAP	143	192	7
NMHLD	143	288	7	1632
NMTHO	145	0	0	1152	C	1	L1

T_REC_TAP	214
T_REC_BRK	8
T_REC_XTP	9
T_REC_BXX	4
T_REC_HLD	16
T_REC_XHO	0
T_REC_BHO	0
T_REC_BXH	0
T_REC_STR	8
T_REC_BST	0
T_REC_XST	0
T_REC_XBS	0
T_REC_TTP	30
T_REC_THO	1
T_REC_SLD	8
T_REC_BSL	0
T_REC_ALL	298
T_NUM_TAP	261
T_NUM_BRK	12
T_NUM_HLD	17
T_NUM_SLD	8
T_NUM_ALL	298
T_JUDGE_TAP	273
T_JUDGE_HLD	142
T_JUDGE_SLD	8
T_JUDGE_ALL	423
TTM_EACHPAIRS	68
TTM_SCR_TAP	130500
TTM_SCR_BRK	31200
TTM_SCR_HLD	17000
TTM_SCR_SLD	12000
TTM_SCR_ALL	190700
TTM_SCR_S	183850
TTM_SCR_SS	189500
TTM_RAT_ACV	10063

