VERSION	0.00.00	1.04.00
FES_MODE	0
BPM_DEF	185.000	185.000	185.000	185.000
MET_DEF	4	4
RESOLUTION	384
CLK_DEF	384
COMPATIBLE_CODE	MA2

BPM	0	0	185.000
MET	0	0	4	4

NMTAP	1	360	0
NMTAP	1	360	7
NMTAP	1	372	1
NMTAP	1	372	6
NMTAP	2	0	2
NMTAP	2	0	5
BXTAP	2	12	3
BXSTR	2	12	4
NMSCR	2	12	4	96	1332	3
NMTHO	3	0	0	192	C	0	M1
NMTTP	3	0	2	B	0	M1
NMTTP	3	0	2	A	0	M1
NMTTP	3	0	3	B	0	M1
NMTTP	3	0	3	E	0	M1
NMTTP	3	0	3	A	0	M1
NMTTP	4	0	0	B	0	M1
NMTTP	4	0	0	E	0	M1
NMTTP	4	0	0	A	0	M1
NMTHO	4	0	0	192	C	0	M1
NMTTP	4	0	7	B	0	M1
NMTTP	4	0	7	A	0	M1
NMTHO	5	0	0	192	C	0	M1
NMTTP	5	0	4	B	0	M1
NMTTP	5	0	4	A	0	M1
NMTTP	5	0	5	B	0	M1
NMTTP	5	0	5	E	0	M1
NMTTP	5	0	5	A	0	M1
EXSTR	6	0	0
NMSCL	6	0	0	96	576	0
BRHLD	6	0	7	768
NMTTP	6	12	0	B	0	M1
NMTTP	6	24	0	C	1	M1
NMTTP	6	36	4	B	0	M1
NMTTP	6	48	4	A	0	M1
NMTAP	8	0	0
NMTAP	8	24	1
NMTAP	8	48	2
NMTAP	8	72	3
NMTAP	8	96	1
NMTAP	8	120	2
NMTAP	8	144	3
NMTAP	8	168	4
NMTAP	8	192	2
NMTAP	8	216	3
NMTAP	8	240	4
NMTAP	8	264	5
NMTAP	8	288	3
NMTAP	8	312	4
NMTAP	8	336	5
NMTAP	8	360	6
EXTAP	9	0	3
EXTAP	9	0	7
NMTAP	9	96	5
NMTAP	9	144	5
NMTAP	9	192	4
NMSTR	9	240	4
NMSCL	9	240	4	96	32	2
NMTAP	9	336	5
NMTAP	10	48	6
NMSTR	10	96	5
NMSI_	10	96	5	96	32	7
NMSTR	10	144	5
NMSI_	10	144	5	96	32	3
NMTAP	11	48	2
NMTAP	11	96	3
NMHLD	11	144	0	96
NMTAP	11	240	2
NMTAP	11	288	1
NMHLD	11	336	3	384
NMSTR	12	48	2
NMSI_	12	48	2	96	32	4
NMSTR	12	240	2
NMSCL	12	240	2	96	32	0
NMTAP	13	0	4
NMTAP	13	48	5
NMTAP	13	96	4
NMTAP	13	144	6
NMTAP	13	192	5
NMSTR	13	240	4
NMSCL	13	240	4	96	32	2
NMTAP	13	288	5
NMTAP	13	336	6
NMTAP	14	48	5
NMSTR	14	96	6
NMSI_	14	96	6	96	32	0
NMSTR	14	144	6
NMSI_	14	144	6	96	32	4
NMTAP	15	48	2
NMHLD	15	48	3	96
NMTAP	15	144	1
NMHLD	15	192	1	96
NMTAP	15	288	0
NMHLD	15	336	0	384
NMSTR	16	48	1
NMSUR	16	48	1	96	48	5
NMSTR	16	240	1
NMSCR	16	240	1	96	32	3
NMTAP	17	0	7
NMTAP	17	48	6
NMTAP	17	96	5
NMTAP	17	144	4
NMTAP	17	168	3
NMTAP	17	216	3
NMTAP	17	240	5
NMTAP	17	288	4
NMTAP	17	288	6
NMTAP	18	0	0
NMTAP	18	48	1
NMTAP	18	96	2
NMTAP	18	144	3
NMTAP	18	168	4
NMTAP	18	216	4
NMTAP	18	240	2
NMTAP	18	288	1
NMTAP	18	288	3
NMTAP	19	0	6
NMTAP	19	0	7
NMTAP	19	48	5
NMTAP	19	72	4
NMHLD	19	96	5	48
NMTAP	19	144	3
NMTAP	19	168	4
NMTAP	19	216	5
NMTAP	19	240	4
NMTAP	19	288	3
NMTAP	19	288	6
NMTAP	20	0	0
NMTAP	20	0	1
NMTAP	20	48	2
NMTAP	20	72	3
NMHLD	20	96	2	48
NMTAP	20	144	4
NMTAP	20	168	3
NMTAP	20	216	2
NMTAP	20	240	3
NMTAP	20	288	1
NMTAP	20	288	4
NMTAP	21	0	0
NMTAP	21	0	6
NMTAP	21	48	7
NMTAP	21	72	6
NMTAP	21	96	7
NMTAP	21	144	5
NMTAP	21	168	4
NMTAP	21	192	5
NMTAP	21	216	4
NMTAP	21	240	5
NMTAP	21	288	3
NMTAP	21	288	6
NMTAP	21	336	2
NMTAP	22	0	1
NMTAP	22	0	7
NMTAP	22	48	0
NMTAP	22	72	1
NMTAP	22	96	0
NMTAP	22	144	2
NMTAP	22	168	3
NMTAP	22	192	2
NMTAP	22	216	3
NMTAP	22	240	2
NMTAP	22	288	1
NMTAP	22	288	4
NMTAP	22	336	0
NMTAP	22	336	5
NMTAP	23	0	6
NMTAP	23	24	7
NMTAP	23	48	6
NMTAP	23	72	7
NMTAP	23	96	5
NMTAP	23	144	1
NMTAP	23	168	0
NMTAP	23	192	1
NMTAP	23	216	0
NMTAP	23	240	2
NMTAP	23	288	6
NMTAP	23	312	7
NMTAP	23	336	6
NMTAP	23	360	7
NMTAP	24	0	5
NMTAP	24	24	0
NMTAP	24	48	5
NMTAP	24	72	0
NMTAP	24	96	7
NMTAP	24	120	2
NMTAP	24	144	7
NMTAP	24	168	2
NMTAP	24	192	6
NMTAP	24	204	5
NMTAP	24	216	4
NMTAP	24	228	3
NMTAP	24	240	2
NMTAP	24	252	1
NMTAP	24	264	0
NMTAP	24	276	7
BRTAP	24	288	2
BRTAP	24	288	6
NMTAP	25	0	1
NMTAP	25	0	5
NMSTR	25	48	2
NMSI_	25	48	2	96	32	0
NMTAP	25	72	4
NMTAP	25	96	3
NMTAP	25	144	2
NMTAP	25	144	6
NMSTR	25	192	5
NMSI_	25	192	5	96	32	3
NMTAP	25	216	7
NMTAP	25	240	6
NMTAP	25	288	0
NMTAP	25	288	5
NMTAP	26	0	2
NMTAP	26	0	6
NMSTR	26	48	1
NMSI_	26	48	1	96	32	3
NMTAP	26	72	7
NMTAP	26	96	0
NMTAP	26	144	1
NMTAP	26	144	5
NMSTR	26	192	6
NMSI_	26	192	6	96	32	0
NMTAP	26	216	4
NMTAP	26	240	5
NMTAP	26	288	3
NMTAP	26	288	6
NMSTR	27	0	1
NMSLL	27	0	1	96	144	5
NMTAP	27	96	5
NMSTR	27	144	5
NMSLL	27	144	5	96	144	1
NMTAP	27	240	0
NMTAP	27	288	7
NMTAP	27	336	6
CNSCL	28	0	1	0	96	6
NMTAP	28	0	5
NMTAP	28	48	4
NMSTR	28	96	3
NMSI_	28	96	3	96	48	6
EXHLD	28	192	2	96
EXTAP	28	192	3
CNSI_	28	240	6	0	48	0
CNSI_	28	288	0	0	24	4
NMHLD	29	0	1	96
NMTAP	29	0	3
NMSTR	29	48	4
NMSI_	29	48	4	96	48	0
NMTAP	29	96	5
NMTAP	29	144	4
NMSTR	29	144	6
NMSI_	29	144	6	96	48	3
NMTAP	29	192	7
NMSTR	29	240	2
NMSXR	29	240	2	96	144	3
NMTAP	29	240	6
NMTAP	29	288	1
NMTAP	29	336	2
NMTAP	29	336	5
NMSTR	30	48	6
NMSI_	30	48	6	96	48	2
NMTAP	30	96	7
NMSTR	30	144	1
NMSI_	30	144	1	96	48	4
NMTAP	30	144	6
NMTAP	30	192	0
NMTAP	30	240	1
NMSTR	30	240	5
NMSXL	30	240	5	96	144	4
NMTAP	30	288	6
NMTAP	30	336	3
NMTAP	30	336	5
NMTAP	31	48	3
NMTAP	31	96	2
NMHLD	31	144	1	192
NMTAP	31	192	6
NMTAP	31	240	7
NMHLD	31	288	0	48
NMSTR	32	0	3
BRSI_	32	0	3	96	48	7
NMTAP	32	0	6
NMTAP	32	48	3
NMHLD	32	48	6	144
EXTAP	32	192	0
NMTAP	32	208	1
NMTAP	32	224	2
NMTAP	32	240	3
NMTAP	32	256	4
NMTAP	32	272	5
EXTAP	32	288	7
NMTAP	32	304	0
NMTAP	32	320	1
NMTAP	32	336	2
NMTAP	32	352	3
NMTAP	32	368	4
BRTAP	33	0	1
BRTAP	33	0	5
NMSTR	33	48	2
NMSI_	33	48	2	96	32	0
NMTAP	33	72	4
NMTAP	33	96	3
NMTAP	33	144	2
NMTAP	33	144	6
NMSTR	33	192	5
NMSI_	33	192	5	96	32	3
NMTAP	33	216	7
NMTAP	33	240	6
NMTAP	33	288	0
NMTAP	33	288	5
NMTAP	34	0	2
NMTAP	34	0	6
NMSTR	34	48	1
NMSI_	34	48	1	96	32	3
NMTAP	34	72	7
NMTAP	34	96	0
NMTAP	34	144	1
NMTAP	34	144	5
NMSTR	34	192	6
NMSI_	34	192	6	96	32	0
NMTAP	34	216	4
NMTAP	34	240	5
NMTAP	34	288	3
NMTAP	34	288	6
NMSTR	35	0	1
NMSCL	35	0	1	96	144	5
NMTAP	35	96	5
NMSTR	35	144	5
NMSCL	35	144	5	96	240	6
NMTAP	35	240	0
NMTAP	35	288	7
NMTAP	35	336	6
NMTAP	36	0	5
NMTAP	36	48	4
NMSTR	36	96	3
BRSI_	36	96	3	96	48	7
NMTAP	36	192	3
NMTAP	36	192	7
NMTAP	36	240	0
NMTAP	36	288	1
NMSTR	36	288	5
NMSCR	36	288	5	96	96	1
NMSTR	37	0	1
NMSUL	37	0	1	96	96	3
NMTAP	37	96	2
NMSTR	37	144	2
NMSUL	37	144	2	96	144	0
NMTAP	37	336	4
NMTAP	38	0	5
NMTAP	38	48	6
NMSTR	38	48	7
NMSCR	38	48	7	96	48	2
NMSTR	38	144	7
NMSCL	38	144	7	96	48	4
NMSTR	38	240	7
BRSI_	38	240	7	96	48	3
BRTAP	38	336	7
NMTAP	39	48	5
NMTAP	39	72	4
NMTAP	39	96	6
NMTAP	39	144	0
NMTAP	39	144	7
NMTAP	39	192	2
NMTAP	39	216	3
NMTAP	39	240	1
NMTAP	39	288	0
NMTAP	39	288	7
NMTAP	39	336	5
NMTAP	39	360	4
EXTAP	40	0	6
NMTAP	40	48	6
NMTAP	40	48	7
NMTAP	40	64	5
NMTAP	40	80	4
NMTAP	40	96	3
EXTAP	40	144	1
NMTAP	40	192	0
NMTAP	40	192	1
NMTAP	40	208	2
NMTAP	40	224	3
NMTAP	40	240	4
EXTAP	40	288	1
EXTAP	40	288	6
EXTAP	40	336	2
EXTAP	40	336	5
NMTAP	41	0	3
NMSTR	41	0	4
NMSCR	41	0	4	96	144	3
BRTAP	41	288	0
BRTAP	41	288	4
BRTAP	41	336	0
BRSTR	41	336	4
NMSI_	41	336	4	96	48	6
NMTAP	42	48	2
CNSI_	42	96	6	0	48	3
NMTAP	42	144	1
CNSI_	42	144	3	0	48	7
NMTAP	42	192	1
NMTAP	42	288	0
NMHLD	42	336	0	48
NMHLD	43	48	1	48
NMHLD	43	48	3	48
NMTAP	43	144	2
NMTAP	43	144	4
NMTAP	43	192	3
NMTAP	43	240	3
NMTAP	43	288	2
NMTAP	43	336	1
NMTAP	43	336	3
NMTAP	44	48	4
NMTAP	44	96	4
NMTAP	44	144	3
NMHLD	44	192	5	96
NMTAP	44	288	4
NMTAP	44	336	3
NMTAP	44	336	5
NMTAP	45	0	2
NMHLD	45	48	2	96
NMTAP	45	96	6
NMHLD	45	144	6	96
NMTAP	45	240	4
NMTAP	45	288	4
NMSTR	45	336	3
NMSI_	45	336	3	96	48	1
NMTAP	45	336	5
NMTAP	46	48	6
CNSI_	46	96	1	0	48	4
NMTAP	46	96	6
CNSI_	46	144	4	0	48	0
NMTAP	46	192	7
NMTAP	46	288	6
NMTAP	46	288	7
NMHLD	46	336	6	48
NMHLD	46	336	7	48
NMHLD	47	48	4	48
NMHLD	47	48	5	48
NMTAP	47	144	6
NMTAP	47	144	7
NMTAP	47	192	5
NMTAP	47	240	4
NMTAP	47	288	3
NMTAP	47	336	6
NMSTR	48	0	4
NMSI_	48	0	4	96	48	2
NMTAP	48	0	5
NMTAP	48	48	4
NMTAP	48	48	5
CNSI_	48	144	2	0	48	5
NMTAP	48	144	7
CNSI_	48	192	5	0	144	1
NMSTR	48	240	1
NMSI_	48	240	1	96	96	6
NMTAP	48	336	6
NMSTR	49	48	0
NMSSL	49	48	0	96	144	4
CNSI_	49	48	6	0	96	0
NMTAP	49	144	4
NMTAP	49	240	5
NMSTR	49	336	0
NMSI_	49	336	0	96	48	2
NMTAP	49	336	7
NMTAP	50	48	6
CNSI_	50	96	2	0	48	7
NMTAP	50	144	6
CNSI_	50	144	7	0	48	3
NMTAP	50	192	5
NMTAP	50	216	5
NMTAP	50	240	4
NMTAP	50	288	5
NMHLD	50	336	4	96
NMTAP	51	0	7
NMHLD	51	48	5	96
NMTAP	51	96	7
NMTAP	51	144	4
NMTAP	51	192	6
NMTAP	51	240	6
NMTAP	51	288	5
NMTAP	51	336	4
NMTAP	51	336	5
NMTAP	52	48	3
NMTAP	52	96	3
NMTAP	52	144	4
NMHLD	52	192	2	96
NMTAP	52	288	3
NMTAP	52	336	2
NMTAP	52	336	4
NMTAP	53	0	1
NMHLD	53	48	1	96
NMTAP	53	96	3
NMHLD	53	144	3	96
NMTAP	53	192	5
NMHLD	53	240	5	96
NMSTR	53	336	7
NMSI_	53	336	7	96	48	5
NMTAP	54	48	1
CNSI_	54	96	5	0	48	0
CNSI_	54	144	0	0	48	4
NMTAP	54	144	1
NMTAP	54	192	2
NMTAP	54	216	2
NMTAP	54	240	3
NMTAP	54	288	2
NMHLD	54	336	3	96
NMTAP	55	0	0
NMHLD	55	48	2	96
NMTAP	55	96	0
NMTAP	55	144	3
NMTAP	55	192	1
NMTAP	55	240	1
NMTAP	55	288	2
NMTAP	55	336	3
NMTAP	56	0	4
NMTAP	56	0	6
NMHLD	56	48	4	48
NMHLD	56	48	6	48
NMHLD	56	144	1	48
NMHLD	56	144	3	48
NMTAP	56	240	6
NMTAP	56	240	7
NMSTR	56	288	6
NMSCR	56	288	6	96	48	2
NMSTR	56	288	7
NMSCL	56	288	7	96	48	3
NMTTP	57	0	6	A	0	M1
NMTTP	57	0	7	A	0	M1
NMTTP	57	0	7	D	1	M1
EXSTR	57	96	0
NMSCR	57	96	0	96	48	4
EXSTR	57	96	1
NMSCL	57	96	1	96	48	5
NMTTP	57	192	0	A	0	M1
NMTTP	57	192	1	A	0	M1
NMTTP	57	192	1	D	1	M1
EXSTR	57	288	0
NMSCL	57	288	0	96	48	4
EXSTR	57	288	7
NMSCR	57	288	7	96	48	3
BXSTR	58	0	0
NMTTP	58	0	0	D	1	M1
BRSXL	58	0	0	96	480	3
BXSTR	58	0	7
BRSXR	58	0	7	96	480	4
NMTTP	58	12	1	D	0	M1
NMTTP	58	12	7	D	0	M1
NMTTP	58	24	2	D	0	M1
NMTTP	58	24	6	D	0	M1
NMTTP	58	36	3	D	0	M1
NMTTP	58	36	5	D	0	M1
NMHLD	60	0	3	144
NMHLD	60	0	4	144
NMTTP	60	192	3	E	0	M1
NMTTP	60	204	2	B	0	M1
NMTTP	60	216	1	B	0	M1
NMTTP	60	228	1	E	0	M1
NMTTP	60	240	5	E	0	M1
NMTTP	60	252	5	B	0	M1
NMTTP	60	264	6	B	0	M1
NMTTP	60	276	7	E	0	M1
EXTAP	60	288	0
EXTAP	60	312	7
EXTAP	60	336	0
EXTAP	60	360	7
EXSTR	61	0	0
NMSI_	61	0	0	96	48	4
NMHLD	61	192	3	24
NMHLD	61	192	5	24
NMHLD	61	240	2	24
NMHLD	61	240	6	24
NMHLD	61	288	1	24
NMHLD	61	288	7	24
NMHLD	61	336	0	24
NMSTR	62	0	7
NMSI_	62	0	7	96	32	5
NMSTR	62	96	1
NMSI_	62	96	1	96	32	3
NMTAP	62	96	7
NMTAP	62	192	1
NMSTR	62	192	4
NMSI_	62	192	4	96	48	0
NMSTR	62	288	2
NMSI_	62	288	2	96	48	6
NMTAP	62	288	4
NMTAP	63	0	2
NMSTR	63	0	3
NMSI_	63	0	3	96	32	5
NMTAP	63	96	3
NMSTR	63	96	7
NMSI_	63	96	7	96	32	1
NMSTR	63	192	6
NMSI_	63	192	6	96	48	2
NMTAP	63	192	7
NMSTR	63	288	3
NMSCR	63	288	3	96	288	1
NMTAP	63	288	6
NMTAP	64	0	5
NMHLD	64	48	5	144
NMSTR	64	288	7
NMSF_	64	288	7	96	48	3
BRTAP	65	0	7
NMSTR	65	96	0
BRSF_	65	96	0	96	48	4
BRTAP	65	192	0
NMSTR	65	288	6
NMSCL	65	288	6	96	48	3
NMSTR	66	0	1
NMSCL	66	0	1	96	48	6
NMTAP	66	0	6
NMTAP	66	96	1
NMSTR	66	96	4
NMSCL	66	96	4	96	48	1
NMTAP	66	192	4
NMSTR	66	192	7
NMSCL	66	192	7	96	48	4
NMSTR	66	288	2
BRSCL	66	288	2	96	48	7
NMTAP	66	288	7
NMTAP	67	0	2
NMSTR	67	0	5
BRSCL	67	0	5	96	48	2
NMSTR	67	96	0
BRSCL	67	96	0	96	48	5
NMTAP	67	96	5
NMTAP	67	192	0
NMSTR	67	192	3
BRSCL	67	192	3	96	48	0
NMTAP	67	288	3
NMTAP	67	288	4
NMSTR	68	0	6
NMSI_	68	0	6	96	48	2
NMTAP	68	48	6
NMSTR	68	96	7
NMSI_	68	96	7	96	48	3
NMTAP	68	144	7
NMSTR	68	192	0
NMSCL	68	192	0	96	48	5
NMTAP	68	240	0
NMTAP	68	336	2
NMSTR	69	0	1
BRSI_	69	0	1	96	48	5
NMTAP	69	48	1
NMSTR	69	96	0
BRSI_	69	96	0	96	48	4
NMTAP	69	144	0
NMSTR	69	192	7
BRSCR	69	192	7	96	48	2
NMTAP	69	240	7
NMTAP	69	336	5
NMTAP	69	352	6
NMTAP	69	368	7
BRSTR	70	0	0
NMSI_	70	0	0	96	48	5
BRTAP	70	0	4
NMTAP	70	96	0
NMSTR	70	96	2
BRSI_	70	96	2	96	48	7
NMTAP	70	192	2
NMSTR	70	192	4
NMSI_	70	192	4	96	48	1
NMTAP	70	288	4
NMSTR	70	288	6
BRSI_	70	288	6	96	48	3
NMTAP	71	0	6
NMSTR	71	0	7
NMSI_	71	0	7	96	48	4
NMSTR	71	96	5
BRSI_	71	96	5	96	48	2
NMTAP	71	96	7
NMSTR	71	192	3
NMSI_	71	192	3	96	48	0
NMTAP	71	192	5
NMSTR	71	288	1
BRSI_	71	288	1	96	48	6
NMTAP	71	288	3
NMTAP	72	0	1
NMTAP	72	0	7
NMTAP	72	96	0
NMTAP	72	96	1
NMTAP	72	144	0
NMTAP	72	144	1
NMTAP	72	192	2
NMTAP	72	192	7
NMTAP	72	240	3
NMTAP	72	240	6
NMTAP	72	288	4
NMSTR	72	288	5
NMSF_	72	288	5	96	48	1
BRTAP	73	0	5
NMSTR	73	96	2
BRSF_	73	96	2	96	48	6
BRTAP	73	192	2
NMTAP	73	288	0
NMTAP	73	288	4
BRTAP	74	0	2
BRTAP	74	0	6
NMSTR	74	48	5
NMSI_	74	48	5	96	32	7
NMTAP	74	72	3
NMTAP	74	96	4
NMTAP	74	144	1
NMTAP	74	144	5
NMSTR	74	192	2
NMSI_	74	192	2	96	32	4
NMTAP	74	216	0
NMTAP	74	240	1
NMTAP	74	288	2
NMTAP	74	288	7
NMTAP	74	336	6
BRTAP	75	0	1
BRTAP	75	0	5
NMSTR	75	48	6
NMSI_	75	48	6	96	32	4
NMTAP	75	72	0
NMTAP	75	96	7
NMTAP	75	144	2
NMTAP	75	144	6
NMSTR	75	192	1
NMSI_	75	192	1	96	32	7
NMTAP	75	216	3
NMTAP	75	240	2
NMTAP	75	288	1
NMTAP	75	288	4
NMTAP	75	336	5
BRSTR	76	0	6
NMSXR	76	0	6	96	144	3
NMTAP	76	96	3
NMSTR	76	144	3
NMSCR	76	144	3	96	96	1
NMTAP	76	240	1
NMTAP	76	288	2
NMTAP	76	336	3
EXTAP	77	0	4
EXTAP	77	0	5
NMTAP	77	48	6
EXSTR	77	96	4
BRSI_	77	96	4	96	48	1
EXTAP	77	96	5
NMTAP	77	144	7
EXTAP	77	192	4
EXHLD	77	192	5	96
CNSCL	77	240	1	0	48	7
CNSI_	77	288	7	0	24	3
NMTAP	78	0	4
NMHLD	78	0	6	96
NMSTR	78	48	3
NMSI_	78	48	3	96	48	7
NMTAP	78	96	2
NMTAP	78	144	1
NMSTR	78	144	3
NMSCL	78	144	3	96	48	0
NMTAP	78	240	3
NMSTR	78	240	5
NMSXL	78	240	5	96	144	4
NMTAP	78	336	5
EXTAP	78	336	7
NMTAP	78	360	0
NMTAP	79	0	1
NMTAP	79	24	2
NMSTR	79	48	3
NMSF_	79	48	3	96	48	7
NMTAP	79	144	3
NMTAP	79	240	1
NMTAP	79	240	5
BRTAP	79	288	1
BRTAP	79	288	5
NMSTR	80	0	6
NMSI_	80	0	6	96	48	3
NMTAP	80	0	7
NMTAP	80	48	0
NMTAP	80	96	6
NMSTR	80	144	2
NMSI_	80	144	2	96	48	5
NMTAP	80	192	1
NMTAP	80	240	7
NMHLD	80	288	7	96
BRSTR	81	0	4
BRSI_	81	0	4	96	48	0
BRHLD	81	48	2	144
BRTAP	81	48	6
EXTAP	81	192	7
NMTAP	81	208	6
NMTAP	81	224	5
NMTAP	81	240	4
NMTAP	81	256	3
NMTAP	81	272	2
EXTAP	81	288	0
NMTAP	81	304	7
NMTAP	81	320	6
NMTAP	81	336	5
NMTAP	81	352	4
NMTAP	81	368	3
BRTAP	82	0	2
BRTAP	82	0	6
NMSTR	82	48	5
NMSI_	82	48	5	96	32	7
NMTAP	82	72	3
NMTAP	82	96	4
NMTAP	82	144	1
NMTAP	82	144	5
NMSTR	82	192	2
NMSI_	82	192	2	96	32	4
NMTAP	82	216	0
NMTAP	82	240	1
NMTAP	82	288	2
NMTAP	82	288	7
NMTAP	82	336	6
BRTAP	83	0	1
BRTAP	83	0	5
NMSTR	83	48	6
NMSI_	83	48	6	96	32	4
NMTAP	83	72	0
NMTAP	83	96	7
NMTAP	83	144	2
NMTAP	83	144	6
NMSTR	83	192	1
NMSI_	83	192	1	96	32	7
NMTAP	83	216	3
NMTAP	83	240	2
NMTAP	83	288	1
NMTAP	83	288	4
NMTAP	83	336	5
BRSTR	84	0	6
NMSCL	84	0	6	96	48	3
NMTAP	84	96	6
NMTAP	84	96	7
NMSTR	84	144	2
NMSXR	84	144	2	96	144	3
NMTAP	84	240	2
NMTAP	84	240	4
NMTAP	84	288	5
NMHLD	84	336	6	96
EXSTR	85	48	4
NMSI_	85	48	4	96	48	0
NMTAP	85	96	5
NMTAP	85	144	4
EXSTR	85	144	6
NMSI_	85	144	6	96	48	3
NMTAP	85	192	7
EXTAP	85	240	2
EXSTR	85	288	2
NMSCL	85	288	2	96	96	6
NMSTR	86	0	6
NMSUR	86	0	6	96	96	4
NMTAP	86	96	5
NMSTR	86	144	5
NMSUR	86	144	5	96	144	7
NMTAP	86	336	3
NMTAP	87	0	2
NMSTR	87	48	0
BRSCL	87	48	0	96	48	5
NMTAP	87	48	1
BRTAP	87	144	0
NMSTR	87	144	3
BRSI_	87	144	3	96	48	7
BRTAP	87	240	3
NMSTR	87	240	6
BRSCL	87	240	6	96	48	3
BRTAP	87	336	0
BRTAP	87	336	6
NMTAP	88	48	1
NMTAP	88	72	3
NMTAP	88	96	0
NMTAP	88	144	2
NMTAP	88	144	7
NMTAP	88	192	6
NMTAP	88	216	4
NMTAP	88	240	7
NMTAP	88	288	0
NMTAP	88	288	5
NMTAP	88	336	1
NMTAP	88	360	3
NMHLD	89	0	0	24
NMHLD	89	48	1	24
NMHLD	89	48	7	24
NMHLD	89	96	2	24
NMHLD	89	96	6	24
NMHLD	89	144	3	24
NMHLD	89	144	5	24
NMSTR	89	192	4
NMSF_	89	192	4	96	48	0
BRTAP	90	0	2
NMTAP	90	24	3
NMTAP	90	48	2
NMTAP	90	72	3
NMTAP	90	96	1
NMTAP	90	120	5
NMTAP	90	144	1
NMTAP	90	168	5
NMTAP	90	192	7
NMTAP	90	216	6
NMTAP	90	240	7
NMTAP	90	264	6
NMTAP	90	288	0
NMTAP	90	312	4
NMTAP	90	336	0
NMTAP	90	360	4
NMTAP	91	0	1
NMTAP	91	24	3
NMTAP	91	48	1
NMTAP	91	72	3
NMTAP	91	96	2
NMTAP	91	120	4
NMTAP	91	144	2
NMTAP	91	168	4
NMTAP	91	192	3
NMTAP	91	216	5
NMTAP	91	240	3
NMTAP	91	264	5
NMTAP	91	288	4
NMTAP	91	312	6
NMTAP	91	336	4
NMTAP	91	360	6
NMTAP	92	0	1
NMTAP	92	24	7
NMTAP	92	48	1
NMTAP	92	72	7
NMTAP	92	96	1
NMTAP	92	120	5
NMTAP	92	144	1
NMTAP	92	168	5
NMTAP	92	192	1
NMTAP	92	216	3
NMTAP	92	240	1
NMTAP	92	264	3
NMTAP	92	288	1
NMTAP	92	312	5
NMTAP	92	336	1
NMTAP	92	360	5
NMTAP	93	0	1
NMTAP	93	24	4
NMTAP	93	48	2
NMTAP	93	72	5
NMTAP	93	96	3
NMTAP	93	120	6
NMTAP	93	144	3
NMTAP	93	168	6
NMTAP	93	192	1
NMTAP	93	216	4
NMTAP	93	240	1
NMTAP	93	264	4
NMTAP	93	288	3
NMTAP	93	312	5
NMTAP	93	336	2
NMTAP	93	360	4
NMTAP	94	0	1
NMTAP	94	24	3
NMTAP	94	48	1
NMTAP	94	72	3
BRHLD	94	96	0	48
NMTAP	94	144	7
NMHLD	94	168	7	48
NMTAP	94	216	3
NMHLD	94	240	3	48
NMTAP	94	288	6
NMTAP	94	312	4
NMTAP	94	336	6
NMTAP	94	360	4
BRHLD	95	0	7	48
NMTAP	95	48	1
NMTAP	95	72	1
NMTAP	95	96	0
NMTAP	95	120	2
NMTAP	95	144	7
NMTAP	95	168	3
NMTAP	95	192	6
NMTAP	95	216	4
NMTAP	95	240	5
NMTAP	95	264	3
NMTAP	95	288	6
NMTAP	95	312	2
NMTAP	95	336	7
NMTAP	95	360	1
NMTAP	96	0	0
NMTAP	96	24	2
NMTAP	96	48	0
NMTAP	96	72	2
NMTAP	96	96	6
NMTAP	96	120	1
NMTAP	96	144	6
NMTAP	96	168	1
NMTAP	96	192	5
NMTAP	96	216	7
NMTAP	96	240	5
NMTAP	96	264	7
NMTAP	96	288	6
NMTAP	96	312	1
NMTAP	96	336	6
NMTAP	96	360	1
NMTAP	97	0	7
NMTAP	97	24	0
NMTAP	97	48	7
NMTAP	97	72	0
NMTAP	97	96	6
NMTAP	97	120	1
NMTAP	97	144	5
NMTAP	97	168	2
NMTAP	97	192	4
NMTAP	97	216	3
NMTAP	97	240	5
NMTAP	97	264	2
NMTAP	97	288	6
NMTAP	97	312	1
NMTAP	97	336	7
NMTAP	97	360	0
BRTAP	98	0	7
NMTAP	98	24	0
NMTAP	98	48	7
NMTAP	98	72	0
NMTAP	98	96	6
NMTAP	98	120	4
NMTAP	98	144	5
NMTAP	98	168	3
NMTAP	98	192	4
NMTAP	98	216	2
NMTAP	98	240	3
NMTAP	98	264	1
NMTAP	98	288	7
NMTAP	98	312	0
NMTAP	98	336	6
NMTAP	98	360	6
BRTAP	99	0	0
NMTAP	99	24	7
NMTAP	99	48	0
NMTAP	99	72	7
NMTAP	99	96	1
NMTAP	99	120	3
NMTAP	99	144	2
NMTAP	99	168	4
NMTAP	99	192	3
NMTAP	99	216	5
NMTAP	99	240	4
NMTAP	99	264	6
NMTAP	99	288	0
NMTAP	99	312	7
NMTAP	99	336	1
NMTAP	99	360	1
BRTAP	100	0	7
NMTAP	100	24	2
NMTAP	100	48	6
NMTAP	100	72	3
NMTAP	100	96	5
NMTAP	100	120	4
NMTAP	100	144	6
NMTAP	100	168	1
NMTAP	100	192	5
NMTAP	100	216	2
NMTAP	100	240	4
NMTAP	100	264	3
NMTAP	100	288	5
NMTAP	100	312	0
NMTAP	100	336	4
NMTAP	100	360	1
BRTAP	101	0	3
NMTAP	101	24	2
NMTAP	101	48	3
NMTAP	101	72	1
NMTAP	101	96	3
NMTAP	101	120	0
NMTAP	101	144	3
NMTAP	101	168	7
NMTAP	101	192	4
NMTAP	101	216	7
NMTAP	101	240	5
NMTAP	101	264	7
NMTAP	101	288	6
NMTAP	101	312	7
NMTAP	101	336	5
NMTAP	101	360	5
BRTAP	102	0	1
NMTAP	102	24	4
NMTAP	102	48	2
NMTAP	102	72	3
NMTAP	102	96	1
NMTAP	102	120	4
NMTAP	102	144	0
NMTAP	102	168	5
BRTAP	102	192	3
NMTAP	102	216	6
NMTAP	102	240	4
NMTAP	102	264	5
NMTAP	102	288	3
NMTAP	102	312	6
NMTAP	102	336	2
NMTAP	102	360	7
BRTAP	103	0	1
NMTAP	103	24	0
NMTAP	103	48	3
NMTAP	103	72	6
BRTAP	103	96	2
NMTAP	103	120	7
NMTAP	103	144	3
NMTAP	103	168	5
BRTAP	103	192	4
NMTAP	103	216	6
NMTAP	103	240	3
NMTAP	103	264	4
BRTAP	103	288	2
NMTAP	103	312	5
NMTAP	103	336	1
NMTAP	103	360	3
BRTAP	104	0	0
NMTAP	104	24	4
BRTAP	104	48	1
NMTAP	104	72	5
BRTAP	104	96	2
NMTAP	104	120	6
BRTAP	104	144	3
NMTAP	104	168	7
BRTAP	104	192	2
NMTAP	104	216	6
BRTAP	104	240	1
NMTAP	104	264	5
BRTAP	104	288	0
NMTAP	104	312	4
BRTAP	104	336	7
NMTAP	104	360	3
BXHLD	105	0	2	192
BXHLD	105	0	6	96
NMTAP	105	192	6
NMTAP	105	208	7
NMTAP	105	224	0
NMTAP	105	240	1
NMTAP	105	256	2
NMTAP	105	272	3
EXTAP	105	288	4
EXTAP	105	288	5
NMTAP	105	300	6
NMTAP	105	312	7
NMTAP	105	324	0
NMTAP	105	336	1
NMTAP	105	348	2
NMTAP	105	360	3
NMTAP	105	372	4
BXSTR	105	383	5
BRSXR	105	383	5	96	673	2
BXSTR	106	0	1
NMSXR	106	0	1	96	672	6
CNSCR	108	0	2	0	768	6
CNSCR	108	0	6	0	768	2

T_REC_TAP	695
T_REC_BRK	47
T_REC_XTP	25
T_REC_BXX	1
T_REC_HLD	55
T_REC_XHO	2
T_REC_BHO	4
T_REC_BXH	2
T_REC_STR	101
T_REC_BST	5
T_REC_XST	10
T_REC_XBS	5
T_REC_TTP	40
T_REC_THO	3
T_REC_SLD	97
T_REC_BSL	24
T_REC_ALL	1116
T_NUM_TAP	871
T_NUM_BRK	88
T_NUM_HLD	60
T_NUM_SLD	97
T_NUM_ALL	1116
T_JUDGE_TAP	929
T_JUDGE_HLD	141
T_JUDGE_SLD	121
T_JUDGE_ALL	1191
TTM_EACHPAIRS	146
TTM_SCR_TAP	435500
TTM_SCR_BRK	228800
TTM_SCR_HLD	60000
TTM_SCR_SLD	145500
TTM_SCR_ALL	869800
TTM_SCR_S	835200
TTM_SCR_SS	861000
TTM_RAT_ACV	10102

