VERSION	0.00.00	1.04.00
FES_MODE	0
BPM_DEF	185.000	185.000	185.000	185.000
MET_DEF	4	4
RESOLUTION	384
CLK_DEF	384
COMPATIBLE_CODE	MA2

BPM	0	0	185.000
MET	0	0	4	4

BXHLD	2	0	0	384
BXSTR	2	0	7
NMSCL	2	0	7	96	1440	1
EXHLD	4	0	0	384
NMTTP	6	0	0	C	1	M1
NMTAP	8	0	0
NMSTR	8	0	7
NMSI_	8	0	7	96	192	3
NMTAP	9	0	2
NMTAP	9	48	2
NMHLD	9	96	1	96
NMHLD	9	192	2	96
NMHLD	9	288	3	96
NMTAP	10	0	4
NMTAP	10	96	2
NMTAP	10	96	3
NMTAP	10	192	3
NMTAP	10	240	3
NMTAP	10	288	2
NMHLD	10	288	4	768
NMTTP	11	0	4	E	0	M1
NMTTP	11	96	3	E	0	M1
NMTTP	11	192	2	E	0	M1
NMTTP	11	288	0	C	0	M1
NMTTP	12	0	7	E	0	M1
NMTTP	12	96	6	E	0	M1
NMTTP	12	192	5	E	0	M1
NMTTP	12	288	4	E	0	M1
NMTAP	13	0	2
NMTAP	13	48	2
NMHLD	13	96	1	96
NMTAP	13	96	3
NMHLD	13	192	2	96
NMHLD	13	288	3	96
NMTAP	14	0	4
NMTAP	14	96	2
NMTAP	14	96	3
NMTAP	14	192	1
NMTAP	14	192	3
NMTAP	14	240	1
NMHLD	14	288	2	672
NMTAP	14	288	4
NMTTP	15	0	4	E	0	M1
NMTTP	15	96	3	E	0	M1
NMTTP	15	192	2	E	0	M1
NMTTP	15	288	0	C	0	M1
NMTTP	16	0	6	E	0	M1
NMTTP	16	96	5	E	0	M1
NMTTP	16	192	0	C	0	M1
NMSTR	17	0	0
BRSI_	17	0	0	96	96	4
NMTAP	17	0	7
NMTAP	17	192	5
NMHLD	17	288	6	96
NMTAP	18	0	4
NMTAP	18	48	4
NMTAP	18	96	5
NMTAP	18	144	3
NMTAP	18	192	6
NMTAP	18	240	6
NMTAP	18	288	4
NMTAP	18	288	6
NMTAP	19	0	3
NMSTR	19	0	7
BRSI_	19	0	7	96	96	3
NMTAP	19	192	2
NMHLD	19	288	1	96
NMTAP	20	0	3
NMTAP	20	48	3
NMTAP	20	96	2
NMTAP	20	144	4
NMTAP	20	192	3
NMTAP	20	240	2
NMTAP	20	288	1
NMTAP	20	288	4
NMSTR	21	0	0
NMSV_	21	0	0	96	96	5
NMTAP	21	0	5
NMSTR	21	192	6
BRSV_	21	192	6	96	96	3
NMTAP	22	0	2
NMTAP	22	48	2
NMTAP	22	96	3
NMTAP	22	144	1
NMTAP	22	192	4
NMTAP	22	288	3
NMTAP	22	288	5
NMHLD	22	336	3	96
NMHLD	22	336	5	96
NMHLD	23	144	2	96
NMHLD	23	144	4	96
NMTAP	23	288	2
NMTAP	23	288	4
NMTAP	24	0	5
NMTAP	24	48	5
NMTAP	24	96	3
NMTAP	24	144	3
NMTAP	24	192	4
NMSTR	24	288	2
NMSCL	24	288	2	96	48	7
NMTAP	24	288	3
BRTAP	25	0	6
NMTAP	25	96	5
NMHLD	25	144	5	96
NMTAP	25	240	4
NMTAP	25	288	4
NMTAP	25	288	6
NMTAP	26	0	0
NMSTR	26	0	1
BRSI_	26	0	1	96	48	4
NMSTR	26	192	6
NMSI_	26	192	6	96	48	3
NMTAP	26	192	7
NMTAP	27	0	0
NMTAP	27	0	1
NMTAP	27	96	2
NMTAP	27	96	7
NMHLD	27	144	2	96
NMTAP	27	144	7
NMTAP	27	240	4
NMTAP	27	288	3
NMTAP	27	288	5
NMTAP	28	0	6
NMTAP	28	0	7
NMTAP	28	96	0
NMTAP	28	96	1
NMSTR	28	192	2
BRSI_	28	192	2	96	48	4
NMSTR	28	192	6
NMSI_	28	192	6	96	48	4
BRTAP	29	0	2
BRTAP	29	0	6
NMTAP	29	96	4
NMTAP	29	96	5
NMTAP	29	144	4
NMTAP	29	144	5
NMTAP	29	240	6
NMTAP	29	240	7
NMTAP	29	336	0
NMTAP	29	336	1
NMTAP	30	48	5
NMTAP	30	48	6
NMTAP	30	144	2
NMTAP	30	144	3
NMSTR	30	240	1
NMSI_	30	240	1	96	48	5
BRTAP	30	336	7
NMTAP	31	96	6
NMHLD	31	144	6	96
NMTAP	31	240	0
NMTAP	31	288	1
NMTAP	31	288	7
BRTAP	32	0	2
NMTAP	32	48	2
NMTAP	32	96	3
NMTAP	32	96	4
NMTAP	32	192	5
NMTAP	32	216	4
NMTAP	32	240	5
NMTAP	32	288	3
NMSTR	32	288	6
NMSI_	32	288	6	96	48	3
BRTAP	33	0	0
NMTAP	33	96	2
NMHLD	33	144	2	96
NMTAP	33	240	3
NMTAP	33	288	1
NMTAP	33	288	3
NMSTR	34	0	6
BRSI_	34	0	6	96	48	3
NMSTR	34	0	7
NMSI_	34	0	7	96	48	3
NMSTR	34	192	0
NMSI_	34	192	0	96	48	4
NMSTR	34	192	1
BRSI_	34	192	1	96	48	4
NMTAP	35	0	6
NMTAP	35	0	7
NMTAP	35	96	0
NMTAP	35	96	5
NMTAP	35	144	0
NMHLD	35	144	5	96
NMTAP	35	240	3
NMTAP	35	288	2
NMTAP	35	288	4
NMTAP	36	0	0
NMTAP	36	0	1
NMTAP	36	96	6
NMTAP	36	96	7
NMSTR	36	192	1
NMSI_	36	192	1	96	48	3
NMSTR	36	192	5
BRSI_	36	192	5	96	48	3
BRTAP	37	0	0
BRTAP	37	0	6
NMTAP	37	96	1
NMTAP	37	96	5
NMHLD	37	144	1	96
NMTAP	37	144	5
NMTAP	37	240	3
NMTAP	37	336	0
NMTAP	37	336	1
NMTAP	38	0	0
NMTAP	38	0	1
NMTAP	38	48	0
NMTAP	38	48	1
EXTAP	38	144	6
EXTAP	38	144	7
NMSTR	38	240	5
NMSCL	38	240	5	96	48	2
NMTAP	38	336	0
EXTAP	39	96	1
EXTAP	39	144	1
NMTAP	39	240	2
NMTAP	39	240	7
NMSTR	39	288	2
BRSI_	39	288	2	96	48	7
NMTAP	39	288	7
NMSTR	40	0	6
NMSI_	40	0	6	96	48	3
NMSTR	40	96	1
BRSI_	40	96	1	96	48	4
NMTAP	40	192	7
NMTAP	40	288	3
NMSTR	40	288	5
NMSCR	40	288	5	96	192	2
EXTAP	41	288	3
EXTAP	41	288	4
NMTAP	42	0	5
NMTAP	42	48	5
NMSTR	42	96	5
NMSLR	42	96	5	96	192	1
NMTAP	43	0	2
NMTAP	43	48	2
NMSTR	43	96	2
NMSLR	43	96	2	96	192	6
NMTAP	44	0	7
NMTAP	44	48	7
NMSTR	44	96	7
NMSLR	44	96	7	96	192	3
NMTAP	45	0	4
NMTAP	45	48	4
NMTAP	45	96	4
NMTAP	45	192	3
NMTAP	45	192	5
NMTAP	45	288	2
NMTAP	45	288	4
NMSTR	46	0	1
NMSCR	46	0	1	96	96	4
NMTAP	46	0	3
NMTAP	46	192	7
NMTAP	46	240	7
NMHLD	46	288	7	96
NMSTR	47	0	4
NMSI_	47	0	4	96	96	1
NMSTR	47	192	6
NMSI_	47	192	6	96	96	3
NMTAP	48	0	2
NMTAP	48	48	2
NMTAP	48	96	2
NMHLD	48	192	1	96
NMTAP	48	192	3
NMTAP	48	288	0
NMHLD	48	336	0	96
NMHLD	49	48	6	96
NMHLD	49	144	4	96
NMTAP	49	240	2
NMTAP	49	288	2
NMSTR	50	0	1
NMSI_	50	0	1	96	96	6
NMTAP	50	0	3
NMSTR	50	96	5
NMSI_	50	96	5	96	96	2
NMTAP	50	288	0
NMSTR	51	0	1
NMSI_	51	0	1	96	96	4
NMSTR	51	96	0
NMSI_	51	96	0	96	96	5
NMTAP	51	288	3
NMSTR	52	0	2
NMSI_	52	0	2	96	96	7
NMSTR	52	96	3
NMSI_	52	96	3	96	96	6
NMTAP	52	288	0
NMSTR	53	0	1
NMSI_	53	0	1	96	96	4
NMSTR	53	0	7
NMSI_	53	0	7	96	96	4
NMTAP	53	288	3
NMTAP	53	288	5
NMSTR	54	0	4
NMSI_	54	0	4	96	96	0
NMTAP	54	0	5
NMSTR	54	96	6
NMSCL	54	96	6	96	96	3
NMTAP	54	288	0
NMTAP	55	0	1
NMSTR	55	0	3
NMSI_	55	0	3	96	96	7
NMSTR	55	96	2
NMSCR	55	96	2	96	96	5
NMTAP	55	288	7
NMSTR	56	0	6
NMSI_	56	0	6	96	96	3
NMSTR	56	96	7
NMSCR	56	96	7	96	96	2
NMSTR	56	288	4
BRSI_	56	288	4	96	96	1
BRSI_	56	288	4	96	96	7
CNSV_	57	96	1	0	96	0
CNSV_	57	96	7	0	96	0
NMHLD	58	0	1	96
NMTAP	58	0	7
NMTAP	58	96	3
NMTAP	58	144	3
NMTAP	58	192	2
NMTAP	58	240	4
NMHLD	58	288	5	96
NMTAP	59	0	4
NMTAP	59	48	4
NMTAP	59	96	5
NMTAP	59	144	3
NMTAP	59	192	4
NMTAP	59	240	2
NMSTR	59	288	1
NMSI_	59	288	1	96	96	7
NMTAP	59	288	3
CNSI_	60	96	7	0	96	3
CNSI_	60	192	3	0	96	5
NMSTR	60	288	6
BRSI_	60	288	6	96	96	0
CNSI_	61	96	0	0	96	4
CNSI_	61	192	4	0	96	2
EXTAP	61	288	1
EXHLD	61	336	1	96
NMTAP	62	48	3
NMTAP	62	96	2
NMTAP	62	144	4
NMTAP	62	192	3
NMTAP	62	240	5
NMTAP	62	288	4
NMTAP	62	336	6
NMHLD	63	0	6	96
NMHLD	63	96	4	96
NMTAP	63	192	3
NMSTR	63	288	2
NMSCL	63	288	2	96	288	4
NMHLD	63	288	4	96
NMSTR	64	288	3
BRSF_	64	288	3	96	48	7
NMTTP	65	192	0	C	1	M1
NMTTP	65	192	2	B	0	M1
NMTTP	65	192	2	E	0	M1
NMTTP	65	192	3	B	0	M1
NMTTP	65	192	3	E	0	M1
NMTTP	65	192	4	B	0	M1
NMTTP	65	192	4	E	0	M1
NMTTP	65	192	5	B	0	M1
NMTTP	65	192	5	E	0	M1
NMTTP	65	192	6	E	0	M1
NMTAP	66	0	1
NMTAP	66	48	1
NMTAP	66	96	7
NMTAP	66	144	7
NMTAP	66	192	0
NMTAP	66	240	0
NMTAP	66	288	6
NMTAP	66	336	6
NMTAP	67	0	4
NMTAP	67	48	4
NMTAP	67	96	5
NMTAP	67	144	5
NMTAP	67	192	3
NMTAP	67	240	3
NMTAP	67	288	6
NMTAP	67	336	6
NMTAP	68	0	0
NMTAP	68	48	0
NMTAP	68	96	5
NMTAP	68	144	5
NMTAP	68	192	1
NMTAP	68	240	1
NMTAP	68	288	3
NMTAP	68	336	3
NMTAP	69	0	2
NMTAP	69	48	2
NMTAP	69	96	4
NMTAP	69	144	3
NMTAP	69	192	5
NMTAP	69	240	5
NMTAP	69	288	4
NMTAP	69	336	6
EXHLD	70	0	6	96
EXHLD	70	0	7	96
NMHLD	70	144	0	96
NMHLD	70	144	5	96
NMTAP	70	288	2
NMTAP	70	288	3
NMHLD	71	0	0	96
NMHLD	71	0	1	96
NMHLD	71	144	2	96
NMHLD	71	144	7	96
NMSTR	71	288	4
NMSSL	71	288	4	96	288	0
NMTAP	71	288	5
BXSTR	73	0	1
BRSI_	73	0	1	96	48	5
BXSTR	73	0	7
NMSI_	73	0	7	96	48	3
BRTAP	73	192	1
BRTAP	73	192	7
BRTAP	74	0	2
BRTAP	74	0	3
NMTAP	74	96	1
NMTAP	74	144	1
NMTAP	74	192	0
NMTAP	74	240	2
NMTAP	74	288	2
NMTAP	74	288	7
NMTAP	75	0	4
NMSTR	75	0	5
NMSI_	75	0	5	96	48	0
NMSTR	75	192	2
BRSI_	75	192	2	96	48	7
NMTAP	75	192	3
NMTAP	76	0	4
NMTAP	76	0	5
NMTAP	76	96	3
NMTAP	76	96	6
NMTAP	76	144	3
NMHLD	76	144	6	96
NMTAP	76	240	0
NMTAP	76	288	1
NMTAP	76	288	7
NMTAP	77	0	2
NMTAP	77	0	3
NMTAP	77	96	4
NMTAP	77	96	5
NMSTR	77	192	1
NMSI_	77	192	1	96	48	4
NMSTR	77	192	7
NMSI_	77	192	7	96	48	4
BRTAP	78	0	2
BRTAP	78	0	6
NMTAP	78	96	0
NMTAP	78	96	1
NMTAP	78	144	0
NMTAP	78	144	1
NMTAP	78	240	6
NMTAP	78	240	7
NMTAP	78	336	2
NMTAP	78	336	3
NMTAP	79	48	4
NMTAP	79	48	6
EXTAP	79	144	2
EXTAP	79	144	3
NMSTR	79	240	1
NMSCL	79	240	1	96	48	6
NMTAP	79	240	4
NMTAP	80	96	5
NMHLD	80	144	5	96
NMTAP	80	240	4
NMTAP	80	288	4
NMTAP	80	288	6
BRTAP	81	0	2
NMTAP	81	48	2
NMTAP	81	96	1
NMTAP	81	120	0
NMTAP	81	144	1
NMTAP	81	192	6
NMTAP	81	216	7
NMTAP	81	240	6
NMTAP	81	288	0
NMTAP	81	288	5
BRTAP	82	0	2
BRTAP	82	0	3
NMTAP	82	96	1
NMTAP	82	144	0
NMTAP	82	192	2
NMTAP	82	240	2
NMTAP	82	288	1
NMTAP	82	288	7
NMSTR	83	0	2
NMSI_	83	0	2	96	48	7
NMTAP	83	0	3
NMTAP	83	192	4
NMSTR	83	192	5
BRSI_	83	192	5	96	48	0
NMTAP	84	0	2
NMTAP	84	0	3
NMTAP	84	96	1
NMTAP	84	96	4
NMHLD	84	144	1	96
NMHLD	84	144	4	96
NMTAP	84	288	6
NMTAP	84	288	7
NMTAP	84	336	6
NMTAP	84	336	7
NMTAP	85	48	4
NMTAP	85	48	5
NMTAP	85	144	3
NMSTR	85	192	3
NMSI_	85	192	3	96	48	0
NMSTR	85	288	7
BRSI_	85	288	7	96	48	4
BRTAP	86	0	2
NMTAP	86	96	1
NMTAP	86	96	3
NMHLD	86	144	1	96
NMTAP	86	144	3
NMHLD	86	240	7	96
NMHLD	86	336	5	96
NMTAP	87	48	4
EXTAP	87	144	2
EXTAP	87	144	3
NMSTR	87	240	1
NMSCL	87	240	1	96	48	6
NMTAP	87	240	4
NMTAP	88	96	5
NMHLD	88	144	5	96
NMTAP	88	240	4
NMTAP	88	288	3
NMTAP	88	288	6
NMSTR	89	0	2
NMSI_	89	0	2	96	48	6
NMSTR	89	96	7
NMSI_	89	96	7	96	48	4
BRSI_	89	96	7	96	48	2
NMTAP	90	0	2
NMTAP	90	48	2
NMTAP	90	96	3
NMTAP	90	144	1
NMTAP	90	192	6
NMTAP	90	240	6
NMTAP	90	288	7
NMTAP	90	336	5
NMTAP	91	0	3
NMTAP	91	48	2
NMTAP	91	96	6
NMTAP	91	144	5
NMTAP	91	192	0
NMTAP	91	240	1
NMTAP	91	288	4
NMTAP	91	336	5
NMTAP	92	0	6
NMTAP	92	24	7
NMTAP	92	48	6
NMTAP	92	72	7
NMTAP	92	96	6
NMTAP	92	120	7
NMTAP	92	144	6
NMTAP	92	192	1
NMTAP	92	216	0
NMTAP	92	240	1
NMTAP	92	264	0
NMTAP	92	288	1
NMTAP	92	312	0
NMTAP	92	336	1
NMSTR	93	0	2
BRSI_	93	0	2	96	48	7
NMSTR	93	0	7
NMSI_	93	0	7	96	48	4
NMSTR	93	192	0
BRSI_	93	192	0	96	48	3
NMSTR	93	192	3
NMSI_	93	192	3	96	48	6
BXTAP	94	0	7
NMTAP	94	48	7
NMTAP	94	96	5
NMTAP	94	144	5
NMTAP	94	192	3
NMTAP	94	240	3
NMTAP	94	288	1
NMTAP	94	336	1
NMTAP	95	0	3
NMTAP	95	48	3
NMTAP	95	96	5
NMTAP	95	144	5
NMTAP	95	192	7
NMTAP	95	240	7
NMTAP	95	288	0
NMTAP	95	288	6
NMTAP	96	0	2
NMTAP	96	24	3
NMTAP	96	48	2
NMTAP	96	72	3
NMTAP	96	96	2
NMTAP	96	120	3
NMTAP	96	144	2
NMTAP	96	192	5
NMTAP	96	216	4
NMTAP	96	240	5
NMTAP	96	264	4
NMTAP	96	288	5
NMTAP	96	312	4
NMTAP	96	336	5
NMTAP	97	0	3
NMTAP	97	24	4
NMTAP	97	48	3
NMTAP	97	72	4
NMTAP	97	96	3
NMTAP	97	120	4
NMTAP	97	144	3
NMTAP	97	192	2
NMTAP	97	192	5
BRTAP	97	288	0
BRTAP	97	288	7
NMSTR	98	0	1
BRSI_	98	0	1	96	48	4
NMSTR	98	96	0
BRSI_	98	96	0	96	48	5
NMSTR	98	192	2
BRSI_	98	192	2	96	48	7
NMTAP	98	288	3
NMSTR	99	0	6
NMSI_	99	0	6	96	48	3
NMSTR	99	96	7
NMSI_	99	96	7	96	48	2
NMSTR	99	192	5
NMSI_	99	192	5	96	48	0
NMTAP	99	288	4
NMSTR	100	0	1
BRSI_	100	0	1	96	48	5
NMSTR	100	96	7
NMSI_	100	96	7	96	48	3
NMSTR	100	192	0
BRSI_	100	192	0	96	48	4
NMSTR	100	288	6
NMSI_	100	288	6	96	48	2
NMSTR	101	0	3
BRSI_	101	0	3	96	48	7
NMSTR	101	96	5
NMSI_	101	96	5	96	48	2
NMTAP	101	192	0
BRTAP	101	288	1
BRTAP	101	288	7
NMSTR	102	0	6
NMSI_	102	0	6	96	48	3
NMTAP	102	48	6
NMSTR	102	96	2
BRSI_	102	96	2	96	48	7
NMTAP	102	144	2
NMTAP	102	192	4
NMTAP	102	240	5
NMTAP	102	288	0
NMTAP	102	336	0
NMSTR	103	0	1
NMSI_	103	0	1	96	48	4
NMTAP	103	48	1
NMSTR	103	96	5
BRSI_	103	96	5	96	48	0
NMTAP	103	144	5
NMTAP	103	192	3
NMTAP	103	240	2
NMTAP	103	288	7
NMTAP	103	336	7
NMTAP	104	0	1
NMTAP	104	48	1
NMTAP	104	96	3
NMTAP	104	144	3
NMTAP	104	192	4
NMTAP	104	240	4
NMTAP	104	288	6
NMTAP	104	336	6
NMTAP	105	0	0
NMTAP	105	24	7
NMTAP	105	48	0
NMTAP	105	72	7
NMTAP	105	96	0
NMTAP	105	120	7
NMTAP	105	144	0
NMTAP	105	168	7
NMTAP	105	192	1
NMTAP	105	216	6
NMTAP	105	240	1
NMTAP	105	264	6
NMTAP	105	288	2
NMTAP	105	312	5
NMTAP	105	336	2
NMTAP	105	360	5
NMTHO	106	0	0	1536	C	0	M1
NMTTP	110	0	1	B	0	M1
NMTTP	110	0	2	B	0	M1
NMTTP	110	0	2	E	0	M1
NMTTP	110	0	5	B	0	M1
NMTTP	110	0	6	B	0	M1
NMTTP	110	0	6	E	0	M1

T_REC_TAP	395
T_REC_BRK	22
T_REC_XTP	11
T_REC_BXX	1
T_REC_HLD	44
T_REC_XHO	4
T_REC_BHO	0
T_REC_BXH	1
T_REC_STR	81
T_REC_BST	0
T_REC_XST	0
T_REC_XBS	3
T_REC_TTP	32
T_REC_THO	1
T_REC_SLD	57
T_REC_BSL	29
T_REC_ALL	681
T_NUM_TAP	519
T_NUM_BRK	56
T_NUM_HLD	49
T_NUM_SLD	57
T_NUM_ALL	681
T_JUDGE_TAP	545
T_JUDGE_HLD	168
T_JUDGE_SLD	86
T_JUDGE_ALL	799
TTM_EACHPAIRS	121
TTM_SCR_TAP	259500
TTM_SCR_BRK	145600
TTM_SCR_HLD	49000
TTM_SCR_SLD	85500
TTM_SCR_ALL	539600
TTM_SCR_S	518000
TTM_SCR_SS	534000
TTM_RAT_ACV	10104

