VERSION	0.00.00	1.04.00
FES_MODE	0
BPM_DEF	185.000	185.000	185.000	185.000
MET_DEF	4	4
RESOLUTION	384
CLK_DEF	384
COMPATIBLE_CODE	MA2

BPM	0	0	185.000
MET	0	0	4	4

NMSTR	2	0	5
NMSI_	2	0	5	96	192	2
NMSTR	3	0	1
NMSI_	3	0	1	96	192	4
NMSTR	4	0	6
NMSI_	4	0	6	96	192	2
NMSTR	5	0	0
NMSI_	5	0	0	96	192	4
EXSTR	6	0	5
NMSCR	6	0	5	96	672	3
NMTAP	9	0	2
NMTAP	9	96	2
NMTAP	9	192	3
NMTAP	9	288	3
NMTAP	10	0	4
NMTAP	10	96	4
NMTAP	10	192	4
NMTAP	10	192	5
NMTAP	11	0	5
NMTAP	11	96	5
NMTAP	11	192	4
NMTAP	11	288	4
NMTAP	12	0	3
NMTAP	12	96	3
NMTAP	12	192	2
NMTAP	12	192	3
NMTAP	13	0	1
NMTAP	13	96	1
NMTAP	13	192	2
NMTAP	13	288	2
NMTAP	14	0	3
NMTAP	14	96	3
NMTAP	14	192	4
NMTAP	14	192	5
NMTAP	15	0	6
NMTAP	15	96	6
NMTAP	15	192	5
NMTAP	15	288	5
NMTAP	16	0	4
NMTAP	16	96	4
NMTAP	16	192	2
NMTAP	16	192	3
NMTTP	17	0	1	B	0	L1
NMTTP	17	96	2	B	0	L1
NMTTP	17	192	3	B	0	L1
NMTTP	18	0	6	B	0	L1
NMTTP	18	96	5	B	0	L1
NMTTP	18	192	4	B	0	L1
NMTTP	19	0	1	B	0	L1
NMTTP	19	96	2	B	0	L1
NMTTP	19	192	3	B	0	L1
NMTTP	19	288	4	B	0	L1
NMTTP	20	0	5	B	0	L1
NMTTP	20	96	6	B	0	L1
NMTTP	20	192	0	C	0	L1
NMTTP	21	0	7	B	0	L1
NMTTP	21	96	6	B	0	L1
NMTTP	21	192	4	B	0	L1
NMTTP	21	192	5	B	0	L1
NMTTP	22	0	0	B	0	L1
NMTTP	22	96	1	B	0	L1
NMTTP	22	192	2	B	0	L1
NMTTP	22	192	3	B	0	L1
NMTTP	23	0	7	B	0	L1
NMTTP	23	96	6	B	0	L1
NMTTP	23	192	5	B	0	L1
NMTTP	23	288	4	B	0	L1
NMTTP	24	0	3	B	0	L1
NMTTP	24	96	2	B	0	L1
NMTTP	24	192	0	C	0	L1
NMTAP	25	0	1
NMTAP	25	96	1
NMTAP	25	192	0
NMTAP	25	288	0
NMTAP	26	0	7
NMTAP	26	96	7
NMTAP	26	192	6
NMTAP	26	192	7
NMTAP	27	0	5
NMTAP	27	96	5
NMTAP	27	192	6
NMTAP	27	288	6
NMTAP	28	0	7
NMTAP	28	96	7
NMTAP	28	192	0
NMTAP	28	192	1
NMTAP	29	0	1
NMTAP	29	96	1
NMTAP	29	192	2
NMTAP	29	288	2
NMTAP	30	0	3
NMTAP	30	96	3
NMTAP	30	192	4
NMTAP	30	192	5
NMTAP	31	0	6
NMTAP	31	96	6
NMTAP	31	192	5
NMTAP	31	288	5
NMTAP	32	0	4
NMTAP	32	96	4
NMTAP	32	192	2
NMTAP	32	192	3
NMTAP	33	0	2
NMTAP	33	96	2
NMTAP	33	192	0
NMTAP	33	192	1
NMTAP	33	288	0
NMTAP	33	288	1
NMTAP	34	0	7
NMTAP	34	96	7
NMTAP	34	192	6
NMTAP	34	192	7
NMTAP	35	0	5
NMTAP	35	96	5
NMTAP	35	192	6
NMTAP	35	192	7
NMTAP	35	288	6
NMTAP	35	288	7
NMTAP	36	0	0
NMTAP	36	96	0
NMTAP	36	192	0
NMTAP	36	192	1
NMTAP	37	0	1
NMTAP	37	96	1
NMTAP	37	192	2
NMTAP	37	192	3
NMTAP	37	288	2
NMTAP	37	288	3
NMTAP	38	0	4
NMTAP	38	96	4
NMTAP	38	192	4
NMTAP	38	192	5
NMTAP	39	0	6
NMTAP	39	96	6
NMTAP	39	192	4
NMTAP	39	192	5
NMTAP	39	288	4
NMTAP	39	288	5
NMTAP	40	0	3
NMTAP	40	96	3
NMTAP	40	192	2
NMTAP	40	192	3
NMHLD	41	0	3	192
NMHLD	41	0	4	192
NMHLD	42	0	2	192
NMTAP	42	192	3
NMTAP	43	0	2
NMTAP	43	0	3
NMTAP	43	96	2
NMTAP	43	96	3
NMTAP	43	192	2
NMTAP	43	192	3
NMHLD	44	0	1	192
NMTAP	44	192	0
NMTAP	45	0	0
NMTAP	45	0	1
NMTAP	45	96	0
NMTAP	45	96	1
NMTAP	45	192	0
NMTAP	45	192	1
NMHLD	46	0	6	192
NMTAP	46	192	7
NMTAP	47	0	6
NMTAP	47	0	7
NMTAP	47	96	6
NMTAP	47	96	7
NMTAP	47	192	6
NMTAP	47	192	7
NMHLD	48	0	5	192
NMTAP	48	192	4
NMTAP	49	0	4
NMTAP	49	0	5
NMTAP	49	96	4
NMTAP	49	96	5
NMTAP	49	192	4
NMTAP	49	192	5
NMHLD	50	0	6	192
NMTAP	50	192	7
NMTAP	51	0	6
NMTAP	51	0	7
NMTAP	51	96	6
NMTAP	51	96	7
NMTAP	51	192	6
NMTAP	51	192	7
NMHLD	52	0	1	192
NMTAP	52	192	0
NMTAP	53	0	0
NMTAP	53	0	1
NMTAP	53	96	0
NMTAP	53	96	1
NMTAP	53	192	0
NMTAP	53	192	1
NMHLD	54	0	2	192
NMTAP	54	192	3
NMTAP	55	0	2
NMTAP	55	0	3
NMTAP	55	96	2
NMTAP	55	96	3
NMTAP	55	192	2
NMTAP	55	192	3
NMHLD	56	0	5	192
NMTAP	56	192	4
NMTAP	57	0	4
NMTAP	57	0	5
NMTAP	57	96	4
NMTAP	57	96	5
NMTAP	57	192	4
NMTAP	57	192	5
NMTAP	58	0	6
NMTAP	58	96	6
NMTAP	58	192	5
NMTAP	58	288	5
NMTAP	59	0	4
NMTAP	59	96	4
NMTAP	59	192	2
NMTAP	59	192	3
NMTAP	60	0	1
NMTAP	60	96	1
NMTAP	60	192	2
NMTAP	60	288	2
NMTAP	61	0	3
NMTAP	61	96	3
NMTAP	61	192	4
NMTAP	61	192	5
NMTAP	62	0	6
NMTAP	62	96	5
NMTAP	62	192	4
NMTAP	62	288	3
NMTAP	63	0	2
NMTAP	63	96	1
NMTAP	63	192	0
NMTAP	63	288	7
NMTAP	64	0	6
NMTAP	64	96	5
NMTAP	64	192	4
NMTAP	64	288	3
NMTAP	65	0	2
NMTAP	65	96	1
BRTAP	65	192	0
BRTAP	65	192	7
NMSTR	66	0	6
NMSI_	66	0	6	96	192	2
NMSTR	67	0	1
NMSI_	67	0	1	96	192	5
NMSTR	68	0	7
NMSI_	68	0	7	96	192	3
NMTAP	69	0	2
NMTAP	69	96	2
NMTAP	69	192	2
NMTAP	69	192	3
NMSTR	70	0	1
NMSI_	70	0	1	96	192	5
NMSTR	71	0	6
NMSI_	71	0	6	96	192	2
NMSTR	72	0	0
NMSI_	72	0	0	96	192	4
NMTAP	73	0	5
NMTAP	73	96	5
NMTAP	73	192	3
NMTAP	73	192	4
NMTAP	74	0	2
NMTAP	74	96	2
NMTAP	74	192	1
NMTAP	74	240	1
NMTAP	74	288	1
NMTAP	75	0	0
NMTAP	75	96	0
NMTAP	75	192	6
NMTAP	75	192	7
NMTAP	76	0	5
NMTAP	76	96	5
NMTAP	76	192	6
NMTAP	76	240	6
NMTAP	76	288	6
NMTAP	77	0	7
NMTAP	77	96	7
NMTAP	77	192	0
NMTAP	77	192	1
NMTAP	78	0	1
NMTAP	78	96	1
NMTAP	78	192	2
NMTAP	78	240	2
NMTAP	78	288	2
NMTAP	79	0	3
NMTAP	79	96	3
NMTAP	79	192	4
NMTAP	79	192	5
NMTAP	80	0	6
NMTAP	80	96	6
NMTAP	80	192	5
NMTAP	80	240	5
NMTAP	80	288	5
NMTAP	81	0	4
NMTAP	81	96	4
NMTAP	81	192	2
NMTAP	81	192	3
NMTAP	82	0	2
NMTAP	82	48	2
NMTAP	82	96	2
NMTAP	82	192	0
NMTAP	82	192	1
NMTAP	82	288	0
NMTAP	82	288	1
NMTAP	83	0	7
NMTAP	83	48	7
NMTAP	83	96	7
NMTAP	83	192	6
NMTAP	83	192	7
NMTAP	84	0	5
NMTAP	84	48	5
NMTAP	84	96	5
NMTAP	84	192	6
NMTAP	84	192	7
NMTAP	84	288	6
NMTAP	84	288	7
NMTAP	85	0	0
NMTAP	85	48	0
NMTAP	85	96	0
NMTAP	85	192	0
NMTAP	85	192	1
NMTAP	86	0	1
NMTAP	86	48	1
NMTAP	86	96	1
NMTAP	86	192	2
NMTAP	86	192	3
NMTAP	86	288	2
NMTAP	86	288	3
NMTAP	87	0	4
NMTAP	87	48	4
NMTAP	87	96	4
NMTAP	87	192	4
NMTAP	87	192	5
NMTAP	88	0	6
NMTAP	88	48	6
NMTAP	88	96	6
NMTAP	88	192	4
NMTAP	88	192	5
NMTAP	88	288	4
NMTAP	88	288	5
NMTAP	89	0	3
NMTAP	89	48	3
NMTAP	89	96	3
NMTAP	89	192	2
NMTAP	89	192	3
NMTAP	90	0	2
NMTAP	90	48	2
NMTAP	90	96	2
NMTAP	90	192	1
NMTAP	90	240	1
NMTAP	90	288	1
NMTAP	91	0	0
NMTAP	91	48	0
NMTAP	91	96	0
NMTAP	91	192	6
NMTAP	91	192	7
NMTAP	92	0	5
NMTAP	92	48	5
NMTAP	92	96	5
NMTAP	92	192	6
NMTAP	92	240	6
NMTAP	92	288	6
NMTAP	93	0	7
NMTAP	93	48	7
NMTAP	93	96	7
NMTAP	93	192	0
NMTAP	93	192	1
NMTAP	94	0	1
NMTAP	94	48	1
NMTAP	94	96	1
NMTAP	94	192	2
NMTAP	94	240	2
NMTAP	94	288	2
NMTAP	95	0	3
NMTAP	95	48	3
NMTAP	95	96	3
NMTAP	95	192	4
NMTAP	95	192	5
NMTAP	96	0	6
NMTAP	96	48	6
NMTAP	96	96	6
NMTAP	96	192	5
NMTAP	96	240	5
NMTAP	96	288	5
NMTAP	97	0	4
NMTAP	97	48	4
NMTAP	97	96	4
NMTAP	97	192	2
NMTAP	97	192	3
NMTAP	98	0	1
NMTAP	98	48	1
NMTAP	98	96	1
NMTAP	98	192	2
NMTAP	98	240	2
NMTAP	98	288	2
NMTAP	99	0	3
NMTAP	99	48	3
NMTAP	99	96	3
NMTAP	99	192	4
NMTAP	99	240	4
NMTAP	99	288	4
NMTAP	100	0	5
NMTAP	100	48	5
NMTAP	100	96	5
NMTAP	100	192	6
NMTAP	100	240	6
NMTAP	100	288	6
NMTAP	101	0	7
NMTAP	101	48	7
NMTAP	101	96	7
NMTAP	101	192	0
NMTAP	101	192	7
NMTAP	102	0	6
NMTAP	102	48	6
NMTAP	102	96	6
NMTAP	102	192	5
NMTAP	102	240	5
NMTAP	102	288	5
NMTAP	103	0	4
NMTAP	103	48	4
NMTAP	103	96	4
NMTAP	103	192	3
NMTAP	103	240	3
NMTAP	103	288	3
NMTAP	104	0	2
NMTAP	104	48	2
NMTAP	104	96	2
NMTAP	104	192	1
NMTAP	104	240	1
NMTAP	104	288	1
NMTAP	105	0	0
NMTAP	105	48	0
NMTAP	105	96	0
BRTAP	105	192	0
BRTAP	105	192	7
NMSTR	106	0	1
NMSUR	106	0	1	96	480	4
NMSTR	108	0	6
NMSXR	108	0	6	96	672	3

T_REC_TAP	370
T_REC_BRK	4
T_REC_XTP	0
T_REC_BXX	0
T_REC_HLD	10
T_REC_XHO	0
T_REC_BHO	0
T_REC_BXH	0
T_REC_STR	12
T_REC_BST	0
T_REC_XST	1
T_REC_XBS	0
T_REC_TTP	28
T_REC_THO	0
T_REC_SLD	13
T_REC_BSL	0
T_REC_ALL	438
T_NUM_TAP	411
T_NUM_BRK	4
T_NUM_HLD	10
T_NUM_SLD	13
T_NUM_ALL	438
T_JUDGE_TAP	415
T_JUDGE_HLD	40
T_JUDGE_SLD	13
T_JUDGE_ALL	468
TTM_EACHPAIRS	72
TTM_SCR_TAP	205500
TTM_SCR_BRK	10400
TTM_SCR_HLD	10000
TTM_SCR_SLD	19500
TTM_SCR_ALL	245400
TTM_SCR_S	237650
TTM_SCR_SS	245000
TTM_RAT_ACV	10016

