VERSION	0.00.00	1.04.00
FES_MODE	0
BPM_DEF	131.000	131.000	131.000	 65.500
MET_DEF	4	4
RESOLUTION	384
CLK_DEF	384
COMPATIBLE_CODE	MA2

BPM	0	0	131.000
BPM	46	0	 65.500
BPM	49	0	131.000
BPM	69	0	 65.500
MET	0	0	4	4
MET	46	0	4	3
MET	49	0	4	4
MET	69	0	4	3

BRHLD	2	0	1	384
BRTAP	2	0	5
NMTAP	3	0	3
NMTAP	3	24	1
NMTAP	3	48	3
NMTAP	3	72	1
NMTAP	3	96	4
NMTAP	3	120	2
NMTAP	3	144	4
NMTAP	3	168	2
NMTAP	3	192	5
NMTAP	3	216	3
NMTAP	3	240	5
NMTAP	3	264	3
NMTAP	3	288	5
NMTAP	3	336	4
NMTAP	3	336	5
BRTAP	4	0	2
BRHLD	4	0	6	384
NMTAP	5	0	4
NMTAP	5	24	4
NMTAP	5	48	6
NMTAP	5	72	6
NMTAP	5	96	3
NMTAP	5	120	3
NMTAP	5	144	5
NMTAP	5	168	5
NMTAP	5	192	1
NMTAP	5	216	4
NMTAP	5	240	2
NMTAP	5	264	3
BRTAP	5	288	0
NMSTR	6	0	1
NMSI_	6	0	1	96	48	3
NMTAP	6	0	3
NMTAP	6	48	3
NMTAP	6	96	4
NMTAP	6	144	5
NMTAP	6	192	4
NMSTR	6	192	6
NMSI_	6	192	6	96	48	4
NMTAP	6	240	4
NMTAP	6	288	3
NMTAP	6	336	2
NMTAP	7	0	1
NMTAP	7	24	3
NMTAP	7	48	2
NMTAP	7	72	4
NMTAP	7	96	3
NMTAP	7	120	5
NMTAP	7	144	4
NMTAP	7	168	6
NMTAP	7	192	3
NMTAP	7	216	5
NMTAP	7	240	2
NMTAP	7	264	4
NMTAP	7	288	1
NMTAP	7	336	0
NMTAP	7	336	4
NMSTR	8	0	5
NMSV_	8	0	5	96	48	7
NMTAP	8	0	7
NMTAP	8	48	7
NMTAP	8	96	0
NMTAP	8	144	1
NMTAP	8	192	0
NMSTR	8	192	2
NMSV_	8	192	2	96	48	0
NMTAP	8	240	0
NMTAP	8	288	7
NMTAP	8	336	6
NMTTP	9	0	1	D	0	M1
NMTTP	9	8	1	A	0	M1
NMTTP	9	16	2	D	0	M1
NMTTP	9	48	7	D	0	M1
NMTTP	9	56	6	A	0	M1
NMTTP	9	64	6	D	0	M1
NMTTP	9	96	0	E	0	M1
NMTTP	9	104	0	C	0	M1
NMTTP	9	112	4	E	0	M1
NMTAP	9	144	5
EXTAP	9	192	0
EXTAP	9	192	7
EXTAP	9	224	0
EXTAP	9	224	7
EXTAP	9	256	0
EXTAP	9	256	7
BXTAP	9	288	1
BXTAP	9	288	6
NMTAP	10	0	1
NMTAP	10	0	5
NMTAP	10	48	2
NMTAP	10	96	4
NMTAP	10	144	3
NMTAP	10	192	3
NMTAP	10	192	6
NMTAP	10	240	5
NMTAP	10	288	3
NMTAP	10	336	4
NMTAP	11	0	1
NMTAP	11	0	4
NMTAP	11	48	2
NMTAP	11	72	2
NMTAP	11	96	4
NMTAP	11	144	3
NMTAP	11	192	4
NMTAP	11	192	6
NMTAP	11	240	5
NMTAP	11	288	3
NMTAP	11	288	4
NMTAP	11	336	2
NMSTR	12	0	1
NMSLR	12	0	1	96	96	6
NMTAP	12	48	1
NMSTR	12	96	6
NMSLL	12	96	6	96	96	1
NMTAP	12	144	7
NMTAP	12	192	0
NMTAP	12	240	7
NMSTR	12	288	6
NMSI_	12	288	6	96	48	3
NMTAP	12	336	6
NMSTR	13	0	2
NMSI_	13	0	2	96	48	0
NMTAP	13	48	1
NMSTR	13	96	4
NMSSL	13	96	4	96	96	0
NMTAP	13	144	5
NMTAP	14	0	2
NMTAP	14	0	6
NMTAP	14	48	5
NMTAP	14	96	3
NMTAP	14	144	4
NMTAP	14	192	1
NMTAP	14	192	4
NMTAP	14	240	2
NMTAP	14	288	4
NMTAP	14	336	3
NMTAP	15	0	3
NMTAP	15	0	6
NMTAP	15	48	5
NMTAP	15	72	5
NMTAP	15	96	3
NMTAP	15	144	4
NMTAP	15	192	1
NMTAP	15	192	3
NMTAP	15	240	2
NMTAP	15	288	3
NMTAP	15	288	4
NMTAP	15	336	5
NMSTR	16	0	6
NMSI_	16	0	6	96	48	0
NMTAP	16	48	6
NMSTR	16	96	1
NMSI_	16	96	1	96	48	4
NMTAP	16	144	2
NMSTR	16	192	7
NMSCL	16	192	7	96	48	4
NMTAP	16	240	6
NMSTR	16	288	3
NMSXL	16	288	3	96	96	3
NMSTR	17	0	3
NMSXR	17	0	3	96	96	3
NMTAP	17	192	4
BRTAP	17	288	1
BRTAP	17	288	6
NMTAP	18	0	2
NMTAP	18	0	7
NMHLD	18	48	2	240
NMTAP	18	48	7
NMTTP	18	144	0	E	0	M1
NMTTP	18	168	1	E	0	M1
NMTTP	18	192	2	E	0	M1
NMTTP	18	216	3	E	0	M1
NMTTP	18	240	4	E	0	M1
NMTTP	18	264	5	E	0	M1
NMTTP	18	288	6	E	0	M1
NMTAP	19	0	0
NMTAP	19	0	5
NMTAP	19	48	0
NMHLD	19	48	5	240
NMTTP	19	144	0	E	0	M1
NMTTP	19	168	7	E	0	M1
NMTTP	19	192	6	E	0	M1
NMTTP	19	216	5	E	0	M1
NMTTP	19	240	4	E	0	M1
NMTTP	19	264	3	E	0	M1
NMTTP	19	288	2	E	0	M1
NMHLD	20	0	1	48
NMHLD	20	0	7	48
NMHLD	20	96	0	48
NMHLD	20	96	2	48
NMHLD	20	192	1	48
NMHLD	20	192	3	48
NMHLD	20	288	2	48
NMHLD	20	288	4	48
NMTAP	21	0	5
NMHLD	21	48	5	144
NMTAP	21	96	3
NMTAP	21	144	1
NMSTR	21	192	7
NMSF_	21	192	7	96	48	3
BRTAP	21	288	7
NMHLD	22	0	2	48
NMTAP	22	0	4
NMTAP	22	48	6
NMHLD	22	96	3	48
NMTAP	22	96	7
NMTAP	22	144	6
NMTAP	22	192	3
NMHLD	22	192	5	48
NMTAP	22	240	1
NMTAP	22	288	0
NMHLD	22	288	4	48
NMTAP	22	336	1
NMHLD	23	0	2	48
NMTAP	23	0	3
NMTAP	23	48	5
NMHLD	23	96	3	48
NMTAP	23	96	7
NMTAP	23	144	6
NMTAP	23	192	4
NMHLD	23	192	5	48
NMTAP	23	240	2
NMTAP	23	288	0
NMTAP	23	288	4
NMTAP	23	336	1
NMTAP	23	336	3
NMHLD	24	0	1	96
NMHLD	24	0	3	48
NMTAP	24	144	4
NMTAP	24	144	6
NMHLD	24	192	4	48
NMHLD	24	192	6	96
NMTAP	24	336	4
NMTAP	24	336	5
NMTAP	25	0	6
NMTAP	25	0	7
NMTAP	25	48	0
NMTAP	25	48	1
NMTAP	25	96	2
NMTAP	25	96	3
NMTAP	25	144	4
NMTAP	25	144	5
NMSTR	25	192	2
NMSV_	25	192	2	96	48	7
NMSTR	25	192	6
NMSV_	25	192	6	96	48	3
NMTAP	25	288	2
NMTAP	25	288	6
BRSTR	26	0	0
NMSI_	26	0	0	96	60	2
BRTAP	26	0	4
CNSV_	26	156	2	0	96	1
NMTAP	26	192	5
CNSLR	26	252	1	0	132	5
NMTAP	26	288	6
NMSTR	27	0	7
NMSI_	27	0	7	96	60	5
CNSV_	27	156	5	0	96	6
NMTAP	27	192	2
CNSLL	27	252	6	0	132	2
NMTAP	27	288	1
NMSTR	28	0	0
NMSCR	28	0	0	96	84	3
CNSLR	28	180	3	0	108	1
NMTAP	28	192	6
NMTAP	28	288	7
NMTTP	29	0	0	E	0	M1
NMTTP	29	48	1	E	0	M1
NMTTP	29	48	7	E	0	M1
NMTTP	29	96	2	E	0	M1
NMTTP	29	96	6	E	0	M1
NMTTP	29	144	3	E	0	M1
NMTTP	29	144	5	E	0	M1
NMTTP	29	192	4	E	0	M1
BRTAP	29	288	1
BRSTR	29	288	6
NMSI_	29	288	6	96	48	3
NMSTR	30	0	2
NMSCL	30	0	2	96	48	7
NMTAP	30	0	6
NMTAP	30	48	1
NMTAP	30	96	2
NMTAP	30	96	4
NMTAP	30	144	5
NMTAP	30	168	5
NMSTR	30	192	7
NMSI_	30	192	7	96	48	3
NMTAP	30	216	6
NMTAP	30	240	0
NMSTR	30	288	1
NMSI_	30	288	1	96	48	4
NMTAP	30	288	7
NMTAP	31	0	1
NMSTR	31	0	5
NMSCR	31	0	5	96	48	0
NMTAP	31	48	6
NMTAP	31	96	3
NMTAP	31	96	5
NMTAP	31	144	2
NMTAP	31	168	2
NMSTR	31	192	0
NMSI_	31	192	0	96	48	4
NMTAP	31	216	1
NMTAP	31	240	7
NMTAP	31	288	0
NMTAP	31	288	5
NMSTR	32	0	3
NMSI_	32	0	3	96	48	7
NMTAP	32	48	2
NMSTR	32	96	1
NMSI_	32	96	1	96	48	5
NMTAP	32	144	0
NMSTR	32	192	7
NMSI_	32	192	7	96	48	3
NMTAP	32	240	6
NMSTR	32	288	5
NMSCL	32	288	5	96	96	6
NMTAP	32	336	4
NMHLD	33	0	3	96
NMTAP	33	144	2
NMTAP	33	168	3
NMSTR	33	192	1
NMSI_	33	192	1	96	48	4
NMSTR	33	192	4
NMSI_	33	192	4	96	48	7
BRTAP	33	288	1
BRTAP	33	288	4
NMTAP	34	0	4
NMTAP	34	0	6
NMTAP	34	48	3
NMTAP	34	96	4
NMTAP	34	96	6
NMSTR	34	144	7
NMSI_	34	144	7	96	24	4
NMSTR	34	192	7
NMSI_	34	192	7	96	48	2
EXTAP	34	240	7
EXTAP	34	288	7
NMTAP	34	336	3
NMTAP	34	360	3
NMTAP	35	0	1
NMTAP	35	0	3
NMTAP	35	48	4
NMTAP	35	96	1
NMTAP	35	96	3
NMSTR	35	144	0
NMSCR	35	144	0	96	48	3
NMSTR	35	192	0
NMSCL	35	192	0	96	48	5
EXTAP	35	240	0
EXTAP	35	288	0
NMTAP	36	0	1
NMTAP	36	24	3
NMTAP	36	48	2
NMTAP	36	72	5
NMTAP	36	96	4
NMTAP	36	144	6
NMTAP	36	144	7
NMTAP	36	192	6
NMTAP	36	216	4
NMTAP	36	240	5
NMTAP	36	264	2
NMSTR	36	288	3
NMSI_	36	288	3	96	48	7
NMTAP	36	336	2
NMTAP	36	336	4
NMSTR	37	0	3
NMSCL	37	0	3	96	48	0
NMSCR	37	0	3	96	48	6
NMSTR	37	96	3
NMSF_	37	96	3	96	48	7
NMTAP	37	192	3
BRSTR	37	288	1
NMSI_	37	288	1	96	48	4
BRTAP	37	288	5
NMTAP	38	0	1
NMSTR	38	0	5
NMSCR	38	0	5	96	48	0
NMTAP	38	48	6
NMTAP	38	96	3
NMTAP	38	96	5
NMTAP	38	144	2
NMTAP	38	168	2
NMSTR	38	192	0
NMSI_	38	192	0	96	48	4
NMTAP	38	216	1
NMTAP	38	240	7
NMTAP	38	288	0
NMSTR	38	288	6
NMSI_	38	288	6	96	48	3
NMSTR	39	0	2
NMSCL	39	0	2	96	48	7
NMTAP	39	0	6
NMTAP	39	48	1
NMTAP	39	96	2
NMTAP	39	96	4
NMTAP	39	144	5
NMTAP	39	168	5
NMSTR	39	192	7
NMSI_	39	192	7	96	48	3
NMTAP	39	216	6
NMTAP	39	240	0
NMTAP	39	288	1
NMTAP	39	288	7
NMSTR	40	0	4
NMSI_	40	0	4	96	48	0
NMTAP	40	48	5
NMSTR	40	96	6
NMSI_	40	96	6	96	48	2
NMTAP	40	144	7
NMSTR	40	192	0
NMSI_	40	192	0	96	48	4
NMTAP	40	240	1
NMSTR	40	288	2
NMSCR	40	288	2	96	96	1
NMTAP	40	336	3
NMHLD	41	0	4	96
NMTAP	41	144	5
NMTAP	41	168	4
NMSTR	41	192	3
NMSV_	41	192	3	96	48	0
NMSTR	41	192	6
NMSCL	41	192	6	96	16	5
BRTAP	41	288	3
BRTAP	41	288	6
CNSI_	41	304	5	0	32	3
NMTAP	42	0	0
NMTAP	42	0	3
NMTAP	42	48	3
NMTAP	42	96	2
NMTAP	42	144	3
NMTAP	42	144	7
NMTAP	42	192	3
NMTAP	42	192	7
NMTAP	42	240	6
NMSTR	42	288	4
NMSI_	42	288	4	96	48	7
NMSTR	42	288	5
NMSI_	42	288	5	96	48	7
NMTAP	42	336	3
BRSTR	43	0	4
NMSI_	43	0	4	96	48	2
BRSTR	43	0	5
NMSI_	43	0	5	96	48	2
BRSTR	43	96	4
NMSUR	43	96	4	96	96	5
BRSTR	43	96	5
NMSCR	43	96	5	96	96	4
BRTAP	43	192	4
BRTAP	43	192	5
NMTTP	43	204	6	E	0	M1
NMTTP	43	216	7	E	0	M1
NMTTP	43	228	0	E	0	M1
NMTTP	43	240	1	E	0	M1
NMTTP	43	252	2	E	0	M1
NMTTP	43	264	3	E	0	M1
NMTTP	43	276	4	E	0	M1
NMTTP	43	288	5	E	0	M1
NMTAP	44	0	4
NMHLD	44	0	6	96
NMTAP	44	48	7
NMTAP	44	64	0
NMTAP	44	80	1
NMTAP	44	96	2
NMTAP	44	144	4
NMTAP	44	144	6
NMHLD	44	192	1	96
NMTAP	44	192	3
NMTAP	44	240	0
NMTAP	44	256	7
NMTAP	44	272	6
NMTAP	44	288	5
NMTAP	44	336	1
NMTAP	44	336	3
NMTAP	45	0	3
NMTAP	45	0	5
NMTAP	45	48	7
NMTAP	45	60	0
NMTAP	45	60	6
NMTAP	45	72	1
NMTAP	45	72	5
NMTAP	45	84	2
NMTAP	45	84	4
NMTAP	45	96	3
NMTAP	45	144	2
NMTAP	45	168	3
NMTAP	45	216	6
NMTAP	45	240	4
NMTAP	45	264	7
NMSTR	45	288	7
NMSI_	45	288	7	96	24	3
NMTAP	45	336	0
NMTAP	45	336	6
BRHLD	46	0	2	96
BRTAP	46	0	7
NMHLD	46	96	3	96
NMHLD	46	192	4	96
NMHLD	46	288	5	96
NMHLD	47	0	2	96
NMTTP	47	64	3	E	0	M1
NMHLD	47	96	3	96
NMTTP	47	160	4	E	0	M1
NMHLD	47	192	4	96
NMTTP	47	256	5	E	0	M1
NMHLD	47	288	5	96
NMTTP	47	352	0	C	0	M1
NMHLD	48	0	1	96
NMTTP	48	32	5	B	0	M1
NMTTP	48	32	5	E	0	M1
NMTTP	48	64	2	B	0	M1
NMTTP	48	64	3	E	0	M1
NMHLD	48	96	3	96
NMTTP	48	128	5	B	0	M1
NMTTP	48	128	5	E	0	M1
NMTTP	48	160	2	B	0	M1
NMTTP	48	160	3	E	0	M1
NMHLD	48	192	4	160
NMTTP	48	224	5	B	0	M1
NMTTP	48	224	5	E	0	M1
NMTTP	48	256	2	B	0	M1
NMTTP	48	256	3	E	0	M1
NMHLD	48	288	6	64
NMTAP	49	0	3
NMHLD	49	0	7	48
NMTAP	49	48	3
NMHLD	49	96	2	48
NMTAP	49	96	6
NMTAP	49	144	6
NMTAP	49	192	1
NMHLD	49	192	5	48
NMTAP	49	240	1
NMHLD	49	288	0	48
NMTAP	49	288	4
NMTAP	49	336	4
NMTAP	50	0	1
NMTAP	50	24	2
NMTAP	50	48	3
NMTAP	50	72	4
NMTAP	50	96	2
NMTAP	50	120	3
NMTAP	50	144	4
NMTAP	50	168	5
NMTAP	50	192	3
NMTAP	50	216	3
NMTAP	50	240	5
NMTAP	50	264	5
NMTAP	50	288	2
NMTAP	50	336	1
NMTAP	50	336	6
NMTAP	51	0	0
NMTAP	51	16	7
NMTAP	51	32	0
NMTAP	51	48	7
NMTAP	51	64	0
NMTAP	51	80	7
NMTAP	51	96	0
NMTAP	51	112	7
NMTAP	51	128	0
NMTAP	51	144	7
NMTAP	51	160	0
NMTAP	51	176	7
NMTAP	51	192	0
NMTAP	51	208	7
NMTAP	51	224	0
NMTAP	51	240	7
NMTAP	51	256	0
NMTAP	51	272	7
NMSTR	51	288	0
NMSI_	51	288	0	96	48	4
NMTAP	51	304	7
NMTAP	51	320	0
NMTAP	51	336	7
NMTAP	51	352	0
NMTAP	51	368	7
BRTAP	52	0	0
NMTTP	52	12	0	B	0	M1
NMTTP	52	24	0	C	1	M1
NMTTP	52	36	4	B	0	M1
NMTAP	53	0	3
NMHLD	53	0	4	384
NMTAP	53	192	5
NMTAP	53	288	6
NMSTR	54	0	7
NMSCR	54	0	7	96	192	3
NMTAP	54	96	4
NMTAP	54	192	5
NMTAP	54	288	6
EXTAP	54	336	7
EXHLD	55	0	3	384
EXTAP	55	0	7
NMTAP	55	192	0
NMSTR	55	288	1
NMSLL	55	288	1	96	128	5
CNSI_	56	128	5	0	64	3
NMTAP	56	192	2
BRTAP	56	288	2
BRTAP	56	288	3
NMHLD	57	0	1	48
NMTAP	57	0	3
NMHLD	57	96	2	48
NMTAP	57	96	4
NMHLD	57	192	3	48
NMTAP	57	192	5
NMHLD	57	288	4	48
NMTAP	57	288	6
NMHLD	58	0	5	48
NMTAP	58	0	7
NMTAP	58	96	0
NMHLD	58	96	6	48
NMTAP	58	192	1
NMHLD	58	192	7	48
NMTAP	58	288	0
NMTAP	58	288	1
NMSTR	59	0	1
NMSCR	59	0	1	96	48	4
NMTAP	59	24	0
NMTAP	59	48	1
NMTAP	59	72	0
NMTAP	59	96	1
NMSTR	59	192	6
NMSCL	59	192	6	96	48	3
NMTAP	59	216	7
NMTAP	59	240	6
NMTAP	59	264	7
NMTAP	59	288	6
NMHLD	60	0	1	48
NMHLD	60	0	3	48
NMHLD	60	96	4	48
NMHLD	60	96	6	48
NMTAP	60	192	0
NMTAP	60	192	6
NMTAP	60	224	0
NMTAP	60	224	6
NMTAP	60	256	0
NMTAP	60	256	6
BRTAP	60	288	1
BRTAP	60	288	5
NMSTR	61	0	2
NMSI_	61	0	2	96	48	7
NMSTR	61	0	3
NMSI_	61	0	3	96	48	6
NMTAP	61	48	1
NMTAP	61	48	4
NMTTP	61	96	2	A	0	M1
NMTTP	61	96	3	A	0	M1
NMTTP	61	96	3	D	1	M1
NMSTR	61	192	0
NMSI_	61	192	0	96	48	4
NMTAP	61	192	5
NMTAP	61	216	1
NMTAP	61	216	6
NMTAP	61	240	2
NMTAP	61	240	7
NMTAP	61	288	0
NMTAP	62	0	0
NMSTR	62	0	6
NMSV_	62	0	6	96	48	3
NMTAP	62	48	5
NMTAP	62	96	0
NMTAP	62	96	6
NMTAP	62	144	2
NMTAP	62	168	2
NMSTR	62	192	4
NMSI_	62	192	4	96	48	0
NMTAP	62	216	3
NMTAP	62	240	5
NMTAP	62	288	4
NMTAP	62	288	6
NMTAP	63	0	1
NMSTR	63	0	7
NMSI_	63	0	7	96	48	2
NMTAP	63	48	6
NMSTR	63	96	5
NMSI_	63	96	5	96	48	0
NMTAP	63	96	7
NMTAP	63	144	4
NMSTR	63	192	3
NMSI_	63	192	3	96	48	6
NMTAP	63	192	5
NMTAP	63	240	2
NMSTR	63	288	1
NMSCR	63	288	1	96	96	0
NMTAP	63	288	3
NMTAP	63	336	0
NMTAP	64	0	1
NMTAP	64	0	7
EXTAP	64	96	1
EXTAP	64	108	2
EXTAP	64	120	3
EXTAP	64	132	4
EXTAP	64	144	5
EXTAP	64	156	6
EXTAP	64	168	7
EXTAP	64	180	0
EXSTR	64	192	1
NMSV_	64	192	1	96	48	4
NMSTR	64	192	5
NMSI_	64	192	5	96	48	0
BRTAP	64	288	1
BRTAP	64	288	5
NMTAP	65	0	3
NMTAP	65	0	7
NMTAP	65	48	4
NMTAP	65	96	5
NMTAP	65	144	2
NMTAP	65	144	6
NMTAP	65	192	2
NMTAP	65	192	6
NMSTR	65	288	7
NMSI_	65	288	7	96	48	2
NMTAP	65	336	1
NMTAP	65	336	5
BRTAP	66	0	3
BRSTR	66	0	7
NMSI_	66	0	7	96	48	4
NMTAP	66	48	5
BRTAP	66	96	3
BRSTR	66	96	7
NMSXL	66	96	7	96	96	3
NMSXR	66	96	7	96	96	3
NMTAP	66	144	1
BRTAP	66	192	7
NMTAP	67	0	2
NMTAP	67	24	2
NMTAP	67	48	3
NMTAP	67	72	3
NMTAP	67	96	4
NMTAP	67	120	4
NMTAP	67	144	5
NMTAP	67	168	5
NMTAP	67	192	6
NMTAP	67	216	6
NMTAP	67	240	7
NMTAP	67	288	3
NMTAP	67	288	7
NMTAP	67	336	2
NMTAP	67	336	6
NMHLD	68	0	2	48
NMHLD	68	0	6	48
BXTAP	68	60	1
BXTAP	68	60	5
BXTAP	68	72	0
BXTAP	68	72	4
BXTAP	68	84	3
BXTAP	68	84	7
BXTAP	68	96	2
BXTAP	68	96	6
NMTAP	68	144	0
NMTAP	68	168	3
NMTAP	68	192	2
NMTAP	68	216	7
NMTAP	68	240	4
NMTAP	68	264	5
NMTAP	68	288	0
NMTAP	68	312	7
NMTAP	68	336	3
NMTAP	68	360	4
BRTAP	69	0	2
BRHLD	69	0	5	96
NMHLD	69	96	4	96
NMHLD	69	192	3	96
NMHLD	69	288	2	96
NMHLD	70	0	1	96
NMSTR	70	96	0
BRSI_	70	96	0	96	432	4
NMHLD	70	192	0	432

T_REC_TAP	420
T_REC_BRK	27
T_REC_XTP	20
T_REC_BXX	10
T_REC_HLD	60
T_REC_XHO	1
T_REC_BHO	4
T_REC_BXH	0
T_REC_STR	68
T_REC_BST	9
T_REC_XST	1
T_REC_XBS	0
T_REC_TTP	61
T_REC_THO	0
T_REC_SLD	79
T_REC_BSL	1
T_REC_ALL	761
T_NUM_TAP	570
T_NUM_BRK	51
T_NUM_HLD	61
T_NUM_SLD	79
T_NUM_ALL	761
T_JUDGE_TAP	616
T_JUDGE_HLD	179
T_JUDGE_SLD	80
T_JUDGE_ALL	875
TTM_EACHPAIRS	143
TTM_SCR_TAP	285000
TTM_SCR_BRK	132600
TTM_SCR_HLD	61000
TTM_SCR_SLD	118500
TTM_SCR_ALL	597100
TTM_SCR_S	574250
TTM_SCR_SS	592000
TTM_RAT_ACV	10086

