VERSION	0.00.00	1.04.00
FES_MODE	0
BPM_DEF	131.000	131.000	131.000	 65.500
MET_DEF	4	4
RESOLUTION	384
CLK_DEF	384
COMPATIBLE_CODE	MA2

BPM	0	0	131.000
BPM	46	0	 65.500
BPM	49	0	131.000
BPM	69	0	 65.500
MET	0	0	4	4
MET	46	0	4	3
MET	49	0	4	4
MET	69	0	4	3

NMSTR	2	0	3
NMSCL	2	0	3	96	192	0
NMHLD	2	0	4	576
NMTTP	3	0	1	E	0	M1
NMTTP	3	96	0	C	0	M1
NMTTP	3	192	5	E	0	M1
NMHLD	4	0	3	576
NMSTR	4	0	4
NMSCR	4	0	4	96	192	7
NMTTP	5	0	7	E	0	M1
NMTTP	5	96	0	C	0	M1
NMTTP	5	192	3	E	0	M1
NMTAP	6	0	0
NMHLD	6	0	1	288
NMTAP	6	96	0
NMTAP	6	192	2
NMSTR	6	288	0
NMSI_	6	288	0	96	96	2
CNSI_	7	96	2	0	96	4
CNSI_	7	192	4	0	96	6
NMHLD	8	0	6	288
NMTAP	8	0	7
NMTAP	8	96	7
NMTAP	8	192	5
NMSTR	8	288	7
NMSI_	8	288	7	96	96	4
CNSI_	9	96	4	0	96	1
BXTAP	9	288	0
BXTAP	9	288	7
NMHLD	10	0	1	96
NMTAP	10	96	3
NMTAP	10	144	4
NMHLD	10	192	5	96
NMTAP	10	288	4
NMTAP	10	336	3
NMHLD	11	0	2	96
NMTAP	11	96	0
NMTAP	11	144	7
NMHLD	11	192	6	96
NMTAP	11	288	4
NMTAP	11	336	3
NMHLD	12	0	2	96
NMTAP	12	0	4
NMTAP	12	96	0
NMTAP	12	144	7
NMHLD	12	192	6	96
NMTAP	12	288	7
NMTAP	12	336	6
NMTAP	13	0	4
NMHLD	13	0	5	96
NMTAP	13	96	3
NMTAP	13	144	3
NMTAP	13	192	2
NMTAP	13	192	4
EXTAP	13	288	0
EXTAP	13	288	7
NMHLD	14	0	6	96
NMTAP	14	96	4
NMTAP	14	144	3
NMHLD	14	192	2	96
NMTAP	14	288	0
NMTAP	14	336	7
NMHLD	15	0	6	96
NMTAP	15	96	0
NMTAP	15	144	1
NMHLD	15	192	2	96
NMTAP	15	288	4
NMTAP	15	336	4
NMTAP	16	0	3
NMTAP	16	0	5
NMTAP	16	96	6
NMTAP	16	144	7
NMTAP	16	192	0
NMTAP	16	192	5
NMTAP	16	288	3
NMTAP	16	288	6
NMTAP	17	0	5
NMTAP	17	48	5
NMTAP	17	96	4
NMTAP	17	96	6
NMTAP	17	144	3
NMTAP	17	192	2
NMTAP	17	192	4
BRTAP	17	288	0
BRTAP	17	288	5
NMTAP	18	0	4
NMTAP	18	0	6
NMHLD	18	48	4	192
NMHLD	18	48	6	192
NMTAP	18	288	4
NMTAP	18	288	6
NMTAP	19	0	2
NMTAP	19	0	3
NMHLD	19	48	2	192
NMHLD	19	48	3	192
NMTAP	19	288	2
NMTAP	19	288	3
NMSTR	20	0	2
NMSCR	20	0	2	96	96	5
NMTAP	20	192	6
NMSTR	20	288	7
BRSSR	20	288	7	96	192	3
EXTAP	21	288	2
EXTAP	21	288	4
NMTAP	22	0	3
NMTAP	22	0	5
NMTAP	22	96	6
NMTAP	22	144	6
NMTAP	22	192	4
NMTTP	22	288	3	B	0	M1
NMTTP	22	288	4	B	0	M1
NMTTP	22	288	5	B	0	M1
NMTAP	23	0	2
NMTAP	23	0	6
NMTAP	23	96	1
NMTAP	23	144	1
NMTAP	23	192	3
NMTTP	23	288	2	B	0	M1
NMTTP	23	288	3	B	0	M1
NMTTP	23	288	4	B	0	M1
NMHLD	24	0	6	96
NMHLD	24	0	7	96
NMTAP	24	144	4
NMTAP	24	144	5
NMHLD	24	192	4	96
NMHLD	24	192	5	96
NMTAP	24	336	3
NMTAP	25	0	2
NMTAP	25	0	4
NMTAP	25	48	1
NMTAP	25	96	0
NMTAP	25	144	7
NMTAP	25	192	4
NMTAP	25	192	6
NMSTR	25	288	1
NMSI_	25	288	1	96	96	5
NMHLD	25	288	3	96
CNSI_	26	96	5	0	96	7
CNSI_	26	192	7	0	96	2
NMHLD	27	0	4	96
NMTAP	27	192	5
NMSTR	27	288	4
NMSI_	27	288	4	96	96	0
NMHLD	27	288	5	96
CNSI_	28	96	0	0	96	6
CNSI_	28	192	6	0	96	3
NMTTP	29	0	3	B	0	M1
NMTTP	29	0	4	B	0	M1
NMTTP	29	0	4	E	0	M1
NMTAP	29	192	2
NMTAP	29	192	5
BRTAP	29	288	0
BRTAP	29	288	7
NMSTR	30	0	2
NMSI_	30	0	2	96	48	7
NMTAP	30	96	3
NMTAP	30	192	0
NMTAP	30	192	5
NMTAP	30	240	1
NMTAP	30	240	6
NMTAP	30	288	2
NMTAP	30	288	7
NMSTR	31	0	5
NMSI_	31	0	5	96	48	0
NMTAP	31	96	4
NMTAP	31	192	2
NMTAP	31	192	7
NMTAP	31	240	1
NMTAP	31	240	6
NMTAP	31	288	0
NMTAP	31	288	5
NMTAP	32	0	5
NMTAP	32	48	5
NMTAP	32	96	7
NMTAP	32	144	7
NMTAP	32	192	0
NMTAP	32	240	0
NMTAP	32	288	2
NMTAP	33	0	2
NMTAP	33	0	3
NMTAP	33	96	0
NMTAP	33	96	1
NMTAP	33	144	2
NMTAP	33	144	7
NMTAP	33	192	3
NMTAP	33	192	6
NMSTR	33	288	6
NMSI_	33	288	6	96	48	4
NMSTR	33	288	7
NMSI_	33	288	7	96	48	3
NMSTR	34	96	0
NMSI_	34	96	0	96	48	4
NMSTR	34	96	1
NMSI_	34	96	1	96	48	3
NMSTR	34	288	6
NMSI_	34	288	6	96	48	4
NMSTR	34	288	7
NMSI_	34	288	7	96	48	3
NMSTR	35	96	0
NMSI_	35	96	0	96	48	4
NMSTR	35	96	1
NMSI_	35	96	1	96	48	3
EXTAP	35	288	3
EXTAP	35	288	4
NMHLD	36	0	6	48
NMHLD	36	0	7	48
NMHLD	36	96	3	48
NMHLD	36	96	4	48
NMHLD	36	192	0	48
NMHLD	36	192	1	48
NMHLD	36	288	3	48
NMHLD	36	288	4	48
NMTAP	37	0	6
NMTAP	37	0	7
NMSTR	37	96	4
NMSI_	37	96	4	96	48	0
NMSTR	37	96	5
NMSI_	37	96	5	96	48	0
EXTAP	37	288	1
EXTAP	37	288	7
NMSTR	38	0	5
NMSI_	38	0	5	96	48	2
NMTAP	38	96	0
NMTAP	38	192	0
NMTAP	38	192	1
NMTAP	38	240	2
NMTAP	38	240	7
NMTAP	38	288	3
NMTAP	38	288	6
NMSTR	39	0	2
NMSI_	39	0	2	96	48	5
NMTAP	39	96	7
NMTAP	39	192	6
NMTAP	39	192	7
NMTAP	39	240	0
NMTAP	39	240	5
NMTAP	39	288	1
NMTAP	39	288	4
NMTAP	40	0	2
NMTAP	40	48	2
NMTAP	40	96	0
NMTAP	40	144	0
NMTAP	40	192	7
NMTAP	40	240	7
NMTAP	40	288	5
NMSTR	41	0	0
NMSI_	41	0	0	96	48	4
NMSTR	41	0	6
NMSI_	41	0	6	96	48	3
BRTAP	41	192	1
BRTAP	41	192	7
NMSTR	41	288	3
NMSI_	41	288	3	96	48	7
NMSTR	41	288	6
NMSI_	41	288	6	96	48	4
NMSTR	42	96	1
NMSI_	42	96	1	96	48	3
EXSTR	42	96	4
NMSI_	42	96	4	96	48	0
EXSTR	42	288	3
NMSI_	42	288	3	96	48	7
NMSTR	42	288	6
NMSI_	42	288	6	96	48	4
NMSTR	43	96	1
NMSI_	43	96	1	96	48	3
EXSTR	43	96	4
NMSI_	43	96	4	96	48	0
EXTAP	43	288	2
EXTAP	43	288	7
NMTAP	44	0	0
NMTAP	44	48	1
NMTAP	44	96	2
NMTAP	44	96	3
NMTAP	44	144	2
NMTAP	44	144	3
NMTAP	44	192	4
NMTAP	44	240	5
NMTAP	44	288	6
NMTAP	44	288	7
NMTAP	44	336	6
NMTAP	44	336	7
NMSTR	45	0	0
BRSI_	45	0	0	96	48	3
BRSI_	45	0	0	96	48	5
NMSTR	45	192	6
BRSI_	45	192	6	96	48	1
BRSI_	45	192	6	96	48	3
BRTAP	46	0	0
BRTAP	46	0	4
NMTTP	46	64	5	B	0	M1
NMTTP	46	96	5	E	0	M1
NMTTP	46	160	2	B	0	M1
NMTTP	46	192	3	E	0	M1
NMTTP	46	256	0	C	0	M1
NMTTP	46	288	4	E	0	M1
NMTTP	46	352	1	E	0	M1
NMTTP	47	0	2	E	0	M1
NMTTP	47	64	6	E	0	M1
NMTTP	47	96	5	E	0	M1
NMTTP	47	160	0	C	0	M1
NMTTP	47	192	3	B	0	M1
NMTAP	47	256	2
NMTAP	47	256	4
NMHLD	47	288	2	96
NMTAP	47	288	4
NMTAP	48	0	3
NMTAP	48	32	4
NMTAP	48	64	5
NMHLD	48	96	6	64
NMTAP	48	160	4
NMTAP	48	192	4
NMTAP	48	192	6
NMTAP	48	224	3
NMTAP	48	224	5
NMTAP	48	256	2
NMTAP	48	256	4
NMTAP	48	288	1
NMHLD	48	288	3	96
NMTAP	49	0	2
NMTAP	49	48	2
NMTAP	49	96	3
NMTAP	49	144	3
NMTAP	49	192	4
NMTAP	49	240	4
NMTAP	49	288	3
NMTAP	49	288	5
NMTAP	49	336	3
NMTAP	49	336	5
NMTAP	50	0	6
NMTAP	50	48	6
NMSTR	50	96	7
NMSCR	50	96	7	96	144	6
NMTAP	50	144	7
NMTHO	51	0	0	384	C	1	M1
NMTTP	51	0	5	B	0	M1
NMTTP	51	0	6	B	0	M1
NMTTP	51	0	6	E	0	M1
BRHLD	52	0	7	384
NMSTR	53	0	0
NMSI_	53	0	0	96	288	3
NMHLD	54	0	5	288
NMTAP	54	96	4
NMTAP	54	192	4
NMTAP	54	288	4
EXTAP	54	336	3
EXSTR	55	0	3
NMSI_	55	0	3	96	192	0
NMTAP	56	0	0
NMHLD	56	0	6	192
NMTAP	56	144	7
NMTAP	56	192	7
EXTAP	56	288	6
EXTAP	56	288	7
NMTAP	57	0	0
NMSTR	57	0	5
NMSI_	57	0	5	96	96	0
NMTAP	57	288	1
NMSTR	58	0	2
NMSI_	58	0	2	96	96	7
NMTAP	58	0	7
NMTAP	58	288	6
NMHLD	59	0	5	96
NMHLD	59	96	4	96
NMHLD	59	192	3	96
NMTAP	59	288	2
NMTAP	60	0	0
NMTAP	60	0	1
NMTAP	60	96	6
NMTAP	60	96	7
NMTAP	60	192	0
NMTAP	60	192	7
NMSTR	60	288	1
NMSI_	60	288	1	96	48	4
NMSTR	60	288	6
NMSI_	60	288	6	96	48	3
BRTAP	61	96	1
BRTAP	61	96	6
NMTAP	61	192	2
NMTAP	61	192	3
NMTAP	61	240	2
NMTAP	61	240	3
NMSTR	61	288	1
NMSI_	61	288	1	96	48	5
NMTAP	61	288	4
NMSTR	62	0	7
NMSI_	62	0	7	96	48	3
NMSTR	62	96	0
NMSI_	62	96	0	96	48	4
NMTAP	62	192	5
NMSTR	62	288	1
NMSCL	62	288	1	96	48	7
NMSTR	62	288	6
NMSUL	62	288	6	96	48	2
NMSTR	63	96	1
NMSUR	63	96	1	96	48	5
NMSTR	63	96	6
NMSCR	63	96	6	96	48	0
NMSTR	63	288	1
NMSCL	63	288	1	96	48	7
NMSTR	63	288	6
NMSUL	63	288	6	96	48	2
NMSTR	64	96	1
NMSUR	64	96	1	96	48	5
NMSTR	64	96	6
NMSCR	64	96	6	96	48	0
EXTAP	64	288	2
EXTAP	64	288	7
NMTAP	65	0	6
NMTAP	65	48	6
NMTAP	65	96	4
NMTAP	65	144	5
EXTAP	65	192	0
NMTAP	65	288	1
NMTAP	65	288	7
NMTAP	65	336	2
NMTAP	65	336	6
BRTAP	66	0	3
BRSTR	66	0	5
BRSI_	66	0	5	96	48	0
BRSTR	66	96	1
BRSI_	66	96	1	96	48	4
BRSTR	66	192	6
BRSI_	66	192	6	96	48	3
BRTAP	66	288	0
NMTAP	67	0	2
NMTAP	67	48	2
NMTAP	67	96	0
NMTAP	67	144	0
NMTAP	67	192	6
NMTAP	67	240	6
NMTAP	67	288	4
NMTAP	67	336	4
NMTAP	68	0	2
NMTAP	68	0	3
NMTAP	68	48	2
NMTAP	68	48	3
NMTAP	68	96	1
NMTAP	68	96	4
NMTAP	68	144	1
NMTAP	68	144	4
NMSTR	68	192	0
BRSI_	68	192	0	96	48	4
NMTAP	68	192	5
NMSTR	68	288	7
NMSCL	68	288	7	96	384	1
NMHLD	70	0	0	192
NMTTP	70	192	0	C	0	M1
NMTTP	70	192	3	B	0	M1
NMTTP	70	192	4	B	0	M1
NMTTP	70	192	4	E	0	M1

T_REC_TAP	218
T_REC_BRK	12
T_REC_XTP	16
T_REC_BXX	2
T_REC_HLD	43
T_REC_XHO	0
T_REC_BHO	1
T_REC_BXH	0
T_REC_STR	50
T_REC_BST	3
T_REC_XST	4
T_REC_XBS	0
T_REC_TTP	34
T_REC_THO	1
T_REC_SLD	50
T_REC_BSL	9
T_REC_ALL	443
T_NUM_TAP	322
T_NUM_BRK	27
T_NUM_HLD	44
T_NUM_SLD	50
T_NUM_ALL	443
T_JUDGE_TAP	339
T_JUDGE_HLD	147
T_JUDGE_SLD	59
T_JUDGE_ALL	545
TTM_EACHPAIRS	106
TTM_SCR_TAP	161000
TTM_SCR_BRK	70200
TTM_SCR_HLD	44000
TTM_SCR_SLD	75000
TTM_SCR_ALL	350200
TTM_SCR_S	337100
TTM_SCR_SS	347500
TTM_RAT_ACV	10077

