VERSION	0.00.00	1.04.00
FES_MODE	0
BPM_DEF	150.000	150.000	150.000	150.000
MET_DEF	4	4
RESOLUTION	384
CLK_DEF	384
COMPATIBLE_CODE	MA2

BPM	0	0	150.000
MET	0	0	4	4

NMTHO	2	0	0	192	C	0	M1
NMTTP	2	0	1	B	0	M1
NMTTP	2	0	2	B	0	M1
NMTTP	2	0	2	E	0	M1
NMSTR	2	192	0
NMSLR	2	192	0	96	192	4
NMTAP	2	288	7
NMTAP	3	0	7
NMTAP	3	96	6
NMTAP	3	192	4
NMTAP	3	192	6
NMTAP	3	288	2
NMTAP	3	288	4
NMTHO	4	0	0	192	C	0	M1
NMTTP	4	0	5	B	0	M1
NMTTP	4	0	5	E	0	M1
NMTTP	4	0	6	E	0	M1
NMSTR	4	192	7
NMSLL	4	192	7	96	192	3
NMTAP	4	288	0
NMTAP	5	0	0
NMTAP	5	96	2
EXTAP	5	192	1
EXTAP	5	224	1
EXTAP	5	256	1
EXTAP	5	288	3
EXTAP	5	320	3
EXTAP	5	352	3
NMSTR	6	0	2
NMSCL	6	0	2	96	96	7
NMTAP	6	96	4
NMSTR	6	192	5
NMSCL	6	192	5	96	96	2
NMTAP	6	288	7
NMSTR	7	0	0
NMSCL	7	0	0	96	96	5
NMTAP	7	96	2
NMSTR	7	192	3
NMSCL	7	192	3	96	96	0
NMTAP	7	288	5
NMSTR	8	0	6
NMSV_	8	0	6	96	96	3
NMTAP	8	96	0
NMSTR	8	192	1
NMSV_	8	192	1	96	96	6
NMTAP	8	288	3
NMTAP	9	0	4
NMTAP	9	96	4
NMTAP	9	96	5
NMTAP	9	192	6
NMTAP	9	224	6
NMTAP	9	256	6
NMTAP	9	288	2
NMTAP	9	320	2
NMTAP	9	352	2
BRHLD	10	0	1	768
BRHLD	10	0	5	144
NMHLD	11	0	3	768
NMTTP	12	144	2	B	0	M1
NMTTP	12	144	3	E	0	M1
NMHLD	13	0	4	288
NMTTP	13	144	5	B	0	M1
NMTTP	13	144	5	E	0	M1
NMSTR	13	288	6
NMSCL	13	288	6	96	96	4
NMSTR	14	0	4
NMSV_	14	0	4	96	96	3
NMTAP	14	96	3
NMHLD	14	192	2	192
NMTAP	14	336	3
NMSTR	15	0	3
NMSV_	15	0	3	96	96	1
NMTAP	15	96	1
NMHLD	15	192	0	192
NMTAP	15	336	3
NMSTR	16	0	3
NMSV_	16	0	3	96	96	0
NMTAP	16	96	1
NMHLD	16	192	2	192
NMTAP	16	336	0
NMHLD	17	0	0	96
NMHLD	17	96	1	96
EXTAP	17	192	2
NMTAP	17	288	1
NMTAP	17	288	3
NMSTR	18	0	0
NMSCR	18	0	0	96	48	1
NMTAP	18	0	5
NMSTR	18	96	4
NMSI_	18	96	4	96	96	0
CNSI_	18	144	1	0	48	4
EXTAP	18	192	6
NMSTR	18	288	5
NMSI_	18	288	5	96	96	0
NMSTR	19	0	0
NMSCL	19	0	0	96	48	7
NMTAP	19	96	3
CNSI_	19	144	7	0	48	5
EXTAP	19	192	2
NMSTR	19	288	0
NMSCR	19	288	0	96	48	1
NMTAP	19	288	4
NMSTR	20	0	3
NMSI_	20	0	3	96	96	7
CNSI_	20	48	1	0	48	3
NMSTR	20	96	7
NMSCL	20	96	7	96	48	6
NMSTR	20	192	4
NMSI_	20	192	4	96	96	0
CNSI_	20	240	6	0	48	4
NMSTR	20	288	0
NMSCR	20	288	0	96	48	1
NMTAP	21	0	7
CNSI_	21	48	1	0	48	3
NMTAP	21	96	6
NMTAP	21	192	2
NMTAP	21	192	4
NMTAP	21	216	2
NMTAP	21	240	2
NMTAP	21	288	3
NMTAP	21	288	5
NMTAP	21	312	5
NMTAP	21	336	5
NMTAP	22	0	3
NMHLD	22	0	6	72
NMTAP	22	72	4
NMTAP	22	96	5
NMTAP	22	144	3
NMTAP	22	144	4
NMTAP	22	192	2
NMTAP	22	216	3
NMTAP	22	264	3
NMTAP	22	288	0
NMTAP	22	336	1
NMHLD	23	0	2	72
NMTAP	23	0	4
NMTAP	23	72	3
NMTAP	23	96	2
NMTAP	23	144	3
NMTAP	23	144	4
NMTAP	23	192	5
NMTAP	23	216	4
NMTAP	23	264	4
NMTAP	23	288	7
NMTAP	23	336	6
NMHLD	24	0	5	72
NMTAP	24	72	4
NMTAP	24	96	6
NMTAP	24	144	3
NMTAP	24	144	7
NMHLD	24	192	2	72
NMTAP	24	264	3
NMSTR	24	288	1
NMSXL	24	288	1	96	192	4
NMSTR	24	336	0
NMSCL	24	336	0	96	144	5
NMTAP	24	336	4
BRTAP	25	288	3
BRTAP	25	288	6
NMTAP	26	0	1
NMHLD	26	0	5	48
NMTAP	26	48	3
NMTAP	26	96	1
NMTAP	26	96	7
NMTAP	26	144	3
NMTAP	26	168	4
NMTAP	26	192	1
NMTAP	26	216	5
NMTAP	26	240	3
NMTAP	26	288	0
NMSTR	26	288	6
NMSI_	26	288	6	96	48	3
NMTAP	26	336	2
NMTAP	26	336	4
NMTAP	27	0	0
BRTAP	27	0	6
NMTAP	27	48	2
NMTAP	27	96	1
NMTAP	27	96	4
NMTAP	27	144	2
NMTAP	27	168	3
NMTAP	27	192	1
NMTAP	27	216	4
NMTAP	27	240	2
NMTAP	27	288	0
NMTAP	27	288	6
NMTAP	27	336	1
NMTAP	27	336	5
NMTAP	28	0	2
NMTAP	28	24	4
NMTAP	28	72	1
NMTAP	28	96	0
NMHLD	28	120	2	48
NMTAP	28	168	7
NMTAP	28	192	1
NMHLD	28	216	6	48
NMTAP	28	264	4
NMTAP	28	288	4
NMTAP	28	336	2
NMTAP	28	336	7
NMTAP	29	0	5
NMTAP	29	24	3
NMTAP	29	72	6
NMTAP	29	96	7
NMHLD	29	120	5	48
NMTAP	29	168	0
NMTAP	29	192	6
NMHLD	29	216	1	48
NMTAP	29	264	0
BRTAP	29	288	2
BRTAP	29	288	7
NMHLD	30	0	3	48
NMTAP	30	0	6
NMTAP	30	48	4
NMTAP	30	96	1
NMTAP	30	96	7
NMTAP	30	144	4
NMTAP	30	168	3
NMTAP	30	192	6
NMTAP	30	216	2
NMTAP	30	240	4
NMSTR	30	288	1
NMSI_	30	288	1	96	48	4
NMTAP	30	288	7
NMTAP	30	336	3
NMTAP	30	336	5
BRTAP	31	0	1
NMTAP	31	0	7
NMTAP	31	48	5
NMTAP	31	96	3
NMTAP	31	96	6
NMTAP	31	144	5
NMTAP	31	168	4
NMTAP	31	192	6
NMTAP	31	216	2
NMTAP	31	240	5
NMTAP	31	288	1
NMTAP	31	288	7
NMTAP	31	336	2
NMTAP	31	336	6
NMTAP	32	0	5
NMTAP	32	24	3
NMTAP	32	72	6
NMTAP	32	96	7
NMHLD	32	120	5	48
NMTAP	32	168	0
NMTAP	32	192	6
NMHLD	32	216	1	48
NMTAP	32	264	0
NMSTR	32	288	0
NMSI_	32	288	0	96	48	3
NMSCR	32	288	0	96	24	1
NMTAP	32	336	1
NMTAP	32	336	7
NMSTR	33	0	0
NMSI_	33	0	0	96	48	5
NMSCL	33	0	0	96	24	7
CNSI_	33	24	1	0	24	3
NMSTR	33	96	0
NMSF_	33	96	0	96	48	4
CNSI_	33	120	7	0	24	5
BRTAP	33	192	0
NMTAP	33	288	1
NMSTR	33	288	7
NMSLL	33	288	7	96	96	3
BRSTR	34	0	3
NMSLL	34	0	3	96	96	7
NMSTR	34	96	7
NMSLL	34	96	7	96	96	3
NMSTR	34	192	3
NMSCR	34	192	3	96	96	7
NMSTR	34	288	7
NMSCR	34	288	7	96	192	7
NMTAP	35	0	3
NMTAP	35	96	7
NMTAP	35	144	0
NMTAP	35	192	1
NMTAP	35	240	1
NMTAP	35	288	7
NMTAP	35	336	7
BRTAP	36	0	3
BRTAP	36	0	6
NMTAP	36	48	4
NMTAP	36	48	5
NMTAP	36	96	1
NMTAP	36	120	3
NMTAP	36	144	2
NMSTR	36	192	5
NMSLL	36	192	5	96	96	6
NMTAP	36	216	4
NMTAP	36	240	6
NMTAP	36	288	0
NMTAP	36	336	1
NMTAP	37	0	2
NMTAP	37	24	2
NMTAP	37	48	7
NMTAP	37	96	3
NMTAP	37	96	6
NMTAP	37	144	3
NMTAP	37	144	6
NMTAP	37	192	5
NMTAP	37	216	4
NMTAP	37	240	5
NMHLD	37	288	3	96
NMSTR	37	288	6
NMSCL	37	288	6	96	48	3
NMTAP	37	336	7
BRTAP	38	0	6
NMTAP	38	96	0
NMTAP	38	96	1
NMTAP	38	120	2
NMTAP	38	192	6
NMTAP	38	192	7
NMTAP	38	216	5
NMTAP	38	288	2
NMTAP	38	288	3
NMTAP	38	312	1
NMTAP	39	0	4
NMSTR	39	0	5
NMSI_	39	0	5	96	48	0
NMTAP	39	24	6
NMTAP	39	96	0
CNSI_	39	144	0	0	48	6
NMTAP	39	144	1
NMSTR	39	192	2
BRSCL	39	192	2	96	48	7
CNSI_	39	192	6	0	48	3
NMSTR	39	288	2
BRSCR	39	288	2	96	48	5
EXTAP	40	0	7
NMTAP	40	96	6
NMTAP	40	96	7
NMTAP	40	144	0
NMSTR	40	144	5
NMSI_	40	144	5	96	48	0
NMTAP	40	240	2
NMSTR	40	288	2
NMSCL	40	288	2	96	144	5
NMTAP	40	336	3
NMHLD	41	0	4	144
NMSTR	41	192	4
NMSI_	41	192	4	96	48	0
NMSTR	41	288	0
NMSLL	41	288	0	96	192	3
NMSLR	41	288	0	96	192	5
EXTAP	42	288	2
EXTAP	42	288	6
NMTAP	43	0	3
NMSTR	43	48	2
NMSCL	43	48	2	96	48	7
NMHLD	43	96	2	192
NMTAP	43	288	4
NMSTR	43	336	5
NMSCR	43	336	5	96	48	0
NMHLD	44	0	5	192
NMSTR	44	192	3
NMSI_	44	192	3	96	48	0
NMSI_	44	192	3	96	48	6
NMTAP	44	288	3
NMHLD	45	0	1	48
NMHLD	45	0	5	48
NMHLD	45	96	4	48
NMHLD	45	96	6	48
NMHLD	45	192	0	48
NMHLD	45	192	2	48
NMTAP	45	288	3
NMTAP	45	336	4
NMHLD	46	0	3	48
NMHLD	46	0	5	48
NMSTR	46	96	2
NMSCR	46	96	2	96	48	3
NMSTR	46	96	6
NMSCR	46	96	6	96	48	7
CNSXR	46	240	3	0	72	1
CNSXR	46	240	7	0	72	5
NMTAP	47	0	7
NMSTR	47	48	6
NMSCL	47	48	6	96	48	3
NMTAP	47	96	6
NMTAP	47	144	7
NMTAP	47	192	7
NMTAP	47	240	0
NMTAP	47	288	0
NMSTR	47	336	1
NMSCR	47	336	1	96	48	4
NMTAP	48	0	1
NMTAP	48	48	0
NMTAP	48	96	0
NMTAP	48	144	7
NMHLD	48	192	7	576
NMSTR	48	288	2
NMSCR	48	288	2	96	48	5
NMSTR	49	0	2
NMSI_	49	0	2	96	48	6
NMSTR	49	96	2
NMSI_	49	96	2	96	48	5
NMSTR	49	192	2
NMSUL	49	192	2	96	48	6
NMSTR	49	288	2
NMSI_	49	288	2	96	48	4
CNSI_	50	48	4	0	48	0
CNSI_	50	96	0	0	96	5
EXTAP	50	192	7
NMTAP	50	288	1
NMSTR	50	288	6
NMSCL	50	288	6	96	96	1
NMHLD	51	0	0	144
NMTAP	51	192	0
NMTAP	51	192	1
NMTAP	51	240	0
NMTAP	51	240	1
NMTAP	51	288	2
NMTAP	51	288	7
NMTAP	51	336	3
NMHLD	51	336	6	96
NMTAP	52	48	4
NMTAP	52	64	5
NMTAP	52	80	3
NMSTR	52	96	4
NMSCR	52	96	4	96	96	1
NMTAP	52	144	4
NMSTR	52	192	1
NMSCL	52	192	1	96	96	4
NMTAP	53	0	2
NMTAP	53	48	2
NMHLD	53	96	3	96
NMTAP	53	96	5
NMTAP	53	192	6
NMHLD	53	224	6	64
NMTAP	53	288	4
NMHLD	53	320	4	64
NMTAP	54	0	3
NMTAP	54	48	4
NMSTR	54	96	5
NMSCR	54	96	5	96	96	3
NMTAP	54	144	4
BRTAP	54	192	3
CNSCL	54	288	3	0	96	5
BRTAP	54	288	5
NMTHO	55	0	0	192	C	0	M1
NMTAP	55	192	7
NMTAP	55	240	6
NMSTR	55	288	5
NMSXR	55	288	5	96	96	3
NMTAP	56	0	3
NMSTR	56	96	1
NMSLL	56	96	1	96	96	3
NMTAP	56	192	3
NMTAP	56	288	4
NMHLD	57	0	3	48
NMHLD	57	0	5	384
NMHLD	57	96	3	48
NMHLD	57	192	4	48
NMHLD	57	288	3	48
NMTAP	58	0	4
NMTAP	58	48	4
NMSTR	58	96	4
NMSI_	58	96	4	96	48	2
NMSTR	58	144	4
NMSI_	58	144	4	96	48	6
NMSTR	58	192	4
NMSI_	58	192	4	96	48	0
BRHLD	59	0	1	288
BRHLD	59	0	7	672
NMTAP	59	336	2
NMHLD	60	0	3	672
NMHLD	61	0	5	672
NMTAP	61	336	4
NMHLD	62	0	4	1056
NMTTP	63	0	6	E	0	M1
NMTTP	63	96	5	E	0	M1
NMTTP	63	192	4	E	0	M1
NMTTP	63	288	3	E	0	M1
NMTTP	64	0	2	E	0	M1
NMTTP	64	96	1	E	0	M1
NMTTP	64	192	0	E	0	M1
NMTTP	64	288	7	E	0	M1
NMTAP	65	0	4
NMTTP	65	0	6	E	0	M1
NMTAP	65	96	3
NMTTP	65	96	5	E	0	M1
NMTAP	65	192	2
NMTTP	65	192	4	E	0	M1
NMTAP	65	288	1
NMTTP	65	288	3	E	0	M1
NMTAP	66	0	0
NMTAP	66	96	0
NMTAP	66	192	3
NMTAP	66	192	5
NMTAP	66	216	3
NMTAP	66	240	3
NMTAP	66	288	2
NMTAP	66	288	4
NMTAP	66	312	4
NMTAP	66	336	4
NMSTR	67	0	1
NMSI_	67	0	1	96	48	5
NMTAP	67	48	0
NMTAP	67	72	0
NMTAP	67	96	1
NMTAP	67	144	7
NMSTR	67	192	6
NMSI_	67	192	6	96	48	2
NMTAP	67	240	7
NMTAP	67	264	7
NMTAP	67	288	6
NMTAP	67	336	0
NMSTR	68	0	1
NMSI_	68	0	1	96	48	4
NMTAP	68	48	4
NMTAP	68	72	4
NMTAP	68	96	1
NMTAP	68	144	5
NMSTR	68	192	6
NMSI_	68	192	6	96	48	3
NMTAP	68	240	0
NMTAP	68	264	0
NMTAP	68	288	6
NMTAP	68	336	1
NMSTR	69	0	2
NMSI_	69	0	2	96	48	7
NMTAP	69	48	7
NMTAP	69	72	7
NMTAP	69	96	2
NMTAP	69	144	6
NMTAP	69	192	5
NMTAP	69	240	0
NMTAP	69	264	0
NMTAP	69	288	1
NMTAP	69	288	7
NMHLD	70	0	2	48
NMHLD	70	0	6	48
NMHLD	70	96	1	48
NMHLD	70	96	7	48
NMHLD	70	192	2	48
NMHLD	70	192	4	48
NMSTR	70	288	1
NMSCR	70	288	1	96	48	4
NMTAP	70	288	5
NMSTR	71	0	1
NMSCL	71	0	1	96	48	6
NMTAP	71	24	7
NMTAP	71	48	7
NMTAP	71	96	1
NMTAP	71	120	3
NMTAP	71	144	3
NMTTP	71	192	2	E	0	M1
NMTTP	71	208	1	E	0	M1
NMTTP	71	224	0	E	0	M1
NMTTP	71	240	7	E	0	M1
NMTTP	71	256	6	E	0	M1
NMSTR	71	288	3
NMSI_	71	288	3	96	48	6
NMSTR	72	0	3
NMSI_	72	0	3	96	48	0
NMTAP	72	24	7
NMTAP	72	48	7
NMSTR	72	96	3
NMSI_	72	96	3	96	48	7
NMSI_	72	96	3	96	48	7
NMTAP	72	120	5
NMTAP	72	144	5
CNSI_	72	240	7	0	48	2
CNSI_	72	240	7	0	48	4
CNSI_	72	288	2	0	48	0
CNSI_	72	288	4	0	48	6
EXTAP	73	0	7
NMTAP	73	48	1
NMTAP	73	72	1
NMTAP	73	96	3
NMTAP	73	144	2
NMTAP	73	144	4
NMTAP	73	192	0
NMTAP	73	192	6
NMTAP	73	240	7
NMTAP	73	264	7
NMTAP	73	288	1
NMTAP	73	336	2
NMTAP	73	336	6
NMTAP	74	0	5
NMTAP	74	24	5
NMTAP	74	48	7
NMTAP	74	72	7
NMTAP	74	96	0
NMTAP	74	120	0
NMTAP	74	144	2
NMTAP	74	192	3
NMTAP	74	192	5
NMTAP	74	288	2
NMSTR	74	288	6
NMSCL	74	288	6	96	48	3
NMSTR	75	0	6
NMSCR	75	0	6	96	48	1
NMTAP	75	24	0
NMTAP	75	48	0
NMTAP	75	96	6
NMTAP	75	120	4
NMTAP	75	144	4
NMTTP	75	192	6	E	0	M1
NMTTP	75	208	7	E	0	M1
NMTTP	75	224	0	E	0	M1
NMTTP	75	240	1	E	0	M1
NMTTP	75	256	2	E	0	M1
NMSTR	75	288	4
NMSI_	75	288	4	96	48	1
NMSTR	76	0	4
NMSI_	76	0	4	96	48	7
NMTAP	76	24	0
NMTAP	76	48	0
NMSTR	76	96	4
NMSI_	76	96	4	96	48	0
NMSI_	76	96	4	96	48	0
NMTAP	76	120	2
NMTAP	76	144	2
CNSI_	76	240	0	0	48	3
CNSI_	76	240	0	0	48	5
CNSCL	76	288	3	0	48	1
CNSCR	76	288	5	0	48	7
EXTAP	77	0	0
NMTAP	77	48	6
NMTAP	77	72	6
NMTAP	77	96	4
NMTAP	77	144	1
NMTAP	77	168	1
NMTAP	77	192	3
NMTAP	77	240	5
NMSTR	77	288	0
BRSUL	77	288	0	96	48	4
NMSTR	77	288	7
BRSCL	77	288	7	96	48	5
NMSTR	78	0	0
BRSCR	78	0	0	96	48	2
NMSTR	78	0	7
BRSUR	78	0	7	96	48	3
NMSTR	78	96	0
BRSUL	78	96	0	96	48	4
NMSTR	78	96	7
BRSCL	78	96	7	96	48	5
NMTAP	78	192	0
NMTAP	78	192	7
BRTAP	78	288	2
BRTAP	78	288	6
NMHLD	79	0	4	24
NMHLD	79	0	6	24
NMHLD	79	48	6	24
NMHLD	79	48	7	24
NMHLD	79	96	1	24
NMHLD	79	96	7	24
NMHLD	79	144	2	24
NMHLD	79	144	3	24
NMSTR	79	192	4
NMSV_	79	192	4	96	96	3
NMTAP	79	192	5
NMTAP	79	288	5
CNSI_	80	0	3	0	48	0
NMTAP	80	0	6
CNSI_	80	48	0	0	48	2
NMTAP	80	48	7
NMHLD	80	96	7	96
NMTAP	80	192	4
NMTAP	80	240	3
NMTAP	80	288	2
NMTAP	80	288	5
NMTAP	80	336	1
NMSTR	81	0	0
NMSCR	81	0	0	96	48	4
NMSTR	81	48	4
NMSCR	81	48	4	96	48	0
NMTAP	81	96	0
NMTAP	81	240	3
NMTAP	81	288	2
NMTAP	81	336	0
NMTAP	81	336	1
NMSTR	82	0	0
NMSI_	82	0	0	96	48	4
NMSTR	82	0	1
NMSUL	82	0	1	96	48	4
NMTAP	82	96	0
NMTAP	82	96	1
NMSTR	82	192	6
NMSUR	82	192	6	96	48	3
NMSTR	82	192	7
NMSI_	82	192	7	96	48	3
NMTAP	82	288	6
NMTAP	82	288	7
EXHLD	83	0	2	48
EXHLD	83	0	4	48
NMTTP	83	96	3	B	0	M1
NMHLD	83	96	5	24
NMTTP	83	112	4	B	0	M1
NMTTP	83	128	5	E	0	M1
NMHLD	83	192	1	24
NMTTP	83	192	7	B	0	M1
NMTTP	83	208	0	B	0	M1
NMTTP	83	224	1	E	0	M1
NMHLD	83	288	2	24
NMTTP	83	288	4	B	0	M1
NMTTP	83	304	3	B	0	M1
NMTTP	83	320	3	E	0	M1
NMTTP	84	0	0	B	0	M1
NMHLD	84	0	6	24
NMTTP	84	16	7	B	0	M1
NMTTP	84	32	7	E	0	M1
NMSTR	84	96	0
NMSI_	84	96	0	96	48	4
NMSTR	84	144	4
NMSI_	84	144	4	96	48	0
NMTAP	84	192	0
NMSTR	84	288	7
NMSCL	84	288	7	96	144	1
NMTAP	85	0	2
NMTAP	85	96	0
NMTAP	85	144	7
NMSTR	85	192	6
NMSI_	85	192	6	96	48	2
NMSTR	85	288	4
NMSI_	85	288	4	96	48	0
CNSI_	85	336	2	0	48	6
CNSI_	86	48	0	0	48	4
NMTAP	86	192	7
NMTAP	86	240	0
NMTAP	86	240	6
NMSTR	86	288	1
NMSCL	86	288	1	96	96	4
BRTAP	86	288	5
NMHLD	87	0	3	24
NMHLD	87	48	3	24
NMHLD	87	96	3	24
NMHLD	87	144	3	24
NMTAP	87	192	2
NMSTR	87	192	3
NMSV_	87	192	3	96	96	4
NMTAP	87	288	2
NMTAP	88	0	1
CNSI_	88	0	4	0	48	7
NMTAP	88	48	0
CNSI_	88	48	7	0	48	5
NMHLD	88	96	0	96
NMTAP	88	192	3
NMTAP	88	240	4
NMTAP	88	288	2
NMTAP	88	288	5
NMTAP	88	336	6
NMSTR	89	0	7
NMSCL	89	0	7	96	48	3
NMSTR	89	48	3
NMSCL	89	48	3	96	48	7
NMTAP	89	96	7
NMTAP	89	240	4
NMTAP	89	288	5
NMTAP	89	336	6
NMTAP	89	336	7
NMSTR	90	0	6
NMSI_	90	0	6	96	48	3
NMSTR	90	0	7
NMSUR	90	0	7	96	48	3
NMTAP	90	96	6
NMTAP	90	96	7
NMSTR	90	192	0
NMSUL	90	192	0	96	48	4
NMSTR	90	192	1
NMSI_	90	192	1	96	48	4
NMTAP	90	288	0
NMTAP	90	288	1
NMHLD	91	0	3	48
NMHLD	91	0	6	48
NMHLD	91	96	2	24
NMTTP	91	96	5	D	0	M1
NMTTP	91	112	4	A	0	M1
NMTTP	91	128	4	D	0	M1
NMTTP	91	144	3	A	0	M1
NMTTP	91	192	1	D	0	M1
NMHLD	91	192	6	24
NMTTP	91	208	0	A	0	M1
NMTTP	91	224	0	D	0	M1
NMTTP	91	240	7	A	0	M1
NMTTP	91	288	3	D	0	M1
NMHLD	91	288	5	24
NMTTP	91	304	3	A	0	M1
NMTTP	91	320	4	D	0	M1
NMTTP	91	336	4	A	0	M1
NMHLD	92	0	1	24
NMTTP	92	0	7	D	0	M1
NMTTP	92	16	7	A	0	M1
NMTTP	92	32	0	D	0	M1
NMTTP	92	48	0	A	0	M1
NMSTR	92	96	7
NMSI_	92	96	7	96	48	3
NMSTR	92	144	3
NMSI_	92	144	3	96	48	7
NMTAP	92	192	7
NMSTR	92	288	0
NMSCR	92	288	0	96	144	6
NMTAP	93	0	6
NMTAP	93	48	7
NMTAP	93	96	0
NMHLD	93	144	1	96
NMTAP	93	288	0
NMTAP	93	288	4
NMTAP	93	336	3
NMTAP	93	336	7
NMTAP	94	0	2
NMTAP	94	0	6
NMTAP	94	48	1
NMTAP	94	48	5
BRHLD	94	96	0	96
BRTAP	94	96	4
NMSTR	94	192	5
NMSI_	94	192	5	96	48	7
NMTAP	94	240	5
NMSTR	94	288	1
BRSI_	94	288	1	96	48	3
CNSI_	94	336	7	0	48	4
CNSI_	95	0	4	0	48	0

T_REC_TAP	383
T_REC_BRK	16
T_REC_XTP	15
T_REC_BXX	0
T_REC_HLD	76
T_REC_XHO	2
T_REC_BHO	5
T_REC_BXH	0
T_REC_STR	108
T_REC_BST	1
T_REC_XST	0
T_REC_XBS	0
T_REC_TTP	60
T_REC_THO	3
T_REC_SLD	106
T_REC_BSL	9
T_REC_ALL	784
T_NUM_TAP	566
T_NUM_BRK	31
T_NUM_HLD	81
T_NUM_SLD	106
T_NUM_ALL	784
T_JUDGE_TAP	583
T_JUDGE_HLD	249
T_JUDGE_SLD	115
T_JUDGE_ALL	947
TTM_EACHPAIRS	105
TTM_SCR_TAP	283000
TTM_SCR_BRK	80600
TTM_SCR_HLD	81000
TTM_SCR_SLD	159000
TTM_SCR_ALL	603600
TTM_SCR_S	582500
TTM_SCR_SS	600500
TTM_RAT_ACV	10051

