VERSION	0.00.00	1.04.00
FES_MODE	0
BPM_DEF	150.000	150.000	150.000	150.000
MET_DEF	4	4
RESOLUTION	384
CLK_DEF	384
COMPATIBLE_CODE	MA2

BPM	0	0	150.000
MET	0	0	4	4

NMTAP	2	0	3
NMHLD	2	0	4	144
NMHLD	2	144	2	144
NMHLD	2	288	3	144
NMHLD	3	48	1	144
NMTAP	3	192	0
NMTAP	3	288	1
NMTAP	3	288	7
NMHLD	4	0	3	144
NMTAP	4	0	4
NMHLD	4	144	5	144
NMHLD	4	288	4	144
NMHLD	5	48	6	144
NMTAP	5	192	7
NMTAP	5	288	0
NMTAP	5	288	6
EXTAP	6	0	1
EXTAP	6	0	5
NMTAP	6	96	2
NMTAP	6	96	3
NMTAP	6	192	4
NMTAP	6	240	4
NMTAP	6	288	3
NMTAP	7	0	4
NMTAP	7	0	5
NMTAP	7	96	2
NMTAP	7	96	6
NMTAP	7	192	3
NMTAP	7	240	3
NMTAP	7	288	4
NMHLD	8	0	1	96
NMHLD	8	96	0	96
NMHLD	8	192	7	96
NMHLD	8	288	6	96
NMTAP	9	0	4
NMSTR	9	96	5
NMSUL	9	96	5	96	192	3
NMHLD	10	0	0	1536
NMTTP	12	0	2	E	0	M1
NMTTP	12	144	4	E	0	M1
NMTTP	13	0	6	E	0	M1
NMTTP	13	144	4	E	0	M1
NMSTR	14	0	5
NMSI_	14	0	5	96	48	3
NMTAP	14	96	1
NMTAP	14	192	2
NMTAP	14	240	2
NMTAP	14	336	1
NMSTR	15	0	1
NMSI_	15	0	1	96	48	4
NMTAP	15	96	6
NMTAP	15	192	5
NMTAP	15	240	5
NMTAP	15	336	7
NMSTR	16	0	7
NMSI_	16	0	7	96	48	3
NMTAP	16	96	0
NMTAP	16	192	2
NMTAP	16	240	2
NMTAP	16	336	1
NMSTR	17	0	1
NMSI_	17	0	1	96	48	6
NMSTR	17	192	5
NMSI_	17	192	5	96	48	2
NMSTR	18	0	0
NMSI_	18	0	0	96	48	4
NMTAP	18	96	7
NMTAP	18	192	5
NMTAP	18	240	4
NMTAP	18	240	5
NMTAP	18	336	0
NMTAP	18	336	7
NMTAP	19	48	2
NMSTR	19	96	2
NMSCR	19	96	2	96	48	4
NMSTR	19	192	6
NMSI_	19	192	6	96	48	2
NMHLD	20	0	0	96
NMTAP	20	96	7
NMTAP	20	192	1
NMTAP	20	192	6
NMTAP	20	240	1
NMTAP	20	240	6
NMTAP	20	336	2
NMTAP	20	336	3
NMTAP	21	0	2
NMTAP	21	0	3
NMTAP	21	96	4
NMTAP	21	96	6
NMTAP	21	192	0
NMSTR	21	192	1
NMSI_	21	192	1	96	48	4
NMSTR	21	288	5
NMSCR	21	288	5	96	288	3
NMHLD	23	0	5	96
EXTAP	23	96	4
NMTAP	23	192	6
NMTAP	23	240	6
EXTAP	23	288	4
NMHLD	24	0	2	96
EXTAP	24	96	3
NMTAP	24	192	1
NMTAP	24	240	1
EXSTR	24	288	3
NMSCL	24	288	3	96	240	5
BRTAP	25	288	0
NMTAP	26	0	7
NMTAP	26	48	7
NMTAP	26	96	0
NMTAP	26	96	6
NMTAP	26	192	1
NMTAP	26	240	1
NMTAP	26	288	3
NMTAP	26	336	2
NMTAP	27	0	5
NMTAP	27	48	5
NMTAP	27	96	4
NMTAP	27	96	6
NMTAP	27	192	1
NMTAP	27	240	1
NMTAP	27	288	3
NMTAP	27	336	2
NMSTR	28	0	4
NMSCR	28	0	4	96	48	7
NMTAP	28	96	0
NMSTR	28	192	1
NMSCR	28	192	1	96	48	4
NMTAP	28	288	5
NMSTR	29	0	6
NMSCR	29	0	6	96	48	1
NMTAP	29	96	2
NMTAP	29	192	3
NMTAP	29	240	3
NMTAP	29	288	2
NMTAP	29	288	4
NMTAP	30	0	0
NMTAP	30	48	0
NMTAP	30	96	1
NMTAP	30	96	7
NMTAP	30	192	6
NMTAP	30	240	6
NMTAP	30	288	4
NMTAP	30	336	5
NMTAP	31	0	2
NMTAP	31	48	2
NMTAP	31	96	1
NMTAP	31	96	3
NMTAP	31	192	6
NMTAP	31	240	6
NMTAP	31	288	4
NMTAP	31	336	5
NMSTR	32	0	3
NMSCL	32	0	3	96	48	0
NMTAP	32	96	7
NMSTR	32	192	6
NMSCL	32	192	6	96	48	3
NMTAP	32	288	2
EXSTR	33	0	1
NMSI_	33	0	1	96	48	7
EXSTR	33	96	5
NMSI_	33	96	5	96	48	3
EXSTR	33	192	1
NMSI_	33	192	1	96	48	5
NMHLD	34	0	4	192
NMHLD	34	0	6	192
NMTAP	34	288	5
NMHLD	35	0	3	96
NMHLD	35	0	4	96
NMTAP	35	192	2
NMTAP	35	288	1
NMSTR	36	0	0
NMSI_	36	0	0	96	48	4
NMSTR	36	0	7
NMSI_	36	0	7	96	48	3
NMTAP	36	192	1
NMTAP	36	192	6
NMTAP	36	288	2
NMTAP	36	336	2
NMTAP	36	336	3
NMTAP	37	48	5
NMTAP	37	96	4
NMTAP	37	96	5
NMSTR	37	192	3
NMSCL	37	192	3	96	48	1
NMSTR	37	192	4
NMSCR	37	192	4	96	48	6
EXTAP	38	0	3
EXTAP	38	0	4
NMHLD	38	96	0	24
NMHLD	38	96	1	24
NMHLD	38	192	2	24
NMHLD	38	192	3	24
NMHLD	38	288	4	24
NMHLD	38	288	5	24
NMHLD	39	0	6	24
NMHLD	39	0	7	24
NMHLD	39	96	0	24
NMHLD	39	96	1	24
NMSTR	39	192	2
NMSI_	39	192	2	96	48	7
NMSTR	39	192	3
NMSI_	39	192	3	96	48	6
EXTAP	40	0	0
EXTAP	40	0	5
EXTAP	40	96	2
EXTAP	40	96	6
EXTAP	40	144	2
EXTAP	40	144	6
NMTAP	40	288	3
NMTAP	40	288	7
NMTAP	40	336	2
NMTAP	40	336	6
NMTAP	41	0	1
NMTAP	41	0	5
NMTAP	41	48	0
NMTAP	41	48	4
NMSTR	41	192	1
NMSI_	41	192	1	96	48	4
NMSTR	41	288	6
NMSXL	41	288	6	96	288	3
NMTAP	43	0	2
NMTAP	43	48	2
NMTAP	43	96	3
NMTAP	43	144	3
NMTAP	43	288	2
NMTAP	43	336	2
NMTAP	44	0	3
NMTAP	44	48	3
NMTAP	44	192	2
NMTAP	44	288	2
NMTAP	44	288	3
NMTTP	45	0	5	E	0	M1
NMTTP	45	48	4	E	0	M1
NMTTP	45	96	3	E	0	M1
NMTTP	45	144	2	E	0	M1
NMTTP	45	288	6	E	0	M1
NMTTP	45	336	5	E	0	M1
NMTTP	46	0	4	E	0	M1
NMTTP	46	48	3	E	0	M1
NMTAP	46	192	2
NMTAP	46	288	2
NMTAP	46	288	3
NMTAP	47	0	5
NMTAP	47	48	5
NMTAP	47	96	4
NMTAP	47	144	4
NMTAP	47	288	5
NMTAP	47	336	5
NMTAP	48	0	4
NMTAP	48	48	4
NMTAP	48	192	5
NMTAP	48	288	4
NMTAP	48	288	5
NMTAP	49	0	3
NMTAP	49	0	4
NMTAP	49	96	2
NMTAP	49	144	2
NMTAP	49	192	3
NMTAP	49	288	0
NMTAP	49	288	1
NMHLD	50	0	6	96
NMTAP	50	0	7
NMHLD	50	96	4	96
NMHLD	50	192	2	96
NMSTR	50	288	0
NMSCR	50	288	0	96	192	6
BXTAP	51	192	7
NMTAP	51	288	0
NMTAP	51	288	6
NMHLD	52	0	1	96
NMTAP	52	96	3
NMHLD	52	192	5	96
NMTAP	52	288	4
NMHLD	53	0	3	96
NMTAP	53	96	4
NMHLD	53	192	4	24
NMHLD	53	192	5	24
NMHLD	53	288	2	24
NMHLD	53	288	3	24
NMTAP	54	0	4
NMTAP	54	48	4
NMTAP	54	96	3
NMTAP	54	144	3
NMTAP	54	240	2
NMTAP	54	240	4
NMTAP	54	288	2
NMTAP	54	288	4
NMHLD	55	0	0	72
NMHLD	55	72	1	72
NMTAP	55	144	2
NMHLD	55	192	6	72
NMHLD	55	264	5	72
NMTAP	55	336	4
NMHLD	56	0	2	72
NMHLD	56	72	3	72
NMTAP	56	144	4
NMTAP	56	192	4
NMTAP	56	192	5
NMTAP	56	264	3
NMTAP	56	264	4
NMTAP	56	336	2
NMTAP	56	336	3
NMTAP	57	0	2
NMTAP	57	0	3
NMTAP	57	96	0
NMTAP	57	96	4
NMTAP	57	192	4
NMTAP	57	192	5
NMTAP	57	288	3
NMTAP	57	288	7
NMTAP	58	0	6
NMTAP	58	48	6
NMTAP	58	96	4
NMTAP	58	144	4
NMTAP	58	192	3
NMTAP	58	240	3
NMSTR	58	288	1
NMSXR	58	288	1	96	288	4
NMTAP	59	336	5
NMSTR	60	0	5
NMSI_	60	0	5	96	48	2
NMTAP	60	96	1
NMTAP	60	192	3
NMTAP	60	240	3
NMTAP	60	336	1
NMSTR	61	0	1
NMSI_	61	0	1	96	48	4
NMTAP	61	96	7
NMTAP	61	192	5
NMTAP	61	240	5
NMTAP	61	336	6
NMTAP	62	0	6
NMTAP	62	96	3
NMTAP	62	144	3
NMTAP	62	192	4
NMTAP	62	240	2
NMSTR	63	0	6
NMSI_	63	0	6	96	48	3
NMTAP	63	96	1
NMTAP	63	192	2
NMTAP	63	240	2
NMTAP	63	240	3
NMTAP	63	336	0
NMTAP	63	336	7
NMTAP	64	48	5
NMSTR	64	96	5
NMSCL	64	96	5	96	48	3
NMSTR	64	192	1
NMSI_	64	192	1	96	48	5
NMTAP	65	0	7
NMTAP	65	48	7
NMTAP	65	96	0
NMTAP	65	144	7
NMTAP	65	192	1
NMTAP	65	192	6
NMTAP	65	240	1
NMTAP	65	240	6
NMTAP	65	336	4
NMTAP	65	336	5
NMSTR	66	0	4
NMSI_	66	0	4	96	48	0
NMTAP	66	0	5
NMTTP	66	192	7	E	0	M1
NMTTP	66	216	6	E	0	M1
NMTTP	66	240	5	E	0	M1
NMTTP	66	288	1	E	0	M1
NMTTP	66	312	2	E	0	M1
NMTTP	66	336	3	E	0	M1
NMTTP	67	0	0	C	1	M1
NMTAP	68	0	7
NMTAP	68	96	4
NMTAP	68	96	5
NMTAP	68	192	6
NMTAP	68	240	6
NMTAP	68	288	4
NMTAP	68	336	5
NMTAP	69	0	2
NMTAP	69	48	2
NMTAP	69	96	3
NMTAP	69	192	0
NMSTR	69	288	2
NMSUR	69	288	2	96	192	4
NMTAP	69	288	3
NMSTR	70	192	6
BRSI_	70	192	6	96	48	2
NMTAP	71	0	0
NMTAP	71	48	0
NMSTR	71	96	1
NMSCR	71	96	1	96	120	4
NMSTR	71	96	7
NMSUR	71	96	7	96	120	4
NMSTR	72	0	5
NMSI_	72	0	5	96	48	0
NMSTR	72	96	1
NMSI_	72	96	1	96	48	4
NMTAP	72	192	6
NMTAP	72	288	7
NMTAP	72	336	7
NMTAP	73	0	0
NMTAP	73	48	6
EXTAP	73	96	4
EXTAP	73	96	5
NMTAP	73	144	3
NMTAP	73	192	7
NMTAP	73	240	7
EXTAP	73	288	0
EXTAP	73	288	6
NMTAP	74	0	2
NMTAP	74	0	4
NMTAP	74	48	1
EXTAP	74	96	7
NMTAP	74	144	7
NMTAP	74	192	2
NMTAP	74	240	2
EXTAP	74	288	1
EXTAP	74	288	3
NMTAP	75	0	7
NMTAP	75	48	7
NMSTR	75	96	0
NMSUL	75	96	0	96	120	3
NMSTR	75	96	6
NMSCL	75	96	6	96	120	3
NMSTR	76	0	2
NMSI_	76	0	2	96	48	7
NMSTR	76	96	6
NMSI_	76	96	6	96	48	3
NMTAP	76	192	1
NMTAP	76	288	0
NMTAP	76	336	0
NMTAP	77	0	7
NMTAP	77	48	1
EXTAP	77	96	2
EXTAP	77	96	3
NMTAP	77	144	4
NMTAP	77	192	0
NMTAP	77	240	0
EXTAP	77	288	1
EXTAP	77	288	7
EXTAP	78	0	3
EXSTR	78	0	5
NMSI_	78	0	5	96	48	3
EXSTR	78	96	1
NMSI_	78	96	1	96	48	7
EXSTR	78	192	6
NMSI_	78	192	6	96	48	2
NMHLD	79	0	0	192
NMTAP	79	192	2
NMTAP	79	288	1
NMTAP	79	288	3
NMTAP	80	0	6
NMTAP	80	48	6
NMTAP	80	96	4
NMTAP	80	144	4
NMTAP	80	192	3
NMTAP	80	240	3
NMTAP	80	288	1
NMTAP	80	336	1
NMHLD	81	0	7	96
NMTAP	81	96	0
NMTAP	81	192	7
NMTAP	81	240	7
NMTAP	81	288	1
NMTAP	81	336	0
NMTAP	81	336	1
NMTAP	82	48	5
NMTAP	82	96	4
NMTAP	82	96	5
NMSTR	82	192	6
NMSI_	82	192	6	96	48	4
NMSTR	82	192	7
NMSI_	82	192	7	96	48	3
EXTAP	83	0	0
EXTAP	83	0	1
NMHLD	83	96	6	24
NMHLD	83	96	7	24
NMHLD	83	192	4	24
NMHLD	83	192	5	24
NMHLD	83	288	2	24
NMHLD	83	288	3	24
NMHLD	84	0	0	24
NMHLD	84	0	1	24
NMHLD	84	96	6	24
NMHLD	84	96	7	24
NMSTR	84	192	4
NMSI_	84	192	4	96	48	1
NMSTR	84	192	5
NMSI_	84	192	5	96	48	0
EXTAP	85	0	2
EXTAP	85	0	7
EXTAP	85	96	1
EXTAP	85	96	5
EXTAP	85	144	1
EXTAP	85	144	5
NMTAP	85	288	3
NMTAP	85	288	7
NMTAP	85	336	2
NMTAP	85	336	6
NMTAP	86	0	1
NMTAP	86	0	5
NMTAP	86	48	0
NMTAP	86	48	4
NMSTR	86	192	6
NMSI_	86	192	6	96	48	2
NMSTR	86	288	1
NMSI_	86	288	1	96	48	5
BXTAP	87	0	7
NMTAP	87	96	0
NMTAP	87	96	6
NMTAP	87	192	1
NMTAP	87	240	1
NMTAP	87	288	0
NMTAP	87	336	0
NMTAP	88	0	7
NMTAP	88	48	7
NMTAP	88	96	6
NMTAP	88	144	6
NMTAP	88	192	0
NMTAP	88	240	0
NMTAP	88	288	1
NMTAP	88	288	7
NMTAP	88	336	1
NMTAP	88	336	7
NMTAP	89	0	2
NMSTR	89	0	6
NMSI_	89	0	6	96	48	2
NMTAP	89	192	1
NMTAP	89	240	1
NMTAP	89	288	0
NMTAP	89	336	2
NMTAP	89	336	7
NMTAP	90	48	6
NMTAP	90	48	7
NMTAP	90	96	0
NMTAP	90	96	5
NMSTR	90	192	0
NMSI_	90	192	0	96	48	4
NMSTR	90	192	1
NMSI_	90	192	1	96	48	3
EXTAP	91	0	6
EXTAP	91	0	7
NMHLD	91	96	4	24
NMHLD	91	96	5	24
NMHLD	91	192	0	24
NMHLD	91	192	1	24
NMHLD	91	288	2	24
NMHLD	91	288	3	24
NMHLD	92	0	6	24
NMHLD	92	0	7	24
NMSTR	92	96	0
NMSI_	92	96	0	96	48	4
NMSTR	92	192	6
NMSI_	92	192	6	96	48	2
NMSTR	92	288	1
NMSI_	92	288	1	96	48	5
NMSTR	93	0	7
NMSCL	93	0	7	96	144	1
NMTAP	93	96	0
NMTAP	93	288	0
NMTAP	93	288	7
NMTAP	93	336	1
NMTAP	93	336	6
NMTAP	94	0	2
NMTAP	94	0	5
NMTAP	94	48	3
NMTAP	94	48	4
NMSTR	94	192	0
NMSI_	94	192	0	96	48	4
NMSTR	94	192	7
NMSI_	94	192	7	96	48	3
BRHLD	95	0	1	192
BRHLD	95	0	6	192

T_REC_TAP	318
T_REC_BRK	1
T_REC_XTP	35
T_REC_BXX	2
T_REC_HLD	66
T_REC_XHO	0
T_REC_BHO	2
T_REC_BXH	0
T_REC_STR	57
T_REC_BST	0
T_REC_XST	7
T_REC_XBS	0
T_REC_TTP	19
T_REC_THO	0
T_REC_SLD	63
T_REC_BSL	1
T_REC_ALL	571
T_NUM_TAP	436
T_NUM_BRK	6
T_NUM_HLD	66
T_NUM_SLD	63
T_NUM_ALL	571
T_JUDGE_TAP	439
T_JUDGE_HLD	152
T_JUDGE_SLD	64
T_JUDGE_ALL	655
TTM_EACHPAIRS	114
TTM_SCR_TAP	218000
TTM_SCR_BRK	15600
TTM_SCR_HLD	66000
TTM_SCR_SLD	94500
TTM_SCR_ALL	394100
TTM_SCR_S	381700
TTM_SCR_SS	393500
TTM_RAT_ACV	10015

