VERSION	0.00.00	1.04.00
FES_MODE	0
BPM_DEF	167.000	167.000	167.000	167.000
MET_DEF	4	4
RESOLUTION	384
CLK_DEF	384
COMPATIBLE_CODE	MA2

BPM	0	0	167.000
MET	0	0	4	4

BRTAP	1	0	4
BRTAP	1	0	5
BRTAP	1	96	1
BRTAP	1	96	7
NMTAP	1	144	0
NMTAP	1	160	0
NMTAP	1	176	0
NMSTR	1	192	0
NMSI_	1	192	0	96	48	4
NMTAP	1	288	0
NMTAP	1	288	3
NMTAP	2	0	3
NMTAP	2	0	5
NMTAP	2	24	3
NMTAP	2	24	5
NMTAP	2	72	6
NMTAP	2	96	7
NMTAP	2	120	6
NMTAP	2	144	7
NMTAP	2	168	6
NMSTR	2	192	7
NMSI_	2	192	7	96	48	4
NMSCR	2	192	7	96	48	4
BRTAP	2	288	7
NMTAP	3	0	5
NMTAP	3	48	5
NMTAP	3	96	4
NMTAP	3	96	5
NMTAP	3	144	5
NMTAP	3	192	2
NMTAP	3	192	5
NMTAP	3	240	1
NMTAP	3	264	3
NMTAP	3	312	3
NMTAP	3	336	1
NMTAP	4	0	2
NMTAP	4	0	4
NMTAP	4	48	2
NMTAP	4	96	2
NMTAP	4	96	3
NMTAP	4	144	2
NMTAP	4	192	2
NMTAP	4	192	5
NMTAP	4	240	6
NMTAP	4	264	4
NMTAP	4	312	4
NMTAP	4	336	6
NMTAP	5	0	3
NMTAP	5	0	7
NMTAP	5	48	7
NMTAP	5	96	5
NMTAP	5	96	7
NMTAP	5	144	7
NMTAP	5	192	2
NMTAP	5	192	7
NMTAP	5	240	1
NMTAP	5	264	3
NMTAP	5	312	3
NMTAP	5	336	1
NMTAP	6	0	5
NMTAP	6	24	4
NMTAP	6	72	6
NMTAP	6	96	7
NMTAP	6	120	6
NMTAP	6	144	7
NMTAP	6	168	6
NMSTR	6	192	7
NMSI_	6	192	7	96	48	3
NMTAP	6	288	0
NMTAP	6	288	7
NMTAP	7	0	2
NMTAP	7	0	5
NMTAP	7	48	2
NMTAP	7	96	0
NMTAP	7	96	2
NMTAP	7	144	2
NMTAP	7	192	2
NMTAP	7	192	6
NMTAP	7	240	5
NMTAP	7	264	7
NMTAP	7	312	7
NMTAP	7	336	5
NMTAP	8	0	0
NMTAP	8	0	4
NMTAP	8	48	4
NMTAP	8	96	4
NMTAP	8	96	6
NMTAP	8	144	4
NMTAP	8	192	3
NMTAP	8	192	4
NMTAP	8	240	2
NMTAP	8	264	0
NMTAP	8	312	0
NMTAP	8	336	2
NMTAP	9	0	3
NMTAP	9	0	7
NMTAP	9	48	3
NMTAP	9	96	2
NMTAP	9	96	3
NMTAP	9	144	3
NMTAP	9	192	3
NMTAP	9	192	6
NMTAP	9	240	5
NMTAP	9	264	7
NMTAP	9	312	7
NMTAP	9	336	5
NMTAP	10	0	2
NMTAP	10	24	3
NMTAP	10	72	1
NMTAP	10	96	0
NMTAP	10	120	1
NMTAP	10	144	0
NMSTR	10	192	2
NMSI_	10	192	2	96	48	5
NMSTR	10	192	6
NMSI_	10	192	6	96	48	1
BRTAP	10	288	2
BRTAP	10	288	6
NMSTR	11	0	4
NMSI_	11	0	4	96	48	2
NMTAP	11	0	7
NMHLD	11	96	6	96
NMSTR	11	192	1
NMSI_	11	192	1	96	48	4
NMTAP	11	240	7
NMHLD	11	288	7	96
NMTAP	12	0	5
NMTAP	12	48	6
NMTAP	12	96	4
NMHLD	12	144	3	96
NMTAP	12	144	5
NMSTR	12	240	2
NMSCL	12	240	2	96	144	5
NMHLD	12	336	0	192
NMHLD	13	144	4	96
NMTAP	13	240	5
NMSTR	13	288	5
NMSI_	13	288	5	96	48	2
NMHLD	14	0	6	144
NMTAP	14	192	1
NMTAP	14	216	0
NMTAP	14	240	1
NMTAP	14	264	0
NMTAP	14	312	2
NMTAP	14	336	3
NMTAP	14	360	2
NMSTR	15	0	3
NMSI_	15	0	3	96	48	5
NMHLD	15	96	1	96
NMSTR	15	192	6
NMSI_	15	192	6	96	48	3
NMTAP	15	240	0
NMHLD	15	288	0	96
NMTAP	16	0	2
NMTAP	16	48	1
NMTAP	16	96	3
NMTAP	16	144	2
NMHLD	16	144	4	96
NMSTR	16	240	5
NMSCR	16	240	5	96	144	2
NMHLD	16	336	7	192
NMHLD	17	144	3	96
NMTAP	17	240	2
NMSTR	17	288	2
NMSI_	17	288	2	96	48	5
NMTAP	18	0	0
NMSTR	18	48	0
NMSI_	18	48	0	96	48	4
NMSTR	18	144	7
NMSI_	18	144	7	96	48	2
NMSI_	18	144	7	96	48	4
BRTAP	18	240	7
NMTAP	18	336	1
NMTAP	18	336	5
NMSTR	19	0	1
NMSCR	19	0	1	96	48	4
NMTAP	19	0	5
NMTAP	19	96	6
NMSTR	19	144	6
NMSXR	19	144	6	96	144	0
NMTAP	19	240	3
NMTAP	19	288	3
NMTAP	19	336	2
NMSTR	20	0	2
NMSCL	20	0	2	96	48	7
NMTAP	20	96	5
NMSTR	20	144	5
NMSXL	20	144	5	96	144	3
NMTAP	20	240	0
NMTAP	20	288	0
NMTAP	20	336	1
NMSTR	21	0	1
NMSCL	21	0	1	96	48	6
NMTAP	21	96	4
NMSTR	21	144	4
NMSLL	21	144	4	96	96	6
NMTAP	21	240	0
NMTAP	21	288	0
NMTAP	22	0	1
NMTAP	22	0	7
NMTAP	22	48	1
NMTAP	22	48	7
NMTAP	22	96	2
NMTAP	22	96	6
NMTAP	22	144	2
NMTAP	22	144	6
NMSTR	22	192	1
NMSI_	22	192	1	96	48	3
NMSTR	22	192	5
NMSI_	22	192	5	96	48	7
EXTAP	22	288	1
EXTAP	22	288	5
NMTAP	23	0	2
NMSTR	23	0	6
NMSCL	23	0	6	96	48	3
NMTAP	23	96	2
NMSTR	23	144	2
NMSXR	23	144	2	96	144	7
NMTAP	23	240	4
NMTAP	23	288	4
NMTAP	23	336	5
NMSTR	24	0	5
NMSCR	24	0	5	96	48	0
NMTAP	24	96	1
NMSTR	24	144	1
NMSV_	24	144	1	96	48	4
NMTAP	24	240	7
NMTAP	24	288	7
NMTAP	25	0	4
NMTAP	25	0	5
NMTAP	25	48	6
NMTAP	25	96	2
NMTAP	25	96	3
NMTAP	25	144	1
NMSTR	25	192	4
NMSI_	25	192	4	96	48	1
NMSTR	25	192	5
NMSI_	25	192	5	96	48	0
NMTAP	25	288	4
NMTAP	25	288	5
EXTAP	26	0	0
EXTAP	26	0	1
NMTAP	26	48	0
NMTAP	26	48	7
NMTAP	26	96	6
NMTAP	26	96	7
NMTAP	26	144	5
NMSTR	26	144	6
NMSI_	26	144	6	96	48	3
NMTAP	26	240	4
NMSTR	26	288	4
NMSCR	26	288	4	96	288	3
NMTTP	27	0	0	C	1	M1
NMTAP	28	0	4
NMHLD	28	0	5	192
NMTTP	28	96	6	B	0	M1
NMTAP	28	192	7
NMHLD	28	240	7	144
NMTTP	28	288	0	B	0	M1
NMHLD	29	0	1	192
NMTTP	29	96	2	B	0	M1
NMTAP	29	192	3
NMHLD	29	240	3	48
NMTTP	29	288	0	C	0	M1
NMHLD	30	0	0	48
NMHLD	30	0	1	48
NMTAP	30	72	0
NMTAP	30	72	7
NMTAP	30	120	0
NMTAP	30	120	7
BRTAP	30	192	1
BRTAP	30	192	5
NMTAP	30	240	0
NMTAP	30	288	0
NMTAP	30	288	7
NMTAP	30	336	6
NMTAP	31	0	2
NMTAP	31	0	6
NMTAP	31	96	1
NMTAP	31	120	3
NMTAP	31	144	2
NMTAP	31	192	6
NMTAP	31	216	4
NMTAP	31	240	5
NMTAP	31	288	0
NMTAP	31	312	3
NMTAP	31	336	2
NMTAP	32	0	6
NMTAP	32	24	4
NMTAP	32	48	6
NMTAP	32	72	4
NMTAP	32	96	5
NMTAP	32	120	3
NMTAP	32	144	5
NMTAP	32	168	3
NMSTR	32	192	4
NMSI_	32	192	4	96	48	7
BRTAP	32	288	0
NMTAP	33	0	1
NMHLD	33	0	7	48
NMTAP	33	12	2
NMTAP	33	24	3
NMHLD	33	72	0	48
NMTAP	33	72	6
NMTAP	33	84	5
NMTAP	33	96	4
NMTAP	33	144	1
NMHLD	33	144	7	48
NMTAP	33	156	2
NMTAP	33	168	3
NMHLD	33	216	0	48
NMTAP	33	216	6
NMTAP	33	228	5
NMTAP	33	240	4
NMTAP	33	288	2
NMSTR	33	288	7
NMSF_	33	288	7	96	48	3
NMTAP	33	300	3
NMTAP	33	312	4
NMTAP	33	336	6
BRTAP	34	0	7
NMSTR	34	96	1
NMSXL	34	96	1	96	120	4
NMSTR	34	96	5
NMSXL	34	96	5	96	120	0
BRTAP	34	192	1
BRTAP	34	192	5
NMHLD	35	0	3	48
NMHLD	35	0	7	48
NMHLD	35	72	1	48
NMHLD	35	72	5	48
NMHLD	35	144	0	48
NMHLD	35	144	4	48
NMHLD	35	216	3	48
NMHLD	35	216	7	48
NMSTR	35	288	0
NMSI_	35	288	0	96	48	3
NMSTR	35	288	4
NMSI_	35	288	4	96	48	7
NMTAP	35	336	1
NMTAP	35	336	5
NMTAP	36	0	0
NMTAP	36	0	4
NMSTR	36	192	3
BRSCL	36	192	3	96	48	0
NMSTR	36	192	7
BRSCL	36	192	7	96	48	4
BRTAP	36	288	3
BRTAP	36	288	7
NMSTR	37	0	1
NMSI_	37	0	1	96	48	4
NMTAP	37	0	5
NMTAP	37	96	1
NMSTR	37	96	7
NMSCR	37	96	7	96	48	2
NMTAP	37	144	6
NMTAP	37	192	5
NMSTR	37	192	7
NMSI_	37	192	7	96	48	3
NMTAP	37	288	3
NMTAP	37	288	7
CNSI_	37	336	3	0	24	5
NMTAP	38	0	1
NMTAP	38	48	5
NMTAP	38	72	4
NMTAP	38	120	2
NMSTR	38	144	3
NMSI_	38	144	3	96	48	7
NMTAP	38	240	0
NMTAP	38	288	2
NMSTR	39	0	6
NMSCL	39	0	6	96	48	3
NMTAP	39	48	0
NMSTR	39	96	2
NMSI_	39	96	2	96	48	5
NMTAP	39	144	0
NMSTR	39	192	6
NMSI_	39	192	6	96	48	3
NMSTR	39	288	2
NMSCL	39	288	2	96	96	4
NMTAP	39	288	6
NMTAP	40	0	7
NMTAP	40	96	3
NMHLD	40	144	3	96
NMTAP	40	240	7
BRTAP	40	288	1
BRTAP	40	288	5
NMSTR	41	0	6
NMSI_	41	0	6	96	48	3
NMSTR	41	48	3
NMSCR	41	48	3	96	24	4
NMTAP	41	96	6
NMSTR	41	144	1
NMSI_	41	144	1	96	48	5
CNSI_	41	168	4	0	48	7
NMTAP	41	240	1
NMTAP	41	288	7
NMTAP	41	336	6
NMSTR	42	0	1
NMSI_	42	0	1	96	48	4
NMTAP	42	0	5
NMSTR	42	48	4
NMSCL	42	48	4	96	24	3
NMTAP	42	96	1
NMSTR	42	144	6
NMSI_	42	144	6	96	48	2
CNSI_	42	168	3	0	48	0
NMTAP	42	240	6
NMTAP	42	288	7
NMTAP	42	336	0
NMTAP	43	0	1
NMTAP	43	24	1
NMTAP	43	48	7
NMTAP	43	72	7
NMTAP	43	96	5
NMTAP	43	120	5
NMTAP	43	144	1
NMTAP	43	168	1
NMTAP	43	192	3
NMTAP	43	216	3
NMTAP	43	240	5
NMTAP	43	264	5
NMTAP	43	288	1
NMTAP	43	312	1
NMTAP	43	336	3
NMTAP	43	360	3
NMTAP	44	0	0
NMTAP	44	24	6
NMTAP	44	48	4
NMTAP	44	72	7
NMTAP	44	96	1
NMTAP	44	120	3
NMTAP	44	144	0
NMTAP	44	168	4
BRSTR	44	192	1
NMSI_	44	192	1	96	48	4
BRSTR	44	192	5
NMSI_	44	192	5	96	48	0
BRTAP	44	288	1
BRTAP	44	288	5
NMTAP	45	0	2
NMSTR	45	0	6
NMSI_	45	0	6	96	48	3
NMSTR	45	96	0
NMSCL	45	96	0	96	48	5
NMTAP	45	96	6
NMTAP	45	144	1
NMSTR	45	192	0
NMSI_	45	192	0	96	24	4
NMTAP	45	192	2
NMTAP	45	288	0
NMTAP	45	288	4
CNSI_	45	312	4	0	48	2
NMTAP	46	0	6
NMTAP	46	48	2
NMTAP	46	72	3
NMTAP	46	120	5
NMSTR	46	144	4
NMSI_	46	144	4	96	48	0
NMTAP	46	240	7
NMTAP	46	288	5
NMSTR	47	0	1
NMSCR	47	0	1	96	48	4
NMTAP	47	48	7
NMSTR	47	96	5
NMSI_	47	96	5	96	48	2
NMTAP	47	144	7
NMSTR	47	192	1
NMSI_	47	192	1	96	48	4
NMTAP	47	288	1
NMSTR	47	288	5
NMSCR	47	288	5	96	96	3
NMTAP	48	0	0
NMTAP	48	96	4
NMHLD	48	144	4	96
NMTAP	48	240	0
BRTAP	48	288	2
BRTAP	48	288	6
NMSTR	49	0	1
NMSI_	49	0	1	96	48	4
NMSTR	49	48	4
NMSCL	49	48	4	96	24	3
NMTAP	49	96	1
NMSTR	49	144	6
NMSI_	49	144	6	96	48	2
CNSI_	49	168	3	0	48	7
NMTAP	49	240	6
NMTAP	49	288	0
NMTAP	49	336	1
NMTAP	50	0	2
NMSTR	50	0	6
NMSI_	50	0	6	96	48	3
NMSTR	50	48	3
NMSCR	50	48	3	96	24	4
NMTAP	50	96	6
NMSTR	50	144	1
NMSI_	50	144	1	96	48	5
CNSI_	50	168	4	0	48	0
NMTAP	50	240	1
NMTAP	50	288	7
NMTAP	50	336	6
NMTAP	51	0	2
NMTAP	51	24	3
NMTAP	51	48	2
NMTAP	51	72	4
NMTAP	51	96	2
NMTAP	51	120	5
NMTAP	51	144	2
NMTAP	51	168	6
NMTAP	51	192	2
NMTAP	51	216	6
NMTAP	51	240	1
NMTAP	51	264	5
NMTAP	51	288	0
NMTAP	51	312	4
NMTAP	51	336	7
NMTAP	51	360	3
NMTAP	52	0	0
NMTAP	52	24	1
NMTAP	52	48	2
NMTAP	52	72	3
NMTAP	52	96	0
NMTAP	52	96	4
NMTAP	52	120	5
NMTAP	52	144	6
NMTAP	52	168	7
NMTAP	52	192	0
NMTAP	52	192	4
NMTAP	52	216	1
NMTAP	52	216	5
NMTAP	52	240	2
NMTAP	52	240	6
NMTAP	52	264	3
NMTAP	52	264	7
BRTAP	52	288	0
BRTAP	52	288	4
NMHLD	53	0	2	48
NMHLD	53	0	6	48
NMTAP	53	96	5
NMTAP	53	120	5
NMTAP	53	144	4
NMTAP	53	192	3
NMTAP	53	192	5
NMTAP	53	240	2
NMTAP	53	240	4
NMTAP	53	288	1
NMTAP	53	312	1
NMTAP	53	336	3
NMTAP	54	0	2
NMTAP	54	0	3
NMSTR	54	48	3
NMSI_	54	48	3	96	48	6
NMTAP	54	48	4
NMTAP	54	96	4
NMTAP	54	96	5
NMSTR	54	144	3
NMSI_	54	144	3	96	48	7
NMTAP	54	144	4
NMTAP	54	240	0
NMTAP	54	288	0
NMTAP	55	0	2
NMTAP	55	0	3
NMTAP	55	48	3
NMSTR	55	48	4
NMSI_	55	48	4	96	48	1
NMTAP	55	96	4
NMTAP	55	96	5
NMTAP	55	144	3
NMSTR	55	144	4
NMSI_	55	144	4	96	48	0
NMTAP	55	240	7
NMTAP	55	288	7
NMTAP	56	0	1
NMTAP	56	0	7
NMTAP	56	48	5
NMTAP	56	72	4
NMTAP	56	120	2
NMTAP	56	144	3
NMSTR	56	192	0
NMSV_	56	192	0	96	48	3
NMSTR	56	192	6
NMSV_	56	192	6	96	48	3
BRTAP	56	288	0
BRTAP	56	288	6
NMTAP	57	0	1
NMTAP	57	0	5
NMTAP	57	48	1
NMTAP	57	48	5
NMTAP	57	96	6
NMTAP	57	120	4
NMTAP	57	144	5
NMTAP	57	192	2
NMTAP	57	216	3
NMTAP	57	240	1
NMTAP	57	288	5
NMTAP	57	312	4
NMSTR	57	336	6
NMSI_	57	336	6	96	48	3
NMSTR	58	0	3
NMSCR	58	0	3	96	48	6
NMSTR	58	48	6
NMSCR	58	48	6	96	48	1
NMSTR	58	96	1
NMSLR	58	96	1	96	96	7
NMTAP	58	144	2
NMHLD	58	192	2	96
NMHLD	59	0	0	48
BRTAP	59	0	6
NMTAP	59	12	5
NMTAP	59	24	4
BRTAP	59	72	1
NMHLD	59	72	7	48
NMTAP	59	84	2
NMTAP	59	96	3
NMHLD	59	144	0	48
BRTAP	59	144	6
NMTAP	59	156	5
NMTAP	59	168	4
BRTAP	59	216	1
NMHLD	59	216	7	48
NMTAP	59	228	2
NMTAP	59	240	3
NMSTR	59	288	0
NMSXL	59	288	0	96	96	4
BRTAP	59	288	5
NMTAP	59	300	4
NMTAP	59	312	3
NMTAP	59	336	1
BRTAP	60	0	0
NMTAP	60	96	6
NMTAP	60	144	6
NMTAP	60	192	1
NMTAP	60	216	5
NMTAP	60	240	3
NMTAP	60	264	7
NMSTR	60	288	0
NMSCL	60	288	0	96	120	1
NMTAP	60	312	4
NMTAP	60	336	2
NMTAP	60	360	6
NMTAP	61	0	0
NMTAP	61	192	0
NMTAP	61	192	7
NMTAP	61	240	1
NMTAP	61	240	6
NMSTR	61	288	2
NMSI_	61	288	2	96	48	7
NMSTR	61	288	5
NMSI_	61	288	5	96	48	0
BRTAP	62	0	2
BRTAP	62	0	5
NMHLD	63	0	0	48
NMHLD	63	0	7	48
NMHLD	63	72	0	48
NMHLD	63	72	7	48
NMTAP	63	144	0
NMTAP	63	144	7
NMTAP	63	240	3
NMTAP	63	264	4
NMTAP	63	288	2
NMTAP	63	288	5
NMTAP	64	0	3
NMTAP	64	0	4
NMTAP	64	48	3
NMTAP	64	48	4
NMTAP	64	96	2
NMTAP	64	96	3
NMTAP	64	144	2
NMTAP	64	144	3
NMTAP	64	192	3
NMTAP	64	192	4
NMTAP	64	240	3
NMTAP	64	240	4
NMTAP	64	288	5
NMTAP	64	304	4
NMTAP	64	320	5
NMTAP	64	336	4
NMTAP	64	352	5
NMTAP	64	368	4
NMTAP	65	0	3
NMTAP	65	0	6
NMTAP	65	72	1
NMTAP	65	72	4
NMTAP	65	144	0
NMTAP	65	144	7
NMSTR	65	192	0
NMSI_	65	192	0	96	48	4
NMSTR	65	192	7
NMSI_	65	192	7	96	48	3
BRTAP	65	288	0
BRTAP	65	288	7
NMTAP	66	0	1
NMTAP	66	0	6
NMTAP	66	48	1
NMTAP	66	48	6
NMSTR	66	96	5
NMSI_	66	96	5	96	48	0
NMTAP	66	120	0
NMTAP	66	144	6
NMTAP	66	168	2
NMSTR	66	192	5
NMSCL	66	192	5	96	48	2
NMTAP	66	240	4
NMTAP	66	288	5
NMTAP	66	288	7
NMTAP	66	336	7
NMTAP	67	0	0
NMTAP	67	0	1
NMTAP	67	48	0
NMTAP	67	48	1
NMSTR	67	96	2
NMSI_	67	96	2	96	48	7
NMTAP	67	120	7
NMTAP	67	144	1
NMTAP	67	168	5
NMSTR	67	192	2
NMSCR	67	192	2	96	48	5
NMTAP	67	240	3
NMTAP	67	288	0
NMTAP	67	288	2
NMTAP	67	336	0
NMTAP	68	0	6
NMTAP	68	24	7
NMTAP	68	48	5
NMTAP	68	72	0
NMTAP	68	96	4
NMTAP	68	120	1
NMTAP	68	144	3
NMTAP	68	168	2
NMTAP	68	192	0
NMTAP	68	216	1
NMTAP	68	240	7
NMTAP	68	264	2
NMTAP	68	288	6
NMTAP	68	312	3
NMTAP	68	336	5
NMTAP	68	360	4
NMTAP	69	0	3
NMTAP	69	0	6
NMTAP	69	72	1
NMTAP	69	72	4
NMTAP	69	144	0
NMTAP	69	144	7
NMSTR	69	192	0
NMSCR	69	192	0	96	48	3
NMSTR	69	192	7
NMSCL	69	192	7	96	48	4
BRTAP	69	288	0
BRTAP	69	288	7
NMHLD	70	0	1	48
NMHLD	70	0	6	48
NMHLD	70	72	0	48
NMHLD	70	72	5	48
NMHLD	70	144	1	48
NMHLD	70	144	6	48
NMHLD	70	216	2	48
NMHLD	70	216	7	48
NMTAP	70	288	0
NMTAP	70	288	1
NMTAP	70	336	0
NMTAP	70	336	1
NMHLD	71	0	0	48
NMHLD	71	0	2	48
NMHLD	71	72	1	48
NMHLD	71	72	7	48
NMHLD	71	144	0	48
NMHLD	71	144	6	48
NMHLD	71	216	5	48
NMHLD	71	216	7	48
NMTAP	71	288	1
NMTAP	71	288	6
NMTAP	72	0	0
NMTAP	72	0	7
NMTAP	72	48	0
NMTAP	72	48	7
NMTAP	72	96	6
NMTAP	72	108	5
NMTAP	72	120	4
NMTAP	72	132	3
NMTAP	72	144	1
NMTAP	72	156	2
NMTAP	72	168	3
NMTAP	72	180	4
NMTAP	72	192	7
NMTAP	72	216	7
NMTAP	72	264	0
NMSTR	72	288	0
NMSI_	72	288	0	96	72	4
NMTAP	72	336	1
NMTAP	72	336	6
NMTAP	73	0	3
CNSCL	73	72	4	0	72	1
NMTAP	73	72	5
NMTAP	73	144	7
NMSTR	73	192	7
BRSI_	73	192	7	96	48	3
BRTAP	73	288	0
BRTAP	73	288	7
NMTAP	74	0	2
NMTAP	74	0	3
NMTAP	74	48	2
NMTAP	74	48	3
NMSTR	74	96	1
NMSV_	74	96	1	96	48	4
NMTAP	74	120	4
NMTAP	74	144	2
NMTAP	74	168	6
NMSTR	74	192	1
NMSCL	74	192	1	96	48	6
NMTAP	74	240	0
NMTAP	74	288	1
NMTAP	74	288	3
NMTAP	74	336	2
NMTAP	75	0	1
NMTAP	75	0	5
NMTAP	75	48	1
NMTAP	75	48	5
NMSTR	75	96	6
NMSV_	75	96	6	96	48	3
NMTAP	75	120	3
NMTAP	75	144	5
NMTAP	75	168	1
NMSTR	75	192	6
NMSCR	75	192	6	96	48	1
NMTAP	75	240	7
NMTAP	75	288	4
NMTAP	75	288	6
NMTAP	75	336	4
NMTAP	76	0	2
NMTAP	76	24	3
NMTAP	76	48	1
NMTAP	76	72	4
NMTAP	76	96	0
NMTAP	76	120	5
NMTAP	76	144	7
NMTAP	76	168	6
NMTAP	76	192	4
NMTAP	76	216	5
NMTAP	76	240	3
NMTAP	76	264	6
NMTAP	76	288	2
NMTAP	76	312	7
NMTAP	76	336	1
NMTAP	76	360	0
NMTAP	77	0	2
NMTAP	77	12	3
NMTAP	77	24	4
NMTAP	77	36	5
NMTAP	77	48	6
NMTAP	77	60	7
NMTAP	77	72	0
NMTAP	77	84	1
NMTAP	77	96	2
NMTAP	77	108	3
NMTAP	77	120	4
NMTAP	77	132	5
NMTAP	77	144	6
NMTAP	77	156	7
NMTAP	77	168	0
NMTAP	77	180	1
NMTAP	77	192	2
NMTAP	77	204	3
NMTAP	77	216	4
NMTAP	77	228	5
NMTAP	77	240	6
NMTAP	77	252	7
NMTAP	77	264	0
NMTAP	77	276	1
NMTTP	77	288	0	C	1	M1
BRTAP	77	288	2
NMHLD	78	0	0	48
NMHLD	78	0	7	48
NMTAP	78	96	1
NMTAP	78	96	6
NMTAP	78	144	1
NMTAP	78	144	6
NMTAP	78	192	5
NMTAP	78	216	4
NMTAP	78	264	4
NMTAP	78	288	6
NMTAP	78	336	0
NMTAP	78	336	2
NMTAP	79	0	1
NMSTR	79	0	7
NMSI_	79	0	7	96	48	4
NMTAP	79	96	6
NMTAP	79	144	6
NMTAP	79	192	2
NMTAP	79	216	3
NMTAP	79	264	3
NMTAP	79	288	1
NMTAP	79	336	5
NMTAP	79	336	7
NMSTR	80	0	0
NMSI_	80	0	0	96	48	3
NMTAP	80	0	6
NMTAP	80	96	1
NMTAP	80	144	1
NMTAP	80	192	5
NMTAP	80	216	4
NMTAP	80	264	4
NMTAP	80	288	5
NMTAP	80	336	2
NMTAP	80	336	7
NMTAP	81	0	1
NMTAP	81	24	0
NMTAP	81	72	0
NMTAP	81	96	1
NMTAP	81	120	7
NMTAP	81	144	2
NMTAP	81	168	6
NMTAP	81	192	3
NMTAP	81	216	5
NMTAP	81	240	1
NMTAP	81	264	0
NMTAP	81	264	4
NMTAP	81	312	2
NMTAP	81	312	6
NMTAP	81	336	2
NMTAP	81	336	6
NMTAP	82	0	4
NMTAP	82	0	5
NMTAP	82	48	7
NMTAP	82	96	2
NMTAP	82	96	3
NMTAP	82	144	0
NMTAP	82	192	4
NMTAP	82	192	5
NMTAP	82	240	7
NMTAP	82	288	2
NMTAP	82	312	3
NMTAP	82	336	1
NMTAP	83	0	6
NMTAP	83	0	7
NMTAP	83	48	5
NMTAP	83	96	0
NMTAP	83	96	1
NMTAP	83	144	2
NMTAP	83	192	6
NMTAP	83	192	7
NMTAP	83	240	5
NMTAP	83	288	1
NMTAP	83	312	0
NMTAP	83	336	2
NMSTR	84	0	4
NMSI_	84	0	4	96	48	0
NMSTR	84	0	5
NMSI_	84	0	5	96	48	1
NMTAP	84	48	3
NMTAP	84	48	6
BRTAP	84	96	4
BRTAP	84	96	5
NMSTR	84	192	2
NMSI_	84	192	2	96	48	6
NMSTR	84	192	3
NMSI_	84	192	3	96	48	7
NMTAP	84	240	1
NMTAP	84	240	4
BRTAP	84	288	2
BRTAP	84	288	3
NMTAP	85	0	0
NMTAP	85	16	1
NMTAP	85	32	2
NMTAP	85	48	3
NMTAP	85	64	4
NMTAP	85	80	5
NMTAP	85	96	1
NMTAP	85	96	6
NMTAP	85	112	2
NMTAP	85	128	3
NMTAP	85	144	4
NMTAP	85	160	5
NMTAP	85	176	6
NMTAP	85	192	2
NMTAP	85	192	7
NMTAP	85	208	3
NMTAP	85	224	4
NMTAP	85	240	5
NMTAP	85	256	6
NMTAP	85	272	7
NMTAP	85	288	0
NMTAP	85	288	7
NMTAP	85	304	1
NMTAP	85	304	6
NMTAP	85	320	2
NMTAP	85	320	5
BRTAP	85	336	3
BRTAP	85	336	4

T_REC_TAP	656
T_REC_BRK	47
T_REC_XTP	4
T_REC_BXX	0
T_REC_HLD	60
T_REC_XHO	0
T_REC_BHO	0
T_REC_BXH	0
T_REC_STR	101
T_REC_BST	2
T_REC_XST	0
T_REC_XBS	0
T_REC_TTP	6
T_REC_THO	0
T_REC_SLD	102
T_REC_BSL	3
T_REC_ALL	981
T_NUM_TAP	767
T_NUM_BRK	52
T_NUM_HLD	60
T_NUM_SLD	102
T_NUM_ALL	981
T_JUDGE_TAP	816
T_JUDGE_HLD	87
T_JUDGE_SLD	105
T_JUDGE_ALL	1008
TTM_EACHPAIRS	191
TTM_SCR_TAP	383500
TTM_SCR_BRK	135200
TTM_SCR_HLD	60000
TTM_SCR_SLD	153000
TTM_SCR_ALL	731700
TTM_SCR_S	704750
TTM_SCR_SS	726500
TTM_RAT_ACV	10071

