VERSION	0.00.00	1.04.00
FES_MODE	0
BPM_DEF	167.000	167.000	167.000	167.000
MET_DEF	4	4
RESOLUTION	384
CLK_DEF	384
COMPATIBLE_CODE	MA2

BPM	0	0	167.000
MET	0	0	4	4

NMTHO	1	0	0	384	C	1	M1
NMTTP	2	0	2	B	0	M1
NMTTP	2	0	5	B	0	M1
NMTAP	2	192	0
NMTAP	2	192	7
NMTAP	2	240	0
NMTAP	2	240	7
NMTAP	2	288	0
NMTAP	2	288	7
BRTAP	3	0	4
BRSTR	3	0	6
NMSI_	3	0	6	96	48	2
NMHLD	3	192	0	72
NMHLD	3	264	1	72
NMTAP	3	336	2
NMSTR	4	0	2
NMSI_	4	0	2	96	48	7
NMHLD	4	192	6	72
NMHLD	4	264	5	72
NMTAP	4	336	4
NMSTR	5	0	4
NMSI_	5	0	4	96	48	0
NMHLD	5	192	1	72
NMHLD	5	264	2	72
NMTAP	5	336	3
EXTAP	6	0	3
NMTAP	6	96	5
NMTAP	6	144	5
NMTAP	6	192	4
NMTAP	6	192	6
NMTAP	6	288	0
NMTAP	6	288	7
BRTAP	7	0	1
BRSTR	7	0	3
NMSI_	7	0	3	96	48	7
NMHLD	7	192	0	72
NMHLD	7	264	1	72
NMTAP	7	336	2
NMSTR	8	0	2
NMSI_	8	0	2	96	48	5
NMHLD	8	192	6	72
NMHLD	8	264	5	72
NMTAP	8	336	4
NMTAP	9	0	3
NMTAP	9	0	4
NMTAP	9	96	1
NMTAP	9	96	2
NMTAP	9	192	0
NMTAP	9	192	7
NMTAP	9	288	5
NMTAP	9	288	6
NMSTR	10	0	2
NMSV_	10	0	2	96	96	7
NMSTR	10	0	4
NMSV_	10	0	4	96	96	7
BRTAP	10	288	0
BRTAP	10	288	6
NMHLD	11	0	2	1248
NMTAP	11	0	4
NMTAP	11	96	4
NMTAP	11	192	3
NMTAP	11	288	1
NMTAP	11	336	1
NMTAP	12	0	1
NMTAP	12	96	7
NMTAP	12	192	7
NMTAP	12	288	1
NMTAP	12	336	1
NMTAP	13	0	1
NMTAP	13	96	3
NMTAP	13	192	3
NMTAP	13	288	4
NMHLD	14	0	3	96
NMTAP	14	144	2
NMTAP	14	144	3
NMTAP	14	240	3
NMTAP	14	240	4
NMTAP	14	288	3
NMTAP	14	288	4
NMTAP	15	0	3
NMHLD	15	0	5	768
NMTAP	15	96	3
NMTAP	15	192	4
NMTAP	15	288	6
NMTAP	15	336	6
NMTAP	16	0	6
NMTAP	16	96	0
NMTAP	16	192	6
NMTAP	16	288	4
NMTAP	16	336	4
NMTAP	17	0	4
NMTAP	17	96	3
NMHLD	17	144	3	96
NMHLD	17	240	1	96
NMHLD	17	336	7	96
NMHLD	18	48	5	96
NMTAP	18	144	4
NMTAP	18	240	2
NMTAP	18	240	6
NMTAP	18	288	2
NMSTR	18	288	6
NMSCR	18	288	6	96	192	3
NMSTR	19	288	1
NMSCL	19	288	1	96	192	4
NMTAP	19	288	5
NMTAP	20	288	2
NMTAP	20	288	3
NMTAP	21	0	1
NMTAP	21	48	1
NMHLD	21	96	3	96
NMTAP	21	192	2
NMTAP	21	288	3
NMTAP	21	288	4
NMTAP	22	0	6
NMTAP	22	48	6
NMHLD	22	96	4	96
NMTAP	22	192	5
NMSTR	22	288	1
NMSCR	22	288	1	96	96	4
NMTAP	22	288	3
NMTAP	23	192	5
NMTAP	23	240	5
NMSTR	23	288	6
NMSCL	23	288	6	96	96	3
NMTAP	23	288	7
NMTAP	24	192	2
NMTAP	24	240	2
NMTAP	24	288	0
NMSTR	24	288	1
NMSUR	24	288	1	96	96	5
NMSTR	25	96	6
NMSCR	25	96	6	96	96	1
NMTAP	25	288	3
NMTAP	26	0	2
NMTAP	26	48	2
NMTAP	26	96	4
NMTAP	26	144	4
NMSTR	26	192	3
NMSI_	26	192	3	96	48	7
NMTAP	26	288	5
BRTAP	27	0	0
BRTAP	27	0	6
NMTTP	27	96	1	B	0	M1
NMTTP	27	96	1	E	0	M1
NMTTP	27	96	2	B	0	M1
NMTTP	27	96	3	E	0	M1
NMTTP	27	192	4	B	0	M1
NMTTP	27	192	4	E	0	M1
NMTTP	27	192	5	B	0	M1
NMTTP	27	192	6	E	0	M1
EXTAP	27	288	0
EXTAP	27	288	7
NMHLD	28	0	1	48
NMHLD	28	0	3	48
NMHLD	28	96	0	48
NMHLD	28	96	2	48
NMSTR	28	192	1
NMSI_	28	192	1	96	48	3
NMSTR	28	192	3
NMSI_	28	192	3	96	48	7
NMTAP	29	0	4
NMTAP	29	0	6
NMTTP	29	96	4	A	0	M1
NMTTP	29	96	5	E	0	M1
NMTTP	29	96	6	E	0	M1
NMTTP	29	96	6	A	0	M1
NMTTP	29	192	1	A	0	M1
NMTTP	29	192	2	E	0	M1
NMTTP	29	192	3	E	0	M1
NMTTP	29	192	3	A	0	M1
NMTAP	29	288	0
NMSTR	29	288	7
BRSI_	29	288	7	96	72	5
BRSCL	29	288	7	96	192	1
CNSI_	30	72	5	0	48	3
CNSI_	30	120	3	0	72	1
EXTAP	30	288	7
BRTAP	31	0	0
BRTAP	31	0	6
NMTTP	31	96	5	B	0	M1
NMTTP	31	96	5	E	0	M1
NMTTP	31	96	6	B	0	M1
NMTTP	31	96	7	E	0	M1
NMTTP	31	192	2	B	0	M1
NMTTP	31	192	2	E	0	M1
NMTTP	31	192	3	B	0	M1
NMTTP	31	192	4	E	0	M1
EXTAP	31	288	0
EXTAP	31	288	7
NMHLD	32	0	4	48
NMHLD	32	0	6	48
NMHLD	32	96	5	48
NMHLD	32	96	7	48
NMTAP	32	192	4
NMSTR	32	192	6
NMSI_	32	192	6	96	48	2
NMTAP	32	288	0
NMHLD	33	0	1	72
NMHLD	33	72	3	72
NMHLD	33	144	4	72
NMHLD	33	216	6	72
NMTAP	33	288	5
NMTAP	33	336	5
NMTAP	34	0	4
NMSTR	34	0	6
NMSI_	34	0	6	96	48	2
BRTAP	34	192	0
NMTAP	34	288	1
NMTAP	34	288	7
NMHLD	35	0	2	72
NMHLD	35	72	4	72
NMHLD	35	144	3	72
NMTAP	35	216	5
NMTAP	35	288	2
NMTAP	35	288	6
NMTAP	35	336	2
NMTAP	35	336	6
EXTAP	36	0	2
EXTAP	36	0	6
NMSTR	36	192	4
NMSI_	36	192	4	96	48	0
NMTAP	36	192	5
BRTAP	37	0	1
BRTAP	37	0	7
NMTAP	37	96	2
NMTAP	37	96	3
NMTAP	37	144	4
NMTAP	37	192	0
NMTAP	37	192	5
NMSTR	37	288	2
NMSI_	37	288	2	96	48	0
NMSTR	37	288	7
NMSI_	37	288	7	96	48	3
NMSTR	38	96	4
NMSCR	38	96	4	96	48	7
NMSTR	38	96	7
NMSCR	38	96	7	96	48	2
EXTAP	38	288	2
EXTAP	38	288	7
NMTAP	39	0	1
NMTAP	39	0	4
NMTAP	39	48	2
NMTAP	39	96	3
NMTAP	39	96	6
NMTAP	39	144	5
NMSTR	39	192	2
NMSI_	39	192	2	96	48	6
NMTAP	39	192	4
NMSTR	39	288	7
NMSCR	39	288	7	96	144	5
BRTAP	40	0	0
EXTAP	40	240	6
EXTAP	40	240	7
EXTAP	40	288	6
EXTAP	40	288	7
NMTAP	41	0	3
NMTAP	41	0	4
NMTAP	41	96	1
NMTAP	41	144	0
NMTAP	41	192	2
NMTAP	41	192	7
NMTAP	41	288	4
NMTAP	41	288	5
BRTAP	42	0	2
BRTAP	42	0	3
NMTAP	42	96	6
NMTAP	42	144	7
NMTAP	42	192	0
NMTAP	42	192	5
NMTAP	42	288	2
NMTAP	42	288	3
NMTAP	43	0	1
NMTAP	43	48	1
NMTAP	43	96	3
NMTAP	43	144	2
NMTAP	43	192	5
NMTAP	43	240	5
NMTAP	43	288	4
NMTAP	43	336	6
NMTAP	44	0	6
NMTAP	44	0	7
NMTAP	44	72	1
NMTAP	44	72	7
NMTAP	44	144	2
NMTAP	44	144	3
NMTAP	44	192	2
NMSTR	44	192	3
NMSI_	44	192	3	96	48	7
BRTAP	45	0	0
BRTAP	45	0	6
NMTAP	45	96	4
NMTAP	45	96	5
NMTAP	45	144	3
NMTAP	45	192	2
NMTAP	45	192	7
NMSTR	45	288	0
NMSI_	45	288	0	96	48	4
NMSTR	45	288	5
NMSI_	45	288	5	96	48	7
NMSTR	46	96	0
NMSCL	46	96	0	96	48	5
NMSTR	46	96	3
NMSCL	46	96	3	96	48	0
EXTAP	46	288	0
EXTAP	46	288	5
NMTAP	47	0	3
NMTAP	47	0	6
NMTAP	47	48	5
NMTAP	47	96	1
NMTAP	47	96	4
NMTAP	47	144	2
NMTAP	47	192	3
NMSTR	47	192	5
NMSI_	47	192	5	96	48	1
NMSTR	47	288	0
NMSCL	47	288	0	96	144	2
BRTAP	48	0	7
EXTAP	48	240	0
EXTAP	48	240	1
EXTAP	48	288	0
EXTAP	48	288	1
NMTAP	49	0	3
NMTAP	49	0	4
NMTAP	49	96	6
NMTAP	49	144	7
NMTAP	49	192	0
NMTAP	49	192	5
NMTAP	49	288	2
NMTAP	49	288	3
BRTAP	50	0	4
BRTAP	50	0	5
NMTAP	50	96	1
NMTAP	50	144	0
NMTAP	50	192	2
NMTAP	50	192	7
NMTAP	50	288	3
NMTAP	50	288	5
NMTAP	51	0	2
NMTAP	51	48	2
NMTAP	51	96	4
NMTAP	51	144	4
NMTAP	51	192	1
NMTAP	51	240	1
NMTAP	51	288	6
NMTAP	51	336	6
NMTAP	52	0	0
NMTAP	52	24	7
NMTAP	52	48	0
NMTAP	52	72	7
NMTAP	52	96	0
NMTAP	52	120	7
NMTAP	52	144	0
NMTAP	52	168	7
NMTAP	52	192	0
NMTAP	52	216	7
NMTAP	52	240	0
BRTAP	52	288	1
BRTAP	52	288	6
NMTAP	53	0	2
NMTAP	53	48	2
NMHLD	53	96	1	48
NMHLD	53	96	3	48
NMHLD	53	192	2	48
NMHLD	53	192	4	48
NMTAP	53	288	5
NMTAP	53	336	5
NMHLD	54	0	4	48
NMHLD	54	0	6	48
NMHLD	54	96	3	48
NMHLD	54	96	5	48
NMTAP	54	192	2
NMTAP	54	240	2
NMSTR	54	288	1
NMSLR	54	288	1	96	144	7
NMTAP	54	288	3
NMSTR	55	96	5
NMSLR	55	96	5	96	144	3
NMTAP	55	288	2
NMHLD	56	0	1	72
NMTAP	56	72	0
NMTAP	56	144	2
NMTAP	56	144	6
BRTAP	56	192	2
BRTAP	56	192	6
NMTAP	56	288	4
NMTAP	56	288	5
NMTAP	57	0	3
NMTAP	57	48	3
NMHLD	57	96	2	48
NMHLD	57	96	4	48
NMHLD	57	192	1	48
NMHLD	57	192	3	48
NMTAP	57	288	0
NMTAP	57	336	7
NMHLD	58	0	4	48
NMHLD	58	0	6	48
NMHLD	58	96	3	48
NMHLD	58	96	5	48
NMTAP	58	192	2
NMTAP	58	240	2
NMTAP	58	288	3
NMTAP	58	336	1
NMHLD	59	0	1	72
NMHLD	59	72	3	72
NMHLD	59	144	4	72
NMHLD	59	216	6	72
NMTAP	59	288	7
NMTAP	59	336	7
NMSTR	60	0	0
NMSI_	60	0	0	96	48	4
NMSTR	60	0	6
NMSI_	60	0	6	96	48	3
BRTAP	60	192	7
NMTAP	60	288	0
NMHLD	60	288	6	288
NMTHO	61	0	0	384	C	1	M1
NMTTP	62	0	0	B	0	M1
NMTTP	62	0	0	E	0	M1
NMTTP	62	0	7	B	0	M1
BRTAP	63	0	0
BRTAP	63	0	7
BRTAP	63	72	1
BRTAP	63	72	6
BRHLD	63	144	2	96
BRHLD	63	144	5	96
NMTAP	63	288	3
NMTAP	63	288	4
NMTAP	64	0	3
NMTAP	64	48	3
NMTAP	64	96	2
NMTAP	64	96	4
NMTAP	64	144	2
NMTAP	64	144	4
NMTAP	64	192	1
NMTAP	64	192	5
NMTAP	64	240	1
NMTAP	64	240	5
NMSTR	64	288	0
NMSCR	64	288	0	96	144	6
NMTAP	64	288	6
NMTTP	65	0	0	C	1	M1
EXTAP	65	240	7
EXSTR	65	288	7
NMSI_	65	288	7	96	48	3
BRTAP	66	0	1
NMTAP	66	96	0
NMTAP	66	144	1
NMTAP	66	192	2
NMSTR	66	192	4
NMSI_	66	192	4	96	48	0
NMSTR	66	288	1
NMSI_	66	288	1	96	48	5
BRTAP	67	0	6
NMTAP	67	96	7
NMTAP	67	144	6
NMSTR	67	192	4
NMSI_	67	192	4	96	48	0
NMTAP	67	192	5
NMTAP	67	288	7
BRHLD	68	0	1	96
BRHLD	68	0	7	96
NMTAP	68	144	2
NMTAP	68	144	6
NMTAP	68	240	5
NMTAP	68	288	5
NMTAP	68	336	4
NMTAP	69	0	3
NMSTR	69	48	2
NMSI_	69	48	2	96	48	6
NMSTR	69	48	3
NMSI_	69	48	3	96	48	7
NMTAP	69	240	0
NMTAP	69	240	5
BRTAP	69	288	0
BRTAP	69	288	5
NMHLD	70	0	1	72
NMHLD	70	72	3	72
NMHLD	70	144	5	72
NMTAP	70	216	7
NMTAP	70	288	0
NMTAP	70	288	6
NMTAP	70	336	0
NMTAP	70	336	6
NMTAP	71	0	0
NMHLD	71	0	6	72
NMHLD	71	72	4	72
NMHLD	71	144	2	72
NMTAP	71	216	0
NMTAP	71	288	1
NMTAP	71	288	7
NMTAP	71	336	1
NMTAP	71	336	7
NMSTR	72	0	1
NMSSL	72	0	1	96	120	5
NMSTR	72	0	7
NMSSR	72	0	7	96	120	3
NMTAP	72	288	2
NMHLD	72	288	6	96
NMTAP	73	0	4
NMTAP	73	72	3
NMTAP	73	72	4
NMTAP	73	144	1
NMTAP	73	144	3
NMSTR	73	192	1
NMSI_	73	192	1	96	48	5
NMTAP	73	192	3
BRTAP	73	288	0
NMSTR	74	0	6
BRSI_	74	0	6	96	48	2
NMSTR	74	96	7
BRSI_	74	96	7	96	48	3
NMSTR	74	192	5
BRSI_	74	192	5	96	48	1
NMSTR	74	288	4
BRSI_	74	288	4	96	48	0
BRSTR	75	0	6
BRSCL	75	0	6	96	48	3
NMSTR	75	96	1
BRSI_	75	96	1	96	48	5
NMSTR	75	192	0
BRSI_	75	192	0	96	48	4
NMTAP	75	288	3
NMTAP	76	0	2
NMTAP	76	48	2
NMTAP	76	96	4
NMTAP	76	144	4
NMTAP	76	192	1
NMTAP	76	240	1
NMTAP	76	288	6
NMTAP	76	336	6
NMTAP	77	0	0
NMTAP	77	24	7
NMTAP	77	48	0
NMTAP	77	72	7
NMTAP	77	96	1
NMTAP	77	120	6
NMTAP	77	144	1
NMTAP	77	168	6
NMTAP	77	192	2
NMTAP	77	216	5
NMTAP	77	240	2
NMTAP	77	264	5
NMSTR	77	288	3
NMSI_	77	288	3	96	48	0
BRSTR	78	0	7
NMSCL	78	0	7	96	48	4
NMSCR	78	0	7	96	48	2
NMHLD	78	192	3	72
NMHLD	78	264	2	72
NMTAP	78	336	1
NMSTR	79	0	0
NMSI_	79	0	0	96	48	4
NMSTR	79	0	1
NMSI_	79	0	1	96	48	4
NMHLD	79	192	7	72
NMHLD	79	264	6	72
NMTAP	79	336	5
NMSTR	80	0	4
NMSCL	80	0	4	96	48	1
NMSCR	80	0	4	96	48	7
NMTAP	80	0	5
NMHLD	80	192	0	72
NMHLD	80	264	1	72
NMTAP	80	336	2
BRTAP	81	0	2
BRTAP	81	0	3
NMTAP	81	96	4
NMTAP	81	96	5
NMTAP	81	144	3
NMTAP	81	144	6
NMSTR	81	192	2
NMSCL	81	192	2	96	48	7
NMTAP	81	192	7
BRTAP	81	288	3
NMTAP	82	0	6
NMTAP	82	48	6
NMTAP	82	96	4
NMTAP	82	144	5
NMTAP	82	192	2
NMTAP	82	240	2
NMTAP	82	288	3
NMTAP	82	336	1
NMTAP	83	0	0
NMTAP	83	0	7
NMTAP	83	48	6
NMTAP	83	96	4
NMTAP	83	96	5
NMTAP	83	144	4
NMTAP	83	144	5
NMTAP	83	192	3
NMTAP	83	240	3
NMTAP	83	288	2
NMTAP	83	288	4
NMTAP	83	336	2
NMTAP	83	336	4
NMTAP	84	0	3
NMTAP	84	24	5
NMTAP	84	48	3
NMTAP	84	72	5
NMTAP	84	96	3
NMTAP	84	120	5
NMTAP	84	144	3
NMTAP	84	168	5
NMTAP	84	192	2
NMTAP	84	216	6
NMTAP	84	240	2
NMTAP	84	264	6
NMTAP	84	288	1
NMTAP	84	312	7
NMTAP	84	336	1
NMTAP	84	360	7
BRTAP	85	0	0
NMTAP	85	24	6
NMTAP	85	48	0
NMTAP	85	72	6
NMTAP	85	96	1
NMTAP	85	120	5
NMTAP	85	144	1
NMTAP	85	168	5
BRSTR	85	192	2
NMSI_	85	192	2	96	48	4
BRSI_	85	192	2	96	48	4
CNSI_	85	336	4	0	48	0
CNSI_	85	336	4	0	48	6

T_REC_TAP	331
T_REC_BRK	37
T_REC_XTP	21
T_REC_BXX	0
T_REC_HLD	69
T_REC_XHO	0
T_REC_BHO	4
T_REC_BXH	0
T_REC_STR	55
T_REC_BST	5
T_REC_XST	1
T_REC_XBS	0
T_REC_TTP	30
T_REC_THO	2
T_REC_SLD	55
T_REC_BSL	10
T_REC_ALL	620
T_NUM_TAP	438
T_NUM_BRK	56
T_NUM_HLD	71
T_NUM_SLD	55
T_NUM_ALL	620
T_JUDGE_TAP	480
T_JUDGE_HLD	180
T_JUDGE_SLD	65
T_JUDGE_ALL	725
TTM_EACHPAIRS	134
TTM_SCR_TAP	219000
TTM_SCR_BRK	145600
TTM_SCR_HLD	71000
TTM_SCR_SLD	82500
TTM_SCR_ALL	518100
TTM_SCR_S	497150
TTM_SCR_SS	512500
TTM_RAT_ACV	10109

