VERSION	0.00.00	1.04.00
FES_MODE	0
BPM_DEF	180.000	180.000	180.000	180.000
MET_DEF	4	4
RESOLUTION	384
CLK_DEF	384
COMPATIBLE_CODE	MA2

BPM	0	0	180.000
MET	0	0	4	4

NMTAP	2	0	2
NMTAP	2	0	3
NMTAP	2	96	2
NMSTR	2	192	1
NMSI_	2	192	1	96	48	3
NMTAP	2	288	4
NMTAP	3	0	4
NMTAP	3	0	5
NMTAP	3	96	5
NMSTR	3	192	6
NMSI_	3	192	6	96	48	4
NMTAP	3	288	3
NMTAP	4	0	2
NMTAP	4	0	3
NMTAP	4	96	2
NMSTR	4	192	1
NMSI_	4	192	1	96	48	4
NMTAP	4	288	5
NMTAP	5	0	6
NMTAP	5	0	7
NMSTR	5	96	0
NMSI_	5	96	0	96	48	4
NMSTR	5	192	6
NMSI_	5	192	6	96	48	3
NMTAP	5	288	2
NMTAP	6	0	0
NMTAP	6	0	1
NMTAP	6	96	1
NMSTR	6	192	2
NMSI_	6	192	2	96	48	4
NMTAP	6	288	5
NMTAP	7	0	6
NMTAP	7	0	7
NMTAP	7	96	6
NMSTR	7	192	5
NMSI_	7	192	5	96	48	3
NMTAP	7	288	2
NMTAP	8	0	0
NMTAP	8	0	1
NMTAP	8	48	2
NMTAP	8	72	7
NMTAP	8	96	2
NMTAP	8	120	7
NMTAP	8	144	2
NMTAP	8	168	7
NMTAP	8	192	3
NMTAP	8	216	6
NMTAP	8	240	3
NMTAP	8	264	6
NMSTR	8	288	4
NMSI_	8	288	4	96	48	0
NMTAP	8	312	5
NMTAP	8	336	4
NMTAP	8	360	5
EXTAP	9	0	4
NMTAP	9	192	2
NMTAP	9	192	6
NMTAP	9	240	2
NMTAP	9	240	6
NMTAP	9	288	3
NMTAP	9	288	5
BRTAP	9	336	1
BRTAP	9	336	7
NMTAP	10	48	0
NMHLD	10	96	0	96
NMTAP	10	192	3
NMSTR	10	240	1
NMSI_	10	240	1	96	48	5
NMSTR	10	240	5
NMSI_	10	240	5	96	48	3
NMTAP	10	336	1
NMTAP	10	336	5
NMTAP	11	48	7
NMHLD	11	96	7	96
NMTAP	11	192	4
NMSTR	11	240	2
NMSI_	11	240	2	96	48	4
NMSTR	11	240	6
NMSI_	11	240	6	96	48	2
NMTAP	11	336	2
NMTAP	11	336	6
NMTAP	12	48	0
NMSTR	12	96	0
NMSCR	12	96	0	96	96	3
NMSTR	12	192	3
NMSCR	12	192	3	96	96	6
NMSTR	12	288	6
NMSCR	12	288	6	96	96	1
NMTAP	13	0	3
NMSTR	13	48	3
NMSF_	13	48	3	96	48	7
EXTAP	13	144	3
EXTAP	13	288	1
EXTAP	13	288	5
EXTAP	14	0	2
NMTAP	14	0	3
NMTAP	14	48	3
NMTAP	14	96	3
NMTAP	14	144	1
EXTAP	14	144	4
NMTAP	14	192	1
NMTAP	14	240	1
EXTAP	14	288	2
NMTAP	14	288	6
NMTAP	14	336	6
NMTAP	15	0	6
NMTAP	15	48	4
EXTAP	15	48	7
NMTAP	15	96	4
NMTAP	15	144	4
EXTAP	15	192	3
NMSTR	15	192	6
NMSI_	15	192	6	96	48	2
NMTAP	15	288	6
EXTAP	15	288	7
EXTAP	16	0	0
NMTAP	16	48	0
NMTAP	16	96	0
EXSTR	16	144	1
NMSI_	16	144	1	96	48	4
NMTAP	16	144	7
NMTAP	16	240	1
EXSTR	16	240	5
NMSI_	16	240	5	96	48	0
EXHLD	16	336	3	288
NMTAP	16	336	5
NMTAP	17	48	7
NMTAP	17	96	7
NMTAP	17	144	7
NMTAP	17	192	7
NMTAP	17	240	7
BRTAP	17	288	1
BRTAP	17	288	5
NMTAP	18	96	6
NMTAP	18	192	5
NMHLD	18	288	4	192
NMTAP	19	96	3
NMTAP	19	192	5
NMTAP	19	288	4
NMTAP	20	0	3
NMHLD	20	96	2	672
NMTTP	20	288	2	E	0	M1
NMTTP	21	0	3	E	0	M1
NMTTP	21	96	4	E	0	M1
NMTTP	21	192	5	E	0	M1
NMTTP	21	288	6	E	0	M1
NMHLD	22	0	6	288
NMTAP	22	96	2
NMTAP	22	192	3
NMTAP	22	288	4
NMTAP	23	0	5
NMTAP	23	96	3
NMTAP	23	96	4
NMTAP	23	144	2
NMTAP	23	168	2
EXSTR	23	192	3
NMSI_	23	192	3	96	48	7
NMHLD	23	336	0	96
NMTAP	24	48	5
NMTAP	24	96	4
NMTAP	24	96	6
NMTAP	24	192	2
NMTAP	24	240	1
NMTAP	24	240	3
NMTAP	24	336	3
NMTAP	24	336	4
NMTAP	25	48	6
NMTAP	25	48	7
NMTAP	25	96	0
NMTAP	25	96	5
NMTAP	25	192	1
NMTAP	25	240	1
NMTAP	25	288	0
NMTAP	25	336	2
NMTAP	25	336	7
NMHLD	26	96	6	96
NMHLD	26	192	5	96
NMSTR	26	288	4
NMSXL	26	288	4	96	144	3
NMTAP	26	336	4
NMHLD	27	96	0	96
NMHLD	27	192	1	96
NMTAP	27	288	2
NMTAP	27	336	2
NMTAP	27	336	3
NMTAP	28	48	5
NMTAP	28	96	4
NMTAP	28	96	6
NMTAP	28	192	1
NMTAP	28	240	0
NMSTR	28	288	2
NMSI_	28	288	2	96	48	4
NMTAP	28	288	7
NMSTR	29	0	6
NMSI_	29	0	6	96	48	2
NMTAP	29	96	0
NMHLD	29	144	0	96
NMTAP	29	240	3
NMTAP	29	288	3
NMTAP	29	336	2
NMTAP	29	336	4
NMHLD	30	96	1	96
NMHLD	30	192	2	96
NMSTR	30	288	3
NMSXR	30	288	3	96	144	4
NMTAP	30	336	3
NMHLD	31	96	7	96
NMHLD	31	192	6	96
NMTAP	31	288	5
NMSTR	31	336	5
NMSI_	31	336	5	96	48	0
NMTAP	32	48	1
NMSTR	32	96	1
NMSI_	32	96	1	96	48	4
NMTAP	32	192	7
NMSTR	32	240	6
NMSCR	32	240	6	96	192	4
NMTAP	32	288	5
EXTAP	32	336	4
EXTAP	33	192	0
NMTAP	33	216	1
NMTAP	33	240	2
NMTAP	33	264	3
EXTAP	33	288	7
NMTAP	33	312	6
NMTAP	33	336	5
NMTAP	33	360	4
NMSTR	34	0	1
NMSI_	34	0	1	96	576	5
NMSTR	36	0	0
NMSXL	36	0	0	96	384	3
NMSTR	36	0	6
NMSXR	36	0	6	96	384	3
NMTAP	37	144	2
NMTAP	37	144	4
NMHLD	37	192	2	96
NMHLD	37	192	4	96
NMTAP	38	0	3
NMTAP	38	24	5
NMTAP	38	48	3
NMTAP	38	72	5
NMTAP	38	96	3
NMTAP	38	120	5
NMTAP	38	144	3
NMTAP	38	168	5
NMTAP	38	192	3
NMTAP	38	216	5
NMTAP	38	240	3
NMTAP	38	264	5
NMTAP	38	288	3
NMTAP	38	312	5
NMTAP	38	336	3
NMTAP	38	360	5
NMTAP	39	0	2
NMTAP	39	24	4
NMTAP	39	48	2
NMTAP	39	72	4
NMTAP	39	96	2
NMTAP	39	120	4
NMTAP	39	144	2
NMTAP	39	168	4
NMTAP	39	192	2
NMTAP	39	216	4
NMTAP	39	240	2
NMTAP	39	264	4
NMTAP	39	288	2
NMTAP	39	312	4
NMTAP	39	336	2
NMTAP	39	360	4
EXTAP	40	0	1
EXTAP	40	0	5
NMTAP	40	48	1
NMTAP	40	48	5
NMTAP	40	96	1
NMTAP	40	96	5
EXTAP	40	144	2
EXTAP	40	144	6
NMTAP	40	192	2
NMTAP	40	192	6
NMTAP	40	240	2
NMTAP	40	240	6
EXTAP	40	288	3
EXTAP	40	288	7
EXSTR	40	336	0
BRSI_	40	336	0	96	48	5
EXSTR	40	336	4
BRSI_	40	336	4	96	48	1
CNSI_	41	96	1	0	24	7
CNSI_	41	96	5	0	24	3
NMTTP	41	336	2	B	0	M1
NMTTP	41	336	3	B	0	M1
NMTTP	41	336	3	E	1	M1
EXHLD	41	336	6	96
NMTAP	42	48	7
NMSTR	42	96	1
NMSI_	42	96	1	96	48	5
NMTAP	42	96	5
NMTAP	42	192	1
NMSTR	42	192	7
NMSCL	42	192	7	96	48	4
NMTAP	42	288	0
NMTAP	42	336	0
NMTAP	43	0	1
NMSTR	43	48	2
NMSI_	43	48	2	96	48	7
NMSTR	43	48	3
NMSI_	43	48	3	96	48	6
EXTAP	43	144	2
EXTAP	43	144	3
NMTAP	43	288	6
NMTAP	43	288	7
NMTAP	43	336	0
NMSTR	43	336	5
NMSCL	43	336	5	96	48	2
NMTAP	44	48	1
NMSTR	44	96	1
NMSUR	44	96	1	96	48	5
NMTAP	44	192	0
NMTAP	44	192	1
NMSTR	44	288	6
NMSI_	44	288	6	96	48	3
NMSTR	44	336	0
NMSI_	44	336	0	96	48	4
NMTAP	45	0	6
NMTAP	45	48	0
BRTAP	45	144	1
BRTAP	45	144	7
NMTAP	45	288	2
NMTAP	45	288	3
NMHLD	45	336	1	96
NMTAP	45	336	5
NMTAP	46	48	0
NMTAP	46	96	0
NMTAP	46	144	1
NMTAP	46	144	7
NMTAP	46	192	2
NMTAP	46	192	6
NMSTR	46	240	2
NMSCR	46	240	2	96	48	5
NMTAP	46	240	6
NMTAP	46	336	2
NMHLD	46	336	6	96
NMTAP	47	48	7
NMTAP	47	96	7
NMTAP	47	144	0
NMTAP	47	144	6
NMTAP	47	192	1
NMTAP	47	192	5
NMTAP	47	240	1
NMSTR	47	240	5
NMSCL	47	240	5	96	48	2
NMHLD	47	336	1	96
NMTAP	47	336	5
NMTAP	48	48	0
NMTAP	48	96	2
NMTAP	48	96	7
NMTAP	48	144	6
NMTAP	48	192	4
NMTAP	48	192	5
NMSTR	48	240	3
NMSI_	48	240	3	96	48	7
NMTAP	48	288	2
NMTAP	48	336	1
NMTAP	49	48	0
NMTAP	49	96	0
NMTAP	49	192	6
NMTAP	49	192	7
NMTAP	49	240	6
NMTAP	49	240	7
NMTAP	49	288	6
NMTAP	49	288	7
BRHLD	49	336	1	96
BRTAP	49	336	5
NMTAP	50	48	0
NMTAP	50	96	2
NMSTR	50	96	6
NMSI_	50	96	6	96	48	2
NMSTR	50	192	0
NMSCR	50	192	0	96	48	3
NMTAP	50	192	6
NMTAP	50	288	7
NMTAP	50	336	7
NMTAP	51	0	6
NMSTR	51	48	4
NMSI_	51	48	4	96	48	1
NMSTR	51	48	5
NMSI_	51	48	5	96	48	0
EXTAP	51	144	4
EXTAP	51	144	5
NMTAP	51	288	0
NMTAP	51	288	1
NMTAP	51	336	2
NMSTR	51	336	6
NMSUL	51	336	6	96	144	3
NMSTR	52	96	1
NMSI_	52	96	1	96	48	4
NMTAP	52	192	1
NMTAP	52	288	0
NMTAP	52	288	7
NMTAP	53	0	3
NMTAP	53	0	4
NMTAP	53	48	2
NMTAP	53	48	5
NMTAP	53	96	1
NMTAP	53	96	6
BRHLD	53	144	0	192
BRHLD	53	144	7	192
EXSTR	54	0	6
NMSI_	54	0	6	96	48	3
NMTAP	54	48	7
NMTAP	54	96	6
EXSTR	54	144	1
NMSI_	54	144	1	96	48	4
NMTAP	54	192	0
NMTAP	54	240	1
EXSTR	54	288	6
NMSI_	54	288	6	96	48	2
NMTAP	54	336	7
NMTAP	55	0	6
EXSTR	55	48	1
NMSI_	55	48	1	96	48	5
NMTAP	55	96	0
NMTAP	55	144	1
EXSTR	55	192	7
NMSF_	55	192	7	96	48	3
EXTAP	55	288	7
NMTAP	56	0	1
NMTAP	56	0	5
NMTAP	56	48	2
NMTAP	56	72	3
NMTAP	56	96	1
NMTAP	56	144	5
NMTAP	56	168	4
NMTAP	56	192	6
NMTAP	56	240	1
NMTAP	56	264	0
NMTAP	56	288	1
NMTAP	56	336	6
NMTAP	56	360	7
NMTAP	57	0	6
NMTAP	57	48	0
NMTAP	57	48	5
NMTAP	57	96	2
NMTAP	57	96	3
NMSTR	57	192	1
NMSI_	57	192	1	96	48	4
NMSTR	57	240	7
NMSI_	57	240	7	96	48	3
NMTAP	57	288	1
BRTAP	57	336	7
NMTAP	58	48	0
NMTAP	58	96	1
NMTAP	58	96	7
NMTAP	58	192	5
NMTAP	58	240	4
NMTAP	58	288	3
NMTAP	58	288	6
NMTAP	59	0	0
NMTAP	59	0	1
NMTAP	59	48	2
NMSTR	59	48	7
NMSCL	59	48	7	96	48	4
NMSTR	59	144	3
NMSCL	59	144	3	96	48	0
NMTAP	59	240	7
NMTAP	59	288	7
NMTAP	60	0	2
NMTAP	60	48	2
NMTAP	60	96	3
NMHLD	60	144	1	96
NMTAP	60	144	4
NMHLD	60	240	7	96
NMHLD	60	336	5	96
NMHLD	61	48	3	96
NMTAP	61	144	2
NMTAP	61	192	1
NMTAP	61	192	3
NMTAP	61	288	4
NMTAP	61	288	6
NMSTR	62	0	0
NMSI_	62	0	0	96	48	4
NMSTR	62	0	7
NMSI_	62	0	7	96	48	3
NMTAP	62	48	1
NMTAP	62	48	6
EXTAP	62	96	0
EXTAP	62	96	7
NMTAP	62	192	2
NMTAP	62	192	5
NMTAP	62	240	1
NMTAP	62	288	0
NMHLD	62	336	6	96
NMTAP	62	336	7
NMHLD	63	48	4	48
NMHLD	63	96	5	48
NMHLD	63	144	3	48
NMHLD	63	192	4	48
NMTAP	63	240	2
NMTAP	63	288	1
NMTAP	63	288	3
NMTAP	64	0	0
NMSTR	64	48	0
NMSI_	64	48	0	96	48	3
NMTAP	64	144	4
NMSTR	64	192	4
NMSI_	64	192	4	96	48	7
NMTAP	64	288	1
NMHLD	64	336	1	96
NMTAP	65	48	0
NMTAP	65	96	0
NMTAP	65	144	0
NMTAP	65	192	1
NMTAP	65	192	7
NMTAP	65	216	6
NMTAP	65	240	5
NMTAP	65	264	4
EXTAP	65	288	2
EXTAP	65	288	3
NMHLD	66	0	0	144
NMTAP	66	144	7
NMTAP	66	192	1
NMTAP	66	192	5
NMTAP	66	288	3
NMTAP	66	288	4
NMTAP	66	336	2
NMTAP	66	336	6
NMSTR	67	96	0
NMSI_	67	96	0	96	48	4
NMSTR	67	192	4
NMSI_	67	192	4	96	48	1
NMSTR	67	288	1
NMSI_	67	288	1	96	48	6
NMSTR	68	0	6
NMSI_	68	0	6	96	48	3
NMSTR	68	96	3
NMSI_	68	96	3	96	48	7
NMTAP	68	192	7
NMTAP	68	288	1
NMTAP	68	288	5
NMTAP	68	336	1
NMTAP	68	336	5
NMTAP	69	48	2
NMHLD	69	96	2	96
NMHLD	69	192	3	96
NMTAP	69	288	4
NMHLD	70	0	5	96
NMTAP	70	96	4
NMTAP	70	192	3
NMTAP	70	240	3
NMTAP	70	288	4
NMTAP	71	0	2
NMTAP	71	0	5
NMTAP	71	96	0
NMSTR	71	96	7
NMSCL	71	96	7	96	96	4
NMSTR	71	192	4
NMSCL	71	192	4	96	96	1
NMSTR	71	288	1
NMSCL	71	288	1	96	96	6
NMSTR	72	0	6
NMSCL	72	0	6	96	96	3
NMTTP	72	240	1	B	1	M1
NMTTP	72	240	2	B	0	M1
NMTTP	72	240	2	E	0	M1
NMTTP	72	288	5	B	0	M1
NMTTP	72	288	6	B	1	M1
NMTTP	72	288	6	E	0	M1
NMTHO	72	336	0	384	C	1	M1
BRTAP	73	336	7
BRTAP	75	0	2
BRTAP	75	0	5
BRSTR	75	48	0
BRSSL	75	48	0	96	48	4
BRSTR	75	48	7
BRSSR	75	48	7	96	48	3
BRTAP	75	144	0
BRTAP	75	144	7
NMTAP	75	288	0
NMTAP	75	288	1
NMSTR	75	336	2
NMSLR	75	336	2	96	72	1
NMTAP	75	336	7
NMTAP	76	48	4
NMSTR	76	96	6
NMSI_	76	96	6	96	48	2
NMTAP	76	192	6
NMTAP	76	192	7
NMSTR	76	288	1
NMSCR	76	288	1	96	48	4
NMSTR	76	336	7
NMSI_	76	336	7	96	48	3
NMTAP	77	0	1
NMTAP	77	48	7
BRTAP	77	144	0
BRTAP	77	144	6
NMTAP	77	288	4
NMTAP	77	288	5
NMTAP	77	336	2
NMHLD	77	336	6	96
NMTAP	78	48	7
NMTAP	78	96	5
NMTAP	78	144	4
NMTAP	78	192	2
NMTAP	78	192	3
BRTAP	78	240	1
NMSTR	78	240	5
NMSCL	78	240	5	96	48	2
NMHLD	78	336	1	96
NMTAP	78	336	5
NMTAP	79	48	0
NMTAP	79	96	2
NMTAP	79	144	3
NMTAP	79	192	4
NMTAP	79	192	5
NMSTR	79	240	2
NMSCR	79	240	2	96	48	5
BRTAP	79	240	6
NMTAP	79	336	2
NMHLD	79	336	6	96
NMTAP	80	48	7
NMTAP	80	96	0
NMTAP	80	96	5
NMTAP	80	144	2
NMTAP	80	192	3
NMTAP	80	192	4
NMSTR	80	240	6
NMSXR	80	240	6	96	144	3
NMTAP	80	288	0
BRTAP	80	336	0
EXTAP	81	192	0
EXTAP	81	192	1
EXTAP	81	240	2
EXTAP	81	240	3
EXTAP	81	288	4
EXTAP	81	288	5
BRHLD	81	336	6	96
BRTAP	81	336	7
NMTAP	82	48	3
NMSTR	82	96	1
NMSI_	82	96	1	96	48	5
NMTAP	82	96	5
NMTAP	82	192	1
NMSTR	82	192	7
NMSCL	82	192	7	96	48	4
NMTAP	82	288	0
NMTAP	82	336	0
NMTAP	83	0	1
NMTAP	83	0	5
NMSTR	83	48	2
NMSI_	83	48	2	96	48	7
NMSTR	83	48	6
NMSI_	83	48	6	96	48	3
BRTAP	83	144	2
BRTAP	83	144	6
NMTAP	83	288	6
NMTAP	83	288	7
NMSTR	83	336	1
NMSXL	83	336	1	96	144	4
NMTAP	83	336	5
NMSTR	84	96	4
BRSCL	84	96	4	96	168	5
NMSTR	84	192	0
BRSCL	84	192	0	96	72	5
NMTAP	84	288	4
NMTAP	85	0	3
NMTAP	85	48	2
NMTAP	85	48	4
NMTAP	85	96	1
NMTAP	85	96	5
BRTAP	85	144	0
BRTAP	85	144	6
NMTAP	85	336	3
NMTAP	85	336	7
BRSTR	86	0	1
NMSI_	86	0	1	96	48	4
NMTAP	86	48	0
NMTAP	86	96	1
BRSTR	86	144	6
NMSI_	86	144	6	96	48	3
NMTAP	86	192	7
NMTAP	86	240	6
BRSTR	86	288	1
NMSI_	86	288	1	96	48	5
NMTAP	86	336	0
NMTAP	87	0	1
BRSTR	87	48	6
NMSI_	87	48	6	96	48	2
NMTAP	87	96	7
NMTAP	87	144	6
BRSTR	87	192	0
NMSF_	87	192	0	96	48	4
BXTAP	87	288	0
NMTAP	88	0	2
NMTAP	88	0	6
NMTAP	88	48	5
NMTAP	88	72	4
NMTAP	88	96	6
NMTAP	88	144	2
NMTAP	88	168	3
NMTAP	88	192	1
NMTAP	88	240	7
NMTAP	88	264	0
NMTAP	88	288	7
NMTAP	88	336	1
NMTAP	88	336	6
EXTAP	89	0	3
EXTAP	89	0	4
EXTAP	89	48	3
EXTAP	89	48	4
NMSTR	89	288	2
NMSXR	89	288	2	96	528	3
NMSTR	89	288	6
NMSXR	89	288	6	96	528	7
BRTAP	91	192	0
BRTAP	91	192	4
BRTAP	91	240	2
BRTAP	91	240	6
NMHLD	91	336	1	96
NMTAP	91	336	5
NMTAP	92	48	7
NMHLD	92	96	7	96
NMTAP	92	192	4
NMSTR	92	240	2
NMSI_	92	240	2	96	48	4
NMSTR	92	240	6
NMSI_	92	240	6	96	48	2
NMTAP	92	336	2
NMTAP	92	336	6
NMTAP	93	48	0
NMHLD	93	96	0	96
NMTAP	93	192	3
NMSTR	93	240	1
NMSI_	93	240	1	96	48	5
NMSTR	93	240	5
NMSI_	93	240	5	96	48	3
NMTAP	93	336	1
NMTAP	93	336	5
NMTAP	94	48	7
NMSTR	94	96	7
NMSCL	94	96	7	96	96	4
NMSTR	94	192	4
NMSCL	94	192	4	96	96	1
NMSTR	94	288	1
NMSCL	94	288	1	96	96	6
NMTAP	95	0	4
NMSTR	95	48	4
NMSF_	95	48	4	96	48	0
NMTAP	95	144	4
BRTAP	95	288	2
BRTAP	95	288	6
NMTAP	96	0	4
NMTAP	96	0	5
NMTAP	96	48	3
NMTAP	96	96	3
NMTAP	96	144	2
NMTAP	96	144	4
NMTAP	96	192	5
NMTAP	96	240	5
NMTAP	96	288	2
NMTAP	96	288	6
NMTAP	96	336	1
NMTAP	97	0	1
NMTAP	97	48	0
NMTAP	97	48	7
NMTAP	97	96	6
NMTAP	97	144	6
NMSTR	97	192	1
NMSI_	97	192	1	96	48	4
NMSTR	97	192	5
NMSV_	97	192	5	96	48	0
NMTAP	97	288	1
NMTAP	97	288	5
NMTAP	98	0	7
NMTAP	98	48	7
NMTAP	98	96	7
NMTAP	98	144	0
NMSTR	98	144	6
NMSI_	98	144	6	96	48	3
NMSTR	98	240	2
NMSV_	98	240	2	96	48	7
NMTAP	98	240	6
NMTAP	98	336	2
NMHLD	98	336	4	288
NMTAP	99	48	0
NMTAP	99	96	0
NMTAP	99	144	0
NMTAP	99	192	0
NMTAP	99	240	0
BRTAP	99	288	2
BRTAP	99	288	6
EXTAP	100	48	2
EXTAP	100	48	6
EXTAP	100	72	1
EXTAP	100	72	5
EXTAP	100	96	0
EXSTR	100	96	4
NMSUL	100	96	4	96	1152	3

T_REC_TAP	443
T_REC_BRK	31
T_REC_XTP	44
T_REC_BXX	1
T_REC_HLD	41
T_REC_XHO	2
T_REC_BHO	4
T_REC_BXH	0
T_REC_STR	89
T_REC_BST	7
T_REC_XST	11
T_REC_XBS	0
T_REC_TTP	14
T_REC_THO	1
T_REC_SLD	101
T_REC_BSL	6
T_REC_ALL	795
T_NUM_TAP	601
T_NUM_BRK	49
T_NUM_HLD	44
T_NUM_SLD	101
T_NUM_ALL	795
T_JUDGE_TAP	640
T_JUDGE_HLD	129
T_JUDGE_SLD	107
T_JUDGE_ALL	876
TTM_EACHPAIRS	166
TTM_SCR_TAP	300500
TTM_SCR_BRK	127400
TTM_SCR_HLD	44000
TTM_SCR_SLD	151500
TTM_SCR_ALL	623400
TTM_SCR_S	599950
TTM_SCR_SS	618500
TTM_RAT_ACV	10079

