VERSION	0.00.00	1.04.00
FES_MODE	0
BPM_DEF	180.000	180.000	180.000	180.000
MET_DEF	4	4
RESOLUTION	384
CLK_DEF	384
COMPATIBLE_CODE	MA2

BPM	0	0	180.000
MET	0	0	4	4

NMTAP	2	0	5
NMTAP	2	96	5
NMTAP	2	192	5
NMTAP	2	288	5
NMTAP	3	0	3
NMTAP	3	96	3
NMTAP	3	192	3
NMTAP	3	288	3
NMTAP	4	0	4
NMTAP	4	96	4
NMTAP	4	192	4
NMTAP	4	288	4
NMTAP	5	0	2
NMTAP	5	96	2
NMTAP	5	192	2
NMTAP	5	288	2
NMHLD	6	0	1	288
NMTAP	6	96	3
NMTAP	6	192	3
NMTAP	6	288	4
NMHLD	7	0	6	288
NMTAP	7	96	4
NMTAP	7	192	4
NMSTR	7	288	3
NMSCL	7	288	3	96	288	4
BXHLD	9	0	7	192
NMTAP	9	192	0
NMTAP	9	240	0
BXHLD	9	336	1	144
BXHLD	9	336	6	144
NMTAP	10	192	2
NMHLD	10	240	2	96
NMTAP	10	336	0
NMTAP	11	48	1
NMTAP	11	48	7
NMTAP	11	96	1
NMTAP	11	96	7
NMTAP	11	192	5
NMHLD	11	240	5	96
NMTAP	11	336	7
NMTAP	12	48	0
NMTAP	12	48	6
NMTAP	12	96	0
NMTAP	12	96	6
NMTAP	12	192	1
NMHLD	12	240	1	96
NMTAP	12	336	3
NMTAP	13	48	2
NMTAP	13	48	4
NMTAP	13	144	1
NMTAP	13	144	5
NMTAP	13	240	0
NMTAP	13	240	6
NMTAP	13	288	0
NMTAP	13	288	6
NMHLD	14	0	1	144
NMHLD	14	144	3	144
NMHLD	14	288	4	144
NMHLD	15	48	6	144
NMTAP	15	192	0
NMTAP	15	288	1
NMTAP	15	288	5
NMHLD	16	0	6	144
NMTAP	16	144	4
NMSTR	16	240	4
BRSXR	16	240	4	96	240	0
NMTTP	18	0	4	B	0	M1
NMTTP	18	0	5	B	0	M1
NMTTP	19	0	0	B	0	M1
NMTTP	19	0	7	B	0	M1
NMTTP	20	0	2	B	0	M1
NMTTP	20	0	3	B	0	M1
NMTTP	21	0	5	E	0	M1
NMTTP	21	96	4	E	0	M1
NMTTP	21	192	3	E	0	M1
NMTTP	22	0	2	B	0	M1
NMTTP	22	0	3	B	0	M1
NMHLD	23	0	4	96
NMHLD	23	0	5	96
EXTAP	23	192	3
EXTAP	23	192	6
EXTAP	23	288	3
EXTAP	23	288	6
NMTAP	24	0	1
NMTAP	24	0	4
NMTAP	24	96	1
NMTAP	24	96	4
NMTAP	24	192	2
NMTAP	24	192	3
NMTAP	24	288	2
NMTAP	24	288	3
NMTAP	25	0	3
NMTAP	25	0	6
NMTAP	25	96	3
NMTAP	25	96	6
NMTAP	25	192	4
NMTAP	25	192	5
NMTAP	25	288	4
NMTAP	25	288	5
NMHLD	26	0	6	96
NMTAP	26	96	4
NMTAP	26	192	3
NMTAP	26	288	2
NMTAP	26	288	4
NMHLD	27	0	1	96
NMTAP	27	96	3
NMTAP	27	192	4
NMTAP	27	288	3
NMTAP	27	288	5
NMHLD	28	0	6	96
NMTAP	28	96	4
NMTAP	28	192	3
NMTAP	28	288	2
NMTAP	28	288	4
EXSTR	29	0	1
NMSI_	29	0	1	96	96	5
EXSTR	29	192	7
NMSI_	29	192	7	96	96	3
NMHLD	30	0	1	96
NMTAP	30	96	4
NMTAP	30	192	2
NMTAP	30	192	5
NMTAP	30	288	3
NMTAP	30	288	6
NMHLD	31	0	7	96
NMTAP	31	96	4
NMTAP	31	192	3
NMTAP	31	192	5
NMTAP	31	288	2
NMTAP	31	288	4
NMHLD	32	0	0	96
NMTAP	32	96	3
NMTAP	32	192	4
NMTAP	32	288	3
NMTAP	32	288	5
NMTAP	32	336	3
NMTAP	32	336	5
NMTAP	33	48	2
NMTAP	33	48	4
NMTAP	33	96	2
NMTAP	33	96	4
NMTAP	33	192	0
NMTAP	33	192	6
BRTAP	33	288	1
BRTAP	33	288	5
NMSTR	34	0	7
NMSI_	34	0	7	96	144	4
CNSI_	34	240	4	0	144	0
CNSI_	35	0	0	0	144	3
NMSTR	36	0	3
NMSI_	36	0	3	96	144	7
CNSI_	36	240	7	0	144	4
CNSI_	37	0	4	0	144	0
NMTAP	38	0	2
NMTAP	38	48	2
NMTAP	38	96	7
NMTAP	38	144	7
NMTAP	38	192	1
NMTAP	38	240	1
NMTAP	38	288	6
NMTAP	38	336	6
NMTAP	39	0	0
NMTAP	39	48	0
NMTAP	39	96	5
NMTAP	39	144	5
NMTAP	39	192	7
NMTAP	39	288	4
NMTAP	39	288	5
NMTAP	40	0	0
NMTAP	40	0	6
NMTAP	40	48	0
NMTAP	40	48	6
NMTAP	40	144	1
NMTAP	40	144	7
NMTAP	40	192	1
NMTAP	40	192	7
NMTAP	40	288	0
NMSTR	40	336	0
BRSF_	40	336	0	96	72	4
EXTAP	41	192	2
EXTAP	41	192	6
EXTAP	41	240	2
EXTAP	41	240	6
BXTAP	41	336	0
NMTAP	42	48	1
NMTAP	42	48	7
NMSTR	42	96	1
NMSI_	42	96	1	96	48	4
NMSTR	42	96	7
NMSI_	42	96	7	96	48	4
EXTAP	42	288	2
EXTAP	42	288	6
NMTAP	43	0	1
NMTAP	43	0	5
NMSTR	43	48	1
NMSI_	43	48	1	96	48	4
NMSTR	43	48	5
NMSI_	43	48	5	96	48	0
NMTAP	43	288	2
NMTAP	43	288	6
NMTAP	43	336	2
NMTAP	43	336	6
NMTAP	44	48	1
NMHLD	44	96	1	96
NMHLD	44	192	3	96
NMHLD	44	288	5	96
NMTAP	45	0	7
NMSTR	45	48	7
NMSCL	45	48	7	96	48	4
NMSCR	45	48	7	96	48	2
NMTAP	45	288	1
NMHLD	45	336	1	96
NMTAP	46	48	3
NMTAP	46	96	3
NMTAP	46	192	0
NMTAP	46	192	4
NMTAP	46	240	0
NMTAP	46	240	4
NMHLD	46	336	6	96
NMTAP	47	48	4
NMTAP	47	96	4
NMTAP	47	192	3
NMTAP	47	192	7
NMTAP	47	240	3
NMTAP	47	240	7
NMHLD	47	336	1	96
NMTAP	48	48	0
NMTAP	48	96	0
NMTAP	48	192	2
NMTAP	48	192	6
NMSTR	48	240	2
NMSCL	48	240	2	96	96	7
NMSTR	48	240	6
NMSCL	48	240	6	96	96	3
EXTAP	49	192	1
EXTAP	49	192	5
EXTAP	49	240	1
EXTAP	49	240	5
BRTAP	49	336	7
NMTAP	50	48	0
NMTAP	50	48	6
NMSTR	50	96	0
NMSI_	50	96	0	96	48	3
NMSTR	50	96	6
NMSI_	50	96	6	96	48	3
EXTAP	50	288	1
EXTAP	50	288	5
NMTAP	51	0	2
NMTAP	51	0	6
NMSTR	51	48	2
NMSI_	51	48	2	96	48	7
NMSTR	51	48	6
NMSI_	51	48	6	96	48	3
NMTAP	51	288	1
NMTAP	51	288	5
NMTAP	51	336	1
NMTAP	51	336	5
NMTAP	52	48	6
NMHLD	52	96	6	96
NMHLD	52	192	4	96
NMHLD	52	288	2	96
NMTAP	53	0	0
NMSTR	53	48	0
NMSCL	53	48	0	96	48	5
NMSCR	53	48	0	96	48	3
NMTAP	53	336	3
NMTAP	53	336	5
NMHLD	54	0	3	96
NMHLD	54	0	5	96
NMHLD	54	144	2	96
NMHLD	54	144	4	96
NMHLD	54	288	3	96
NMHLD	54	288	6	96
NMHLD	55	48	1	96
NMHLD	55	48	4	96
NMTAP	55	192	0
NMTAP	55	192	7
NMTAP	55	240	0
NMTAP	55	240	7
NMTAP	55	288	0
NMTAP	55	288	7
NMTAP	56	0	1
NMTAP	56	0	3
NMTAP	56	48	1
NMTAP	56	48	3
NMTAP	56	144	4
NMTAP	56	144	6
NMTAP	56	192	4
NMTAP	56	192	6
NMTAP	56	288	3
NMTAP	56	288	4
NMTAP	57	0	2
NMTAP	57	48	2
NMTAP	57	96	6
NMTAP	57	144	6
EXSTR	57	192	0
NMSCR	57	192	0	96	288	7
EXTAP	57	240	0
EXTAP	58	288	0
EXTAP	58	288	7
NMTAP	59	0	6
NMTAP	59	96	4
NMTAP	59	96	5
NMTAP	59	192	1
NMTAP	59	288	2
NMTAP	59	288	3
NMTAP	60	0	1
NMTAP	60	48	1
NMTAP	60	96	0
NMTAP	60	192	0
NMTAP	60	192	7
NMTAP	60	240	0
NMTAP	60	240	7
EXSTR	60	336	6
NMSI_	60	336	6	96	48	2
EXSTR	61	144	1
NMSI_	61	144	1	96	48	5
NMTAP	61	336	6
NMTAP	62	0	6
BRTAP	62	96	1
BRTAP	62	96	7
NMTAP	62	192	4
NMTAP	62	192	6
NMTAP	62	288	3
NMTAP	62	288	4
NMTAP	62	336	3
NMTAP	62	336	4
NMTAP	63	48	2
NMHLD	63	96	2	96
NMHLD	63	192	0	96
NMHLD	63	288	7	96
NMTAP	64	0	5
NMTAP	64	48	5
NMTAP	64	144	0
NMTAP	64	144	7
NMTAP	64	192	0
NMTAP	64	192	7
NMTAP	64	288	0
NMTAP	64	288	2
NMTAP	64	336	0
NMTAP	64	336	2
NMTAP	65	48	3
NMTAP	65	48	4
NMSTR	65	96	3
BRSI_	65	96	3	96	96	7
NMSTR	65	96	4
BRSI_	65	96	4	96	96	0
NMHLD	66	0	7	384
NMTTP	66	192	4	B	0	M1
NMTTP	66	192	5	B	0	M1
NMHLD	67	0	0	384
NMTTP	67	192	2	B	0	M1
NMTTP	67	192	3	B	0	M1
NMHLD	68	0	4	384
NMTTP	68	192	4	B	0	M1
NMTTP	68	192	5	B	0	M1
NMHLD	69	0	3	384
NMTTP	69	192	2	B	0	M1
NMTTP	69	192	3	B	0	M1
NMTAP	70	0	4
NMTAP	70	96	3
NMTAP	70	96	5
NMTAP	70	192	2
NMTAP	70	288	1
NMTAP	70	288	3
NMTAP	71	0	5
NMTAP	71	96	4
NMTAP	71	96	6
NMTAP	71	192	3
NMTAP	71	288	2
NMTAP	71	288	4
NMTAP	72	0	1
NMTAP	72	48	1
NMTAP	72	96	3
NMTAP	72	144	3
NMTAP	72	192	2
NMTAP	72	240	2
NMSTR	72	288	4
NMSI_	72	288	4	96	48	0
NMTTP	73	336	0	C	1	M1
NMTTP	73	336	1	B	0	M1
NMTTP	73	336	2	B	0	M1
NMTTP	73	336	2	E	0	M1
NMTTP	73	336	5	B	0	M1
NMTTP	73	336	6	B	0	M1
NMTTP	73	336	6	E	0	M1
EXTAP	75	0	0
EXTAP	75	0	7
EXSTR	75	48	0
BRSCR	75	48	0	96	48	3
EXSTR	75	48	7
BRSCL	75	48	7	96	48	4
NMTAP	75	288	1
NMTAP	75	288	6
NMTAP	75	336	1
NMTAP	75	336	6
NMTAP	76	48	5
NMHLD	76	96	5	96
NMHLD	76	192	7	96
NMHLD	76	288	1	96
NMTAP	77	0	3
NMSTR	77	48	3
NMSI_	77	48	3	96	48	0
NMSI_	77	48	3	96	48	6
NMTAP	77	288	6
NMHLD	77	336	6	96
NMTAP	78	48	7
NMTAP	78	96	7
NMTAP	78	192	0
NMTAP	78	192	5
NMTAP	78	240	0
NMTAP	78	240	5
NMHLD	78	336	1	96
NMTAP	79	48	0
NMTAP	79	96	0
NMTAP	79	192	2
NMTAP	79	192	7
NMTAP	79	240	2
NMTAP	79	240	7
NMHLD	79	336	6	96
NMTAP	80	48	0
NMTAP	80	96	0
NMTAP	80	192	1
NMTAP	80	192	5
NMSTR	80	240	1
NMSCL	80	240	1	96	96	6
NMSTR	80	240	5
NMSCL	80	240	5	96	96	2
EXTAP	81	192	1
EXTAP	81	192	5
EXTAP	81	240	1
EXTAP	81	240	5
BRTAP	81	336	0
NMTAP	82	48	1
NMTAP	82	48	7
NMSTR	82	96	1
NMSI_	82	96	1	96	48	4
NMSTR	82	96	7
NMSI_	82	96	7	96	48	4
EXTAP	82	288	2
EXTAP	82	288	6
NMTAP	83	0	0
NMSTR	83	48	0
NMSSL	83	48	0	96	144	4
NMTAP	83	288	5
NMTAP	83	336	5
NMTAP	84	48	1
NMHLD	84	96	1	96
NMHLD	84	192	3	96
NMHLD	84	288	5	96
NMTAP	85	0	7
NMSTR	85	48	7
BRSCL	85	48	7	96	48	4
BRSCR	85	48	7	96	48	2
NMTAP	85	336	0
NMTAP	85	336	6
NMHLD	86	0	0	96
NMHLD	86	0	6	96
NMHLD	86	144	1	96
NMHLD	86	144	7	96
NMHLD	86	288	0	96
NMHLD	86	288	5	96
NMHLD	87	48	2	96
NMHLD	87	48	7	96
NMTAP	87	192	4
NMTAP	87	192	5
NMTAP	87	240	4
NMTAP	87	240	5
NMTAP	87	288	4
NMTAP	87	288	5
NMTAP	88	0	4
NMTAP	88	0	6
NMTAP	88	48	4
NMTAP	88	48	6
NMTAP	88	144	1
NMTAP	88	144	3
NMTAP	88	192	1
NMTAP	88	192	3
NMTAP	88	288	3
NMTAP	88	288	4
NMTAP	89	0	4
NMTAP	89	0	6
NMTAP	89	48	4
NMTAP	89	48	6
NMTAP	89	144	7
NMHLD	89	192	7	96
NMSTR	89	288	0
NMSCR	89	288	0	96	288	7
NMTAP	91	144	0
NMTAP	91	144	7
BRTAP	91	192	1
BRTAP	91	192	6
EXHLD	91	336	2	96
EXHLD	91	336	4	96
NMTAP	92	96	2
NMTAP	92	96	4
NMTAP	92	192	3
NMTAP	92	192	5
NMTAP	92	240	3
NMTAP	92	240	5
NMTAP	92	336	7
NMTAP	93	48	0
NMTAP	93	48	6
NMTAP	93	96	0
NMTAP	93	96	6
NMTAP	93	192	2
NMHLD	93	240	2	96
NMTAP	93	336	0
NMTAP	94	48	1
NMTAP	94	48	7
NMTAP	94	96	1
NMTAP	94	96	7
NMTAP	94	192	6
NMHLD	94	240	6	96
NMTAP	94	336	4
NMTAP	95	48	3
NMTAP	95	48	5
NMTAP	95	144	2
NMTAP	95	144	6
NMTAP	95	240	1
NMTAP	95	240	7
NMTAP	95	288	1
NMTAP	95	288	7
NMHLD	96	0	2	144
NMHLD	96	144	0	144
NMHLD	96	288	7	144
NMHLD	97	48	5	144
NMTAP	97	192	3
NMTAP	97	288	2
NMTAP	97	288	6
NMHLD	98	0	1	144
NMTAP	98	144	3
NMSTR	98	240	3
NMSI_	98	240	3	96	96	6
CNSI_	99	48	6	0	96	2
CNSI_	99	144	2	0	96	7
BRSTR	100	0	0
BRSI_	100	0	0	96	48	4
BRSTR	100	0	7
BRSI_	100	0	7	96	48	3

T_REC_TAP	320
T_REC_BRK	8
T_REC_XTP	27
T_REC_BXX	1
T_REC_HLD	67
T_REC_XHO	2
T_REC_BHO	0
T_REC_BXH	3
T_REC_STR	29
T_REC_BST	2
T_REC_XST	7
T_REC_XBS	0
T_REC_TTP	26
T_REC_THO	0
T_REC_SLD	32
T_REC_BSL	10
T_REC_ALL	534
T_NUM_TAP	409
T_NUM_BRK	24
T_NUM_HLD	69
T_NUM_SLD	32
T_NUM_ALL	534
T_JUDGE_TAP	420
T_JUDGE_HLD	190
T_JUDGE_SLD	42
T_JUDGE_ALL	652
TTM_EACHPAIRS	141
TTM_SCR_TAP	204500
TTM_SCR_BRK	62400
TTM_SCR_HLD	69000
TTM_SCR_SLD	48000
TTM_SCR_ALL	383900
TTM_SCR_S	370100
TTM_SCR_SS	381500
TTM_RAT_ACV	10062

