VERSION	0.00.00	1.04.00
FES_MODE	0
BPM_DEF	142.000	142.000	142.000	142.000
MET_DEF	4	4
RESOLUTION	384
CLK_DEF	384
COMPATIBLE_CODE	MA2

BPM	0	0	142.000
MET	0	0	4	4

NMHLD	1	0	3	672
NMSTR	1	0	4
NMSCR	1	0	4	96	480	2
NMHLD	3	0	2	672
NMSTR	3	0	3
NMSCR	3	0	3	96	480	1
EXTAP	5	0	1
EXSTR	5	0	2
NMSCR	5	0	2	96	192	6
NMTAP	5	96	1
NMTAP	5	192	1
NMTAP	5	288	1
EXTAP	6	0	0
EXSTR	6	0	1
NMSCR	6	0	1	96	192	6
NMTAP	6	96	0
NMTAP	6	192	0
NMTAP	6	288	0
EXSTR	7	0	0
NMSCR	7	0	0	96	192	6
EXTAP	7	0	7
NMTAP	7	48	7
NMTAP	7	96	7
NMTAP	7	144	7
NMTAP	7	192	7
NMTAP	7	240	7
NMTAP	7	288	7
NMTAP	7	336	7
NMTAP	8	0	7
NMTAP	8	24	7
NMTAP	8	48	6
NMTAP	8	72	6
NMTAP	8	96	5
NMTAP	8	120	5
NMTAP	8	144	4
NMTAP	8	168	4
NMTAP	8	192	3
NMTAP	8	216	3
NMTAP	8	240	2
NMTAP	8	264	2
NMTAP	8	288	1
NMTAP	8	312	1
NMTAP	8	336	0
NMTAP	8	360	0
NMTTP	9	0	0	C	0	M1
NMTTP	9	0	3	B	0	M1
NMTTP	9	0	4	B	0	M1
NMTTP	9	240	6	E	1	M1
NMTTP	9	264	2	E	1	M1
NMTTP	9	288	0	E	1	M1
NMTAP	10	0	2
NMTAP	10	48	3
NMTAP	10	72	3
NMTAP	10	120	2
NMTAP	10	120	4
NMTAP	10	144	2
NMTAP	10	144	4
NMHLD	10	192	5	72
NMTAP	10	264	4
NMTAP	10	336	6
NMTAP	10	336	7
NMTAP	11	0	5
NMTAP	11	48	4
NMTAP	11	72	4
NMTAP	11	120	3
NMTAP	11	120	5
NMTAP	11	144	3
NMTAP	11	144	5
NMHLD	11	192	2	72
NMTAP	11	264	3
NMTAP	11	336	0
NMTAP	11	336	1
NMTAP	12	0	2
NMTAP	12	48	3
NMTAP	12	72	3
NMTAP	12	120	2
NMTAP	12	120	4
NMTAP	12	144	2
NMTAP	12	144	4
NMHLD	12	192	5	72
NMTAP	12	264	4
NMTAP	12	336	0
NMTAP	12	336	6
NMTAP	13	0	1
NMTAP	13	0	7
NMTAP	13	48	2
NMTAP	13	72	2
NMTAP	13	72	3
NMTAP	13	120	5
NMTAP	13	144	4
NMTAP	13	144	5
NMTAP	13	192	1
NMTAP	13	192	6
NMSTR	13	216	1
NMSI_	13	216	1	96	36	5
NMTAP	13	216	6
NMTAP	13	264	0
NMTAP	13	264	7
BXTAP	13	312	1
BXTAP	13	312	6
NMTAP	14	0	7
NMTAP	14	48	0
NMTAP	14	72	0
NMTAP	14	120	1
NMTAP	14	120	7
NMTAP	14	144	1
NMTAP	14	144	7
NMHLD	14	192	6	72
NMTAP	14	264	7
NMTAP	14	336	3
NMTAP	14	336	5
NMTAP	15	0	6
NMTAP	15	48	7
NMTAP	15	72	7
NMTAP	15	120	0
NMTAP	15	120	6
NMTAP	15	144	0
NMTAP	15	144	6
NMHLD	15	192	1	72
NMTAP	15	264	0
NMTAP	15	336	2
NMTAP	15	336	4
NMTAP	16	0	1
NMTAP	16	48	0
NMTAP	16	72	0
NMTAP	16	120	1
NMTAP	16	120	7
NMTAP	16	144	1
NMTAP	16	144	7
NMHLD	16	192	6	72
NMTAP	16	264	7
NMTAP	16	336	2
NMTAP	16	336	5
NMSTR	17	0	6
NMSI_	17	0	6	96	48	3
NMTAP	17	48	6
NMSTR	17	96	2
NMSUR	17	96	2	96	120	4
NMTAP	17	144	2
NMHLD	17	192	5	96
NMSTR	18	0	4
NMSCL	18	0	4	96	36	2
NMTAP	18	0	6
NMTAP	18	72	5
NMTAP	18	144	5
NMTAP	18	192	2
NMSTR	18	192	4
NMSCR	18	192	4	96	36	6
NMTAP	18	264	3
NMTAP	18	336	3
NMTAP	19	48	5
NMTAP	19	72	5
NMTAP	19	96	4
NMTAP	19	144	3
NMTAP	19	144	6
NMSTR	19	192	4
NMSI_	19	192	4	96	36	7
NMSTR	19	192	5
NMSI_	19	192	5	96	36	7
NMTAP	19	240	4
NMTAP	19	240	5
NMTAP	20	48	2
NMTAP	20	72	3
NMTAP	20	120	3
NMTAP	20	144	2
NMHLD	20	192	3	72
NMHLD	20	264	1	72
NMTAP	20	336	0
NMTAP	21	48	2
NMTAP	21	72	2
NMTAP	21	96	3
NMTAP	21	144	1
NMTAP	21	144	4
NMTAP	21	192	2
NMTAP	21	192	3
NMTAP	21	240	2
NMTAP	21	288	1
NMTAP	21	288	3
NMTAP	21	336	0
BRSTR	22	0	0
NMSCL	22	0	0	96	96	5
BRTAP	22	0	4
NMSTR	22	96	5
NMSCR	22	96	5	96	192	3
BXTAP	22	144	5
NMTAP	22	288	4
NMTAP	23	0	4
NMTAP	23	96	5
NMHLD	23	144	4	48
NMHLD	23	144	5	48
NMTAP	23	240	5
NMTAP	23	288	2
NMTAP	23	288	6
NMTAP	23	336	7
BRTAP	24	0	3
BRSTR	24	0	7
NMSXR	24	0	7	96	192	2
NMTAP	24	96	3
NMTAP	24	192	3
NMTAP	24	288	3
NMTAP	25	0	1
NMTAP	25	0	3
NMTAP	25	48	0
NMTAP	25	96	1
NMTAP	25	96	7
NMTAP	25	144	6
NMTAP	25	192	5
NMTAP	25	192	7
NMTAP	25	240	4
NMTAP	25	288	3
NMTAP	25	288	4
NMSTR	26	0	4
NMSCL	26	0	4	96	36	2
NMTAP	26	0	6
NMTAP	26	24	4
NMTAP	26	24	6
NMTAP	26	72	5
NMTAP	26	144	5
BXTAP	26	192	2
BXSTR	26	192	4
BRSCR	26	192	4	96	36	6
BXTAP	26	216	2
BXTAP	26	216	4
BXTAP	26	264	3
BXTAP	26	336	3
NMTAP	27	48	5
NMTAP	27	72	5
NMTAP	27	96	4
NMTAP	27	144	3
NMTAP	27	144	6
NMSTR	27	192	4
NMSI_	27	192	4	96	36	0
NMSTR	27	192	5
NMSI_	27	192	5	96	36	0
NMTAP	27	240	4
NMTAP	27	240	5
NMTAP	28	48	2
NMTAP	28	72	2
NMTAP	28	120	1
NMTAP	28	120	3
NMTAP	28	144	1
NMTAP	28	144	3
NMHLD	28	192	3	72
NMHLD	28	264	2	72
NMTAP	28	336	0
NMHLD	29	48	2	96
NMTAP	29	120	3
NMTAP	29	144	3
NMTAP	29	192	2
NMTAP	29	192	3
NMTAP	29	240	1
NMTAP	29	240	4
NMTAP	29	288	0
NMTAP	29	288	6
NMTAP	29	336	5
NMTAP	29	336	7
BRSTR	30	0	0
NMSCL	30	0	0	96	96	5
BRTAP	30	0	4
NMSTR	30	96	5
NMSCR	30	96	5	96	192	3
BXTAP	30	144	5
NMTAP	30	288	4
NMTAP	31	0	4
NMTAP	31	96	5
NMHLD	31	144	4	48
NMHLD	31	144	5	48
NMTAP	31	240	3
NMTAP	31	240	6
NMTAP	31	288	1
NMTAP	31	288	7
NMTAP	31	336	0
NMTAP	31	336	2
BRTAP	32	0	3
BRSTR	32	0	7
NMSV_	32	0	7	96	96	2
NMSTR	32	96	2
NMSCL	32	96	2	96	192	4
BXTAP	32	144	2
NMTAP	32	288	3
NMTAP	33	0	2
NMHLD	33	48	2	48
NMTAP	33	96	3
NMHLD	33	144	3	48
NMTAP	33	192	4
NMHLD	33	240	4	48
NMTAP	33	288	5
NMSTR	34	0	4
NMSXL	34	0	4	96	96	3
NMTAP	34	0	6
NMTAP	34	72	7
NMHLD	34	144	0	144
NMTAP	34	240	1
BRTAP	34	288	1
NMTAP	35	0	1
NMSTR	35	0	3
NMSXR	35	0	3	96	96	4
NMTAP	35	72	0
NMHLD	35	144	7	144
NMTAP	35	240	6
BRTAP	35	288	6
NMTAP	36	0	4
NMTAP	36	0	6
NMTAP	36	48	5
NMTAP	36	96	1
NMTAP	36	96	3
NMTAP	36	144	2
NMTAP	36	192	4
NMTAP	36	192	7
NMTAP	36	240	5
NMTAP	36	288	0
NMTAP	36	288	3
NMTAP	36	336	2
NMTAP	37	0	6
NMTAP	37	24	6
NMTAP	37	48	4
NMTAP	37	72	4
NMTAP	37	96	3
NMTAP	37	120	3
NMTAP	37	144	1
NMTAP	37	168	1
NMTTP	37	192	0	C	1	M1
BRSTR	38	0	0
NMSI_	38	0	0	96	36	4
BRTAP	38	0	7
NMTAP	38	96	0
NMSTR	38	96	5
NMSI_	38	96	5	96	36	1
NMTAP	38	144	6
NMSTR	38	192	3
NMSI_	38	192	3	96	36	7
NMTAP	38	192	5
NMTAP	38	240	4
NMTAP	38	288	3
NMTAP	38	288	6
NMTAP	38	336	5
NMTAP	39	0	1
NMTAP	39	0	3
NMTAP	39	48	2
NMSTR	39	48	4
NMSI_	39	48	4	96	36	1
NMTAP	39	96	3
NMTAP	39	96	5
EXSTR	39	144	4
NMSI_	39	144	4	96	36	7
EXTAP	39	144	6
BXTAP	39	240	0
BXTAP	39	240	4
NMTAP	39	336	1
NMTAP	40	0	1
NMTAP	40	0	3
NMTAP	40	48	2
NMSTR	40	48	4
NMSV_	40	48	4	96	36	1
NMTAP	40	96	3
NMTAP	40	96	5
EXSTR	40	144	4
NMSV_	40	144	4	96	36	7
EXTAP	40	144	6
BXTAP	40	240	0
BXTAP	40	240	4
NMTAP	40	336	2
NMHLD	41	0	0	48
NMHLD	41	0	2	48
NMHLD	41	72	0	48
NMHLD	41	72	7	48
NMTAP	41	144	5
NMTAP	41	144	7
NMHLD	41	192	4	48
NMHLD	41	192	5	48
NMHLD	41	264	2	48
NMHLD	41	264	3	48
NMTAP	41	336	1
NMTAP	41	336	6
BRSTR	42	0	7
NMSI_	42	0	7	96	36	3
NMSTR	42	96	2
NMSI_	42	96	2	96	36	6
NMTAP	42	96	7
NMTAP	42	144	1
NMTAP	42	192	2
NMSTR	42	192	4
NMSI_	42	192	4	96	36	0
NMTAP	42	240	3
NMTAP	42	288	1
NMTAP	42	288	4
NMTAP	42	336	2
NMTAP	43	0	4
NMTAP	43	0	6
NMSTR	43	48	3
BRSI_	43	48	3	96	36	6
NMTAP	43	48	5
NMTAP	43	96	2
NMTAP	43	96	4
EXTAP	43	144	1
EXSTR	43	144	3
BRSI_	43	144	3	96	36	0
BXTAP	43	240	3
BXTAP	43	240	7
NMTAP	43	336	6
NMTAP	44	0	4
NMTAP	44	0	6
NMSTR	44	48	3
BRSV_	44	48	3	96	36	6
NMTAP	44	48	5
NMTAP	44	96	2
NMTAP	44	96	4
EXTAP	44	144	1
EXSTR	44	144	3
BRSV_	44	144	3	96	36	0
BXTAP	44	240	3
BXTAP	44	240	7
NMTAP	44	336	5
NMHLD	45	0	5	48
NMHLD	45	0	7	48
NMHLD	45	72	0	48
NMHLD	45	72	7	48
NMTAP	45	144	0
NMTAP	45	144	2
NMHLD	45	192	1	48
NMHLD	45	192	3	48
NMHLD	45	264	4	48
NMHLD	45	264	6	48
NMTAP	45	336	2
NMTAP	45	336	5
NMTAP	46	0	4
NMTAP	46	48	5
NMTTP	46	96	4	B	1	M1
NMSTR	46	96	6
NMSCR	46	96	6	96	96	1
NMSTR	46	192	1
NMSCR	46	192	1	96	144	6
NMTTP	46	240	2	B	1	M1
NMSTR	46	336	6
NMSCR	46	336	6	96	144	3
NMTTP	47	0	7	B	1	M1
NMSTR	47	96	3
NMSCR	47	96	3	96	144	0
NMTTP	47	144	0	C	1	M1
NMTAP	47	240	0
NMTAP	47	288	1
NMTAP	47	336	2
EXHLD	48	0	2	144
NMTAP	48	48	0
NMTAP	48	96	7
NMTAP	48	144	6
EXHLD	48	192	6	144
NMTAP	48	240	4
NMTAP	48	288	3
NMTAP	48	336	2
EXTAP	49	0	1
NMTAP	49	24	1
NMTAP	49	48	3
NMTAP	49	72	3
NMTAP	49	96	5
NMTAP	49	120	5
NMTAP	49	144	7
NMTAP	49	168	7
NMTTP	49	192	1	E	0	M1
NMTTP	49	204	2	E	0	M1
NMTTP	49	216	3	E	0	M1
NMTTP	49	228	4	E	0	M1
NMTTP	49	240	5	E	0	M1
NMTTP	49	252	6	E	0	M1
NMTTP	49	264	7	E	0	M1
NMTTP	49	276	0	E	0	M1
NMTTP	49	288	1	D	0	M1
NMTTP	49	300	2	D	0	M1
NMTTP	49	312	3	D	0	M1
NMTTP	49	324	4	D	0	M1
NMTTP	49	336	5	D	0	M1
NMTTP	49	348	6	D	0	M1
NMTTP	49	360	7	D	0	M1
NMTTP	49	372	0	D	0	M1
NMTTP	50	0	0	C	1	M1
NMTTP	50	0	1	D	0	M1
NMHLD	51	0	5	384
NMTAP	51	96	4
NMTAP	51	288	4
NMHLD	52	0	2	384
NMTAP	52	96	3
NMTAP	52	288	3
NMSTR	53	0	5
NMSCR	53	0	5	96	96	7
NMSTR	53	192	1
NMSCR	53	192	1	96	96	3
NMSTR	54	0	5
NMSUL	54	0	5	96	216	3
NMTTP	54	96	1	E	0	M1
NMTTP	54	288	2	E	0	M1
NMSTR	55	0	2
NMSUR	55	0	2	96	216	4
NMTTP	55	96	7	E	0	M1
NMTTP	55	288	6	E	0	M1
NMHLD	56	0	6	144
NMHLD	56	144	4	144
NMHLD	56	288	3	96
EXHLD	57	0	1	240
EXHLD	57	144	5	96
EXSTR	57	288	0
NMSCR	57	288	0	96	192	3
EXSTR	57	288	6
BRSCL	57	288	6	96	192	3
BRTAP	58	0	0
BRTAP	58	0	6
CNSSL	58	192	3	0	192	7
CNSSR	58	192	3	0	192	7
NMTAP	59	192	0
NMTAP	59	204	1
NMTAP	59	216	2
NMTAP	59	228	3
NMTAP	59	240	4
NMTAP	59	252	5
NMTAP	59	264	6
NMTAP	59	276	7
NMTAP	59	288	0
NMTAP	59	300	1
NMTAP	59	312	2
NMTAP	59	324	3
NMTAP	59	336	4
NMTAP	59	348	5
NMTAP	59	360	6
NMTAP	59	372	7
BRSTR	60	0	0
NMSI_	60	0	0	96	36	3
BRTAP	60	0	4
NMTAP	60	96	0
NMSTR	60	96	5
NMSI_	60	96	5	96	36	1
NMTAP	60	144	6
NMSTR	60	192	4
NMSI_	60	192	4	96	36	0
NMTAP	60	192	5
NMTAP	60	240	3
NMTAP	60	288	4
NMTAP	60	288	6
NMTAP	60	336	5
NMTAP	61	0	1
NMTAP	61	0	3
NMTAP	61	48	2
NMSTR	61	48	4
NMSI_	61	48	4	96	36	1
NMTAP	61	96	3
NMTAP	61	96	5
EXSTR	61	144	4
NMSI_	61	144	4	96	48	7
EXTAP	61	144	6
BXTAP	61	240	0
BXTAP	61	240	4
CNSI_	61	288	7	0	24	5
NMTAP	61	336	1
NMTAP	62	0	1
NMTAP	62	0	3
NMTAP	62	48	2
NMSTR	62	48	4
NMSV_	62	48	4	96	36	1
NMTAP	62	96	3
NMTAP	62	96	5
EXSTR	62	144	4
NMSV_	62	144	4	96	48	7
EXTAP	62	144	6
BXTAP	62	240	0
BXTAP	62	240	4
CNSCL	62	288	7	0	24	5
NMTAP	62	336	1
NMTAP	62	360	2
NMHLD	63	0	3	48
NMHLD	63	0	6	48
NMHLD	63	72	0	48
NMHLD	63	72	1	48
NMTAP	63	144	2
NMTAP	63	144	7
NMHLD	63	192	1	48
NMHLD	63	192	4	48
NMHLD	63	264	5	48
NMHLD	63	264	6	48
NMTAP	63	336	0
NMTAP	63	336	1
BRTAP	64	0	3
BRSTR	64	0	7
NMSI_	64	0	7	96	36	4
NMSTR	64	96	2
NMSI_	64	96	2	96	36	6
NMTAP	64	96	7
NMTAP	64	144	1
NMTAP	64	192	2
NMSTR	64	192	3
NMSI_	64	192	3	96	36	7
NMTAP	64	240	4
NMTAP	64	288	1
NMTAP	64	288	3
NMTAP	64	336	2
NMTAP	65	0	4
NMTAP	65	0	6
NMSTR	65	48	3
BRSI_	65	48	3	96	36	6
NMTAP	65	48	5
NMTAP	65	96	2
NMTAP	65	96	4
EXTAP	65	144	1
EXSTR	65	144	3
BRSI_	65	144	3	96	48	0
BXTAP	65	240	3
BXTAP	65	240	7
CNSI_	65	288	0	0	24	2
NMTAP	65	336	6
NMTAP	66	0	4
NMTAP	66	0	6
NMSTR	66	48	3
BRSV_	66	48	3	96	36	6
NMTAP	66	48	5
NMTAP	66	96	2
NMTAP	66	96	4
EXTAP	66	144	1
EXSTR	66	144	3
BRSV_	66	144	3	96	48	0
BXTAP	66	240	3
BXTAP	66	240	7
CNSCR	66	288	0	0	24	2
NMTAP	66	336	6
NMTAP	66	360	5
NMHLD	67	0	1	48
NMHLD	67	0	4	48
NMHLD	67	72	6	48
NMHLD	67	72	7	48
NMTAP	67	144	0
NMTAP	67	144	5
NMHLD	67	192	3	48
NMHLD	67	192	6	48
NMHLD	67	264	1	48
NMHLD	67	264	2	48
NMTAP	67	336	6
NMTAP	67	336	7
NMTAP	68	0	4
NMTAP	68	48	5
NMTTP	68	96	3	E	1	M1
NMSTR	68	96	6
NMSUL	68	96	6	96	96	1
NMSTR	68	192	1
NMSCL	68	192	1	96	24	0
NMTTP	68	240	1	E	1	M1
CNSUL	68	312	0	0	120	3
NMSTR	68	336	3
NMSCL	68	336	3	96	24	2
NMTTP	69	0	3	E	1	M1
CNSUL	69	72	2	0	120	5
NMSTR	69	96	5
NMSCL	69	96	5	96	24	4
NMTTP	69	144	5	E	1	M1
CNSUL	69	216	4	0	120	7
EXTAP	69	240	2
EXTAP	69	288	1
EXTAP	69	336	0
EXHLD	70	0	0	144
NMTAP	70	48	7
NMTAP	70	96	6
NMTAP	70	144	5
EXHLD	70	192	4	144
NMTAP	70	240	3
NMTAP	70	288	2
NMTAP	70	336	1
EXTAP	71	0	0
NMTAP	71	24	0
NMTAP	71	48	2
NMTAP	71	72	2
NMTAP	71	96	4
NMTAP	71	120	4
NMTAP	71	144	6
NMTAP	71	168	6
NMTAP	71	192	0
NMTAP	71	204	1
NMTAP	71	216	2
NMTAP	71	228	3
NMTAP	71	240	4
NMTAP	71	252	5
NMTAP	71	264	6
NMTAP	71	276	7
BRTAP	71	288	0
BRTAP	71	288	4
NMTAP	72	0	2
NMTAP	72	48	2
NMTAP	72	72	1
NMTAP	72	72	3
NMTAP	72	120	2
NMTAP	72	144	1
NMTAP	72	144	3
NMHLD	72	192	2	48
NMHLD	72	264	1	48
NMHLD	72	264	7	48
NMTAP	72	336	0
NMTAP	72	336	6
NMTAP	73	0	5
NMTAP	73	48	5
NMTAP	73	72	4
NMTAP	73	72	6
NMTAP	73	120	5
NMTAP	73	144	4
NMTAP	73	144	6
NMHLD	73	192	5	48
NMHLD	73	264	0	48
NMHLD	73	264	6	48
NMTAP	73	336	1
NMTAP	73	336	7
NMTAP	74	0	2
NMTAP	74	48	2
NMTAP	74	72	1
NMTAP	74	72	3
NMTAP	74	120	2
NMTAP	74	144	1
NMTAP	74	144	3
NMHLD	74	192	2	48
NMHLD	74	264	1	48
NMHLD	74	264	7	48
NMTAP	74	336	0
NMTAP	74	336	6
NMTAP	75	0	3
NMTAP	75	0	4
NMTAP	75	48	5
BRTAP	75	72	4
BRTAP	75	72	5
NMTAP	75	120	2
BRTAP	75	144	2
BRTAP	75	144	3
NMTAP	75	192	0
NMTAP	75	192	7
NMSTR	75	216	0
BRSI_	75	216	0	96	36	4
NMTAP	75	216	7
NMTAP	75	264	1
NMTAP	75	264	6
BXTAP	75	312	0
BXTAP	75	312	4
NMTAP	76	0	3
NMTAP	76	0	5
NMTAP	76	48	3
NMTAP	76	48	5
NMTAP	76	72	2
NMTAP	76	72	6
NMTAP	76	120	3
NMTAP	76	120	5
NMTAP	76	144	2
NMTAP	76	144	6
NMHLD	76	192	3	48
NMHLD	76	192	5	48
NMHLD	76	264	0	48
NMHLD	76	264	1	48
NMTAP	76	336	3
NMTAP	76	336	7
NMTAP	77	0	2
NMTAP	77	0	4
NMTAP	77	48	2
NMTAP	77	48	4
NMTAP	77	72	1
NMTAP	77	72	5
NMTAP	77	120	2
NMTAP	77	120	4
NMTAP	77	144	1
NMTAP	77	144	5
NMHLD	77	192	2	48
NMHLD	77	192	4	48
NMHLD	77	264	6	48
NMHLD	77	264	7	48
NMTAP	77	336	0
NMTAP	77	336	4
NMTAP	78	0	2
NMTAP	78	0	6
NMTAP	78	48	2
NMTAP	78	48	6
NMTAP	78	72	3
NMTAP	78	72	7
NMTAP	78	120	2
NMTAP	78	120	6
NMTAP	78	144	3
NMTAP	78	144	7
NMHLD	78	192	1	48
NMHLD	78	192	5	48
NMHLD	78	264	3	48
NMHLD	78	264	7	48
NMTAP	78	336	1
NMTAP	78	336	6
NMSTR	79	0	7
NMSI_	79	0	7	96	48	3
NMTAP	79	48	7
NMSTR	79	96	2
NMSUR	79	96	2	96	120	4
NMTAP	79	144	2
NMSTR	79	192	6
NMSCL	79	192	6	96	24	4
NMTAP	79	240	6
BRTAP	80	0	1
BRTAP	80	0	3
BRSTR	80	48	0
NMSXL	80	48	0	96	240	3
BRSTR	80	48	7
NMSXR	80	48	7	96	240	4
BRTAP	80	96	4
BRTAP	80	96	6
BRTAP	80	144	0
BRTAP	80	144	7

T_REC_TAP	453
T_REC_BRK	23
T_REC_XTP	16
T_REC_BXX	28
T_REC_HLD	81
T_REC_XHO	6
T_REC_BHO	0
T_REC_BXH	0
T_REC_STR	49
T_REC_BST	10
T_REC_XST	13
T_REC_XBS	1
T_REC_TTP	37
T_REC_THO	0
T_REC_SLD	62
T_REC_BSL	11
T_REC_ALL	790
T_NUM_TAP	568
T_NUM_BRK	73
T_NUM_HLD	87
T_NUM_SLD	62
T_NUM_ALL	790
T_JUDGE_TAP	630
T_JUDGE_HLD	161
T_JUDGE_SLD	73
T_JUDGE_ALL	864
TTM_EACHPAIRS	200
TTM_SCR_TAP	284000
TTM_SCR_BRK	189800
TTM_SCR_HLD	87000
TTM_SCR_SLD	93000
TTM_SCR_ALL	653800
TTM_SCR_S	627150
TTM_SCR_SS	646500
TTM_RAT_ACV	10112

