VERSION	0.00.00	1.04.00
FES_MODE	0
BPM_DEF	142.000	142.000	142.000	142.000
MET_DEF	4	4
RESOLUTION	384
CLK_DEF	384
COMPATIBLE_CODE	MA2

BPM	0	0	142.000
MET	0	0	4	4

NMTTP	1	0	0	A	0	M1
NMTHO	1	0	0	1440	C	0	M1
NMTTP	1	0	1	A	0	M1
NMTTP	1	0	1	D	0	M1
NMTTP	2	0	1	B	0	M1
NMTTP	3	0	2	B	0	M1
NMTTP	4	0	3	B	0	M1
NMTAP	5	0	2
NMTAP	5	96	2
NMTAP	5	192	3
NMTAP	5	288	3
NMTAP	6	0	4
NMTAP	6	96	4
NMTAP	6	192	5
NMTAP	6	288	4
NMTAP	6	288	5
NMTAP	7	0	6
NMTAP	7	48	6
NMTAP	7	96	4
NMTAP	7	192	1
NMTAP	7	240	1
NMSTR	7	288	3
NMSCL	7	288	3	96	288	4
NMTTP	9	0	0	C	1	M1
NMTTP	9	0	2	B	0	M1
NMTTP	9	0	5	B	0	M1
EXTAP	9	288	0
EXTAP	9	288	7
NMHLD	10	0	2	192
NMTAP	10	72	3
NMTAP	10	144	4
NMHLD	10	192	4	192
NMTAP	10	264	3
NMTAP	10	336	1
NMHLD	11	0	1	144
NMTAP	11	72	3
NMTAP	11	144	4
NMSTR	11	192	1
NMSI_	11	192	1	96	48	4
NMTAP	11	192	5
NMHLD	12	0	5	192
NMTAP	12	72	4
NMTAP	12	144	3
NMHLD	12	192	3	72
NMTAP	12	264	4
NMTAP	12	336	3
NMTAP	12	336	5
NMSTR	13	0	3
NMSCL	13	0	3	96	96	0
NMTAP	13	0	5
CNSSL	13	192	0	0	144	4
EXHLD	14	0	5	192
NMTAP	14	72	4
NMTAP	14	144	3
NMHLD	14	192	3	192
NMTAP	14	264	4
NMTAP	14	336	6
NMHLD	15	0	6	144
NMTAP	15	72	4
NMTAP	15	144	3
NMTAP	15	192	2
NMSTR	15	192	6
NMSI_	15	192	6	96	48	3
NMTAP	16	0	1
NMTAP	16	48	1
NMTAP	16	96	5
NMTAP	16	144	5
NMTAP	16	192	3
NMTAP	16	240	3
NMTAP	16	288	4
NMTAP	16	336	4
NMSTR	17	0	2
NMSXL	17	0	2	96	96	4
NMSTR	17	0	5
NMSXR	17	0	5	96	96	3
BRTAP	17	288	1
BRTAP	17	288	6
NMTAP	18	0	2
NMTAP	18	0	3
NMTAP	18	96	0
NMTAP	18	192	4
NMTAP	18	192	5
NMTAP	18	288	7
NMTAP	19	0	3
NMTAP	19	48	3
NMTAP	19	96	2
NMTAP	19	96	4
NMTAP	19	192	0
NMTAP	19	240	0
NMTAP	19	288	1
NMTAP	19	288	7
NMTAP	20	0	4
NMTAP	20	0	5
NMTAP	20	96	7
NMTAP	20	192	2
NMTAP	20	192	3
NMTAP	20	288	0
NMTAP	21	0	4
NMTAP	21	48	4
NMTAP	21	96	3
NMTAP	21	96	5
NMTAP	21	192	7
NMTAP	21	240	7
NMTAP	21	288	0
NMTAP	21	288	6
NMHLD	22	0	2	96
NMHLD	22	0	4	96
NMSTR	22	144	3
NMSCR	22	144	3	96	336	2
NMHLD	22	144	5	432
NMTAP	23	288	3
NMTAP	23	288	5
NMTAP	24	0	6
NMTAP	24	48	4
NMTAP	24	96	3
NMTAP	24	96	5
NMTAP	24	192	1
NMTAP	24	240	3
NMTAP	24	288	2
NMTAP	24	288	4
NMTAP	25	0	5
NMTAP	25	48	5
NMTAP	25	96	1
NMTAP	25	144	1
NMTAP	25	192	7
BRTAP	25	288	0
BRTAP	25	288	6
NMTAP	26	0	6
NMTAP	26	0	7
NMTAP	26	96	4
NMTAP	26	192	0
NMTAP	26	192	1
NMTAP	26	288	3
NMTAP	27	0	7
NMTAP	27	48	7
NMTAP	27	96	0
NMTAP	27	96	6
NMTAP	27	192	4
NMTAP	27	240	4
NMTAP	27	288	3
NMTAP	27	288	5
NMTAP	28	0	0
NMTAP	28	0	1
NMTAP	28	96	3
NMTAP	28	192	6
NMTAP	28	192	7
NMTAP	28	288	4
NMTAP	29	0	0
NMTAP	29	48	0
NMTAP	29	96	3
NMTAP	29	144	3
NMTAP	29	192	1
NMTAP	29	288	2
NMTAP	29	288	4
NMHLD	30	0	4	96
NMHLD	30	0	5	96
NMHLD	30	144	2	432
NMSTR	30	144	3
NMSCL	30	144	3	96	336	5
NMTAP	31	288	3
NMTAP	31	288	5
NMHLD	32	0	2	96
NMHLD	32	0	4	96
BRSTR	32	144	1
NMSCR	32	144	1	96	144	4
BRTAP	32	144	5
CNSI_	33	0	4	0	96	0
EXSTR	33	192	6
BRSI_	33	192	6	96	48	2
NMHLD	34	0	0	384
NMTTP	34	192	3	E	0	M1
NMTTP	34	288	0	C	0	M1
NMHLD	35	0	7	384
NMTTP	35	192	5	E	0	M1
NMTTP	35	288	0	C	0	M1
NMTAP	36	0	1
NMTAP	36	48	1
NMTAP	36	96	0
NMTAP	36	96	1
NMTAP	36	192	6
NMTAP	36	240	6
NMTAP	36	288	6
NMTAP	36	288	7
NMTAP	37	0	5
NMTAP	37	48	5
NMTAP	37	96	3
NMTAP	37	96	4
NMTTP	37	192	0	C	1	M1
NMTTP	37	192	2	B	0	M1
NMTTP	37	192	5	B	0	M1
NMSTR	38	0	0
NMSI_	38	0	0	96	48	4
NMSTR	38	0	1
NMSI_	38	0	1	96	48	4
NMSTR	38	192	0
NMSI_	38	192	0	96	48	4
NMSTR	38	192	1
NMSI_	38	192	1	96	48	4
NMTAP	39	0	3
NMTAP	39	0	5
NMTAP	39	96	6
NMTAP	39	144	6
NMTAP	39	144	7
NMTAP	39	240	0
NMTAP	39	240	5
NMTAP	39	288	0
NMTAP	39	288	5
NMTAP	40	0	2
NMTAP	40	0	3
NMTAP	40	96	1
NMTAP	40	144	0
NMTAP	40	144	1
NMTAP	40	240	2
NMTAP	40	240	6
NMTAP	40	336	4
NMTAP	40	336	5
NMHLD	41	0	4	72
NMTAP	41	0	5
NMHLD	41	72	3	72
NMTAP	41	144	2
NMSTR	41	192	1
NMSI_	41	192	1	96	48	5
NMTAP	41	192	4
NMSTR	42	0	6
NMSI_	42	0	6	96	48	3
NMSTR	42	0	7
NMSI_	42	0	7	96	48	3
NMSTR	42	192	6
NMSI_	42	192	6	96	48	3
NMSTR	42	192	7
NMSI_	42	192	7	96	48	3
NMTAP	43	0	2
NMTAP	43	0	4
NMTAP	43	96	1
NMTAP	43	144	0
NMTAP	43	144	1
NMTAP	43	240	2
NMTAP	43	240	7
NMTAP	43	288	2
NMTAP	43	288	7
NMTAP	44	0	4
NMTAP	44	0	5
NMTAP	44	96	6
NMTAP	44	144	6
NMTAP	44	144	7
NMTAP	44	240	1
NMTAP	44	240	5
NMTAP	44	336	2
NMTAP	44	336	3
NMTAP	45	0	2
NMHLD	45	0	3	72
NMHLD	45	72	4	72
NMTAP	45	144	5
NMTAP	45	192	3
NMSTR	45	192	6
NMSI_	45	192	6	96	48	2
NMTAP	46	0	0
NMTAP	46	96	1
NMTAP	46	96	7
NMTAP	46	192	2
NMTAP	46	240	2
NMTAP	46	240	3
NMTAP	46	336	5
NMTAP	47	0	4
NMTAP	47	0	5
NMTAP	47	96	6
NMTAP	47	144	6
NMTAP	47	144	7
NMTAP	47	240	1
NMTAP	47	240	7
NMTAP	47	288	1
NMTAP	47	288	7
NMTAP	48	0	0
NMTAP	48	48	0
NMTAP	48	96	6
NMTAP	48	144	6
NMTAP	48	192	2
NMTAP	48	240	2
NMTAP	48	288	5
NMTAP	48	336	5
NMTAP	49	0	3
NMTAP	49	24	4
NMTAP	49	48	3
NMTAP	49	72	4
NMTAP	49	96	3
NMTAP	49	120	4
NMTAP	49	144	3
NMTAP	49	168	4
NMSTR	49	192	3
NMSF_	49	192	3	96	48	7
BXSTR	50	0	0
NMSCR	50	0	0	96	480	7
BXTAP	50	0	6
NMHLD	52	0	0	576
NMHLD	52	0	7	576
NMHLD	54	0	1	384
NMTTP	54	192	2	E	0	M1
NMHLD	55	0	3	384
NMTTP	55	192	4	E	0	M1
NMHLD	56	0	4	384
NMTTP	56	192	6	E	0	M1
NMHLD	57	0	6	192
NMTTP	57	192	0	E	0	M1
BRSTR	58	0	0
BRSCR	58	0	0	96	288	7
BRSTR	58	0	7
BRSCL	58	0	7	96	288	0
NMTAP	59	192	0
NMTAP	59	192	7
NMTAP	59	240	0
NMTAP	59	240	7
BRTAP	59	288	0
BRTAP	59	288	7
NMSTR	60	0	0
NMSI_	60	0	0	96	48	5
NMSTR	60	0	1
NMSI_	60	0	1	96	48	4
NMSTR	60	192	0
NMSI_	60	192	0	96	48	5
NMSTR	60	192	1
NMSI_	60	192	1	96	48	4
NMTAP	61	0	3
NMTAP	61	96	1
NMTAP	61	96	7
NMTAP	61	144	1
NMTAP	61	144	7
NMTAP	61	240	2
NMTAP	61	240	6
NMTAP	61	288	2
NMTAP	61	288	6
NMTAP	62	0	4
NMTAP	62	96	0
NMTAP	62	96	6
NMTAP	62	144	0
NMTAP	62	144	6
NMTAP	62	240	1
NMTAP	62	240	5
NMTAP	62	336	2
NMTAP	62	336	3
NMTAP	63	0	2
NMHLD	63	0	3	72
NMHLD	63	72	4	72
NMTAP	63	144	5
NMSTR	63	192	3
NMSI_	63	192	3	96	48	0
NMTAP	63	192	6
NMSTR	64	0	6
NMSI_	64	0	6	96	48	3
NMSTR	64	0	7
NMSI_	64	0	7	96	48	2
NMSTR	64	192	6
NMSI_	64	192	6	96	48	3
NMSTR	64	192	7
NMSI_	64	192	7	96	48	2
NMTAP	65	0	4
NMTAP	65	96	0
NMTAP	65	96	6
NMTAP	65	144	0
NMTAP	65	144	6
NMTAP	65	240	1
NMTAP	65	240	5
NMTAP	65	288	1
NMTAP	65	288	5
NMTAP	66	0	3
NMTAP	66	96	1
NMTAP	66	96	7
NMTAP	66	144	1
NMTAP	66	144	7
NMTAP	66	240	2
NMTAP	66	240	6
NMTAP	66	336	4
NMTAP	66	336	5
NMHLD	67	0	4	72
NMTAP	67	0	5
NMHLD	67	72	3	72
NMTAP	67	144	2
NMSTR	67	192	2
NMSI_	67	192	2	96	48	7
NMTAP	67	192	3
NMTAP	68	0	6
NMTAP	68	96	4
NMTAP	68	96	5
NMTAP	68	192	2
NMTAP	68	240	2
NMTAP	68	240	3
NMTAP	68	336	1
NMTAP	69	0	0
NMTAP	69	0	1
NMTAP	69	96	6
NMTAP	69	144	6
NMTAP	69	144	7
NMTAP	69	240	3
NMTAP	69	240	5
NMTAP	69	288	3
NMTAP	69	288	5
NMTAP	70	0	2
NMTAP	70	48	2
NMTAP	70	96	4
NMTAP	70	144	4
NMTAP	70	192	1
NMTAP	70	240	1
NMTAP	70	288	6
NMTAP	70	336	6
NMTAP	71	0	0
NMTAP	71	24	7
NMTAP	71	48	0
NMTAP	71	72	7
NMTAP	71	96	0
NMTAP	71	120	7
NMTAP	71	144	0
NMTAP	71	168	7
NMSTR	71	192	0
NMSI_	71	192	0	96	48	4
BRTAP	71	288	5
NMHLD	72	0	6	192
NMTAP	72	72	7
NMTAP	72	144	0
NMHLD	72	192	0	192
NMTAP	72	264	7
NMTAP	72	336	5
NMHLD	73	0	5	192
NMTAP	73	72	7
NMTAP	73	144	1
NMHLD	73	192	1	192
NMTAP	73	264	7
NMTAP	73	336	6
NMHLD	74	0	6	192
NMTAP	74	72	7
NMTAP	74	144	0
NMHLD	74	192	0	72
NMTAP	74	264	7
NMTAP	74	336	0
NMTAP	74	336	7
NMTAP	75	0	0
NMSTR	75	0	7
NMSCL	75	0	7	96	96	4
CNSSL	75	192	4	0	144	0
EXHLD	76	0	1	192
NMTAP	76	72	0
NMTAP	76	144	7
NMHLD	76	192	7	192
NMTAP	76	264	0
NMTAP	76	336	2
NMHLD	77	0	2	192
NMTAP	77	72	0
NMTAP	77	144	7
NMHLD	77	192	7	72
NMTAP	77	264	1
NMTAP	77	336	1
NMTAP	77	336	7
NMTAP	78	0	0
NMTAP	78	48	0
NMTAP	78	96	6
NMTAP	78	144	6
NMTAP	78	192	2
NMTAP	78	240	2
NMTAP	78	288	5
NMTAP	78	336	5
NMTAP	79	0	3
NMTAP	79	24	4
NMTAP	79	48	3
NMTAP	79	72	4
NMTAP	79	96	3
NMTAP	79	120	4
NMTAP	79	144	3
NMTAP	79	168	4
NMTAP	79	192	3
BRTAP	79	288	0
BRTAP	79	288	7
EXTAP	80	0	2
EXTAP	80	0	6
EXSTR	80	48	2
BRSI_	80	48	2	96	96	5
EXSTR	80	48	6
BRSI_	80	48	6	96	96	1
CNSI_	80	240	1	0	48	7
CNSI_	80	240	5	0	48	3

T_REC_TAP	318
T_REC_BRK	10
T_REC_XTP	4
T_REC_BXX	1
T_REC_HLD	40
T_REC_XHO	2
T_REC_BHO	0
T_REC_BXH	0
T_REC_STR	31
T_REC_BST	3
T_REC_XST	3
T_REC_XBS	1
T_REC_TTP	20
T_REC_THO	1
T_REC_SLD	33
T_REC_BSL	5
T_REC_ALL	472
T_NUM_TAP	376
T_NUM_BRK	20
T_NUM_HLD	43
T_NUM_SLD	33
T_NUM_ALL	472
T_JUDGE_TAP	391
T_JUDGE_HLD	208
T_JUDGE_SLD	38
T_JUDGE_ALL	637
TTM_EACHPAIRS	109
TTM_SCR_TAP	188000
TTM_SCR_BRK	52000
TTM_SCR_HLD	43000
TTM_SCR_SLD	49500
TTM_SCR_ALL	332500
TTM_SCR_S	320600
TTM_SCR_SS	330500
TTM_RAT_ACV	10060

