VERSION	0.00.00	1.04.00
FES_MODE	0
BPM_DEF	188.000	188.000	188.000	188.000
MET_DEF	4	4
RESOLUTION	384
CLK_DEF	384
COMPATIBLE_CODE	MA2

BPM	0	0	188.000
MET	0	0	4	4

NMSTR	1	288	3
NMSI_	1	288	3	96	480	0
NMHLD	2	0	5	336
NMSTR	3	288	4
NMSI_	3	288	4	96	480	7
NMHLD	4	0	1	336
NMSTR	5	192	0
BRSI_	5	192	0	96	48	4
BXTAP	5	288	0
NMTAP	6	0	3
NMTAP	6	0	5
NMTAP	6	48	2
NMTAP	6	72	3
NMTAP	6	96	2
NMTAP	6	144	5
NMTAP	6	168	4
NMTAP	6	192	5
NMTAP	6	240	2
NMTAP	6	264	3
NMTAP	6	288	2
NMTAP	6	336	5
NMTAP	6	360	4
NMTAP	7	0	5
NMTAP	7	48	1
NMTAP	7	72	3
NMTAP	7	96	2
NMTAP	7	144	6
NMTAP	7	168	4
NMTAP	7	192	5
NMSTR	7	240	2
BRSI_	7	240	2	96	48	7
NMTAP	7	264	3
NMTAP	7	288	2
NMTAP	7	312	3
NMTAP	7	336	2
NMTAP	8	48	6
NMTAP	8	96	6
NMTAP	8	144	1
NMTAP	8	168	0
NMTAP	8	192	1
NMTAP	8	216	0
NMTAP	8	240	2
NMTAP	8	264	7
NMTAP	8	288	3
NMTAP	8	312	6
BXHLD	8	336	4	288
NMSTR	9	240	7
BRSI_	9	240	7	96	48	3
NMTAP	9	336	2
BRTAP	9	336	7
NMTAP	10	48	1
NMTAP	10	72	1
NMTAP	10	96	0
NMTAP	10	144	2
NMTAP	10	144	7
NMTAP	10	192	3
NMTAP	10	192	6
NMTAP	10	240	4
NMTAP	10	240	5
NMTAP	10	288	4
NMTAP	10	288	5
NMTAP	10	336	6
NMTAP	10	360	6
NMTAP	11	0	7
NMTAP	11	48	0
NMTAP	11	48	5
NMTAP	11	96	1
NMTAP	11	96	4
NMTAP	11	144	1
NMTAP	11	144	4
NMTAP	11	192	2
NMTAP	11	216	3
NMSTR	11	240	1
NMSI_	11	240	1	96	48	5
NMTAP	11	264	3
NMTAP	11	288	1
NMTAP	11	312	3
NMTAP	11	336	1
NMTAP	12	48	4
NMTAP	12	48	6
NMTAP	12	96	4
NMTAP	12	96	6
NMTAP	12	144	7
NMTAP	12	192	0
NMTAP	12	192	1
NMTAP	12	240	2
NMTAP	12	288	3
NMTAP	12	288	5
NMTAP	12	336	3
NMTAP	12	336	5
NMTTP	13	0	6	A	0	M1
NMTTP	13	24	6	E	0	M1
NMTTP	13	48	5	E	0	M1
NMTTP	13	72	4	A	0	M1
NMTTP	13	96	3	A	0	M1
NMTTP	13	120	3	E	0	M1
NMTTP	13	144	2	E	0	M1
NMTAP	13	192	0
NMSTR	13	240	0
NMSI_	13	240	0	96	48	4
NMTAP	13	288	1
NMTAP	13	288	7
BRTAP	13	336	0
NMTAP	14	48	6
NMTAP	14	72	6
NMTAP	14	96	7
NMTAP	14	144	0
NMTAP	14	144	5
NMTAP	14	192	1
NMTAP	14	192	4
NMTAP	14	240	2
NMTAP	14	240	3
NMTAP	14	288	2
NMTAP	14	288	3
EXTAP	15	0	2
NMTAP	15	24	4
NMTAP	15	48	2
NMTAP	15	72	4
EXTAP	15	96	3
NMTAP	15	120	5
NMTAP	15	144	3
NMTAP	15	168	5
EXTAP	15	192	4
NMSTR	15	240	7
NMSI_	15	240	7	96	48	3
NMTAP	15	288	0
BRTAP	15	336	1
BRTAP	15	336	7
NMTAP	16	48	2
NMTAP	16	48	4
NMTAP	16	96	2
NMTAP	16	96	4
NMTAP	16	144	1
NMSTR	16	192	0
NMSI_	16	192	0	96	48	4
NMTAP	16	288	0
NMTAP	16	288	4
NMTAP	16	336	5
NMSTR	17	0	6
NMSI_	17	0	6	96	48	2
NMTAP	17	96	2
NMTAP	17	96	6
NMTAP	17	144	1
NMSTR	17	192	0
NMSI_	17	192	0	96	48	4
NMTAP	17	288	0
NMTAP	17	288	4
NMTAP	17	336	5
NMSTR	18	0	6
NMSCR	18	0	6	96	48	1
NMTAP	18	96	3
NMSTR	18	144	2
NMSCR	18	144	2	96	48	5
NMTAP	18	240	5
NMHLD	18	288	6	144
NMTAP	19	48	4
NMTAP	19	96	3
NMTAP	19	96	5
NMTAP	19	144	3
NMTAP	19	144	5
BRTAP	19	192	2
NMTAP	19	216	1
NMTAP	19	240	0
NMTAP	19	264	7
NMTAP	19	288	6
NMTAP	19	312	5
NMTAP	19	336	4
NMTAP	20	48	5
NMHLD	20	96	6	96
NMTAP	20	192	4
NMTAP	20	240	5
NMTAP	20	288	6
NMSTR	20	336	7
NMSI_	20	336	7	96	48	3
NMTAP	21	48	3
NMHLD	21	96	2	96
NMTAP	21	192	4
NMTAP	21	240	3
NMTAP	21	288	2
NMSTR	21	336	1
NMSI_	21	336	1	96	48	5
NMTAP	22	48	6
NMHLD	22	96	7	96
NMTAP	22	192	4
NMSTR	22	240	4
NMSI_	22	240	4	96	48	0
NMTAP	22	336	5
NMTTP	23	48	6	E	0	M1
NMTTP	23	96	7	E	0	M1
NMTTP	23	144	0	E	0	M1
NMTTP	23	192	1	E	0	M1
NMTTP	23	240	2	E	0	M1
NMTTP	23	288	3	E	0	M1
NMSTR	23	336	6
NMSLL	23	336	6	96	72	2
NMTAP	24	48	2
NMHLD	24	96	1	96
NMTAP	24	192	3
NMTAP	24	240	2
NMTAP	24	288	1
NMSTR	24	336	0
NMSLR	24	336	0	96	72	4
NMTAP	25	48	4
NMHLD	25	96	5	96
NMTAP	25	192	3
NMTAP	25	240	4
NMTAP	25	288	5
NMSTR	25	336	6
NMSLL	25	336	6	96	72	2
NMTAP	26	48	1
NMSTR	26	96	0
NMSCR	26	96	0	96	96	5
NMTTP	26	192	0	C	1	M1
NMTAP	26	288	7
NMHLD	26	336	7	96
NMTAP	27	48	3
NMTAP	27	96	2
NMTAP	27	96	6
NMTAP	27	144	2
NMTAP	27	144	6
NMTAP	27	192	1
NMTAP	27	192	5
NMTAP	27	240	1
NMTAP	27	240	5
NMSTR	27	288	0
NMSI_	27	288	0	96	48	4
NMTAP	27	336	0
NMSTR	28	0	0
BRSCL	28	0	0	96	48	5
BRSCR	28	0	0	96	48	3
EXTAP	28	192	4
EXTAP	28	240	3
EXTAP	28	240	5
NMSTR	28	288	3
NMSI_	28	288	3	96	48	7
EXTAP	28	288	5
NMTAP	28	336	3
NMSTR	29	0	3
BRSI_	29	0	3	96	48	0
BRSI_	29	0	3	96	48	6
EXTAP	29	192	7
NMTAP	29	240	0
NMTAP	29	240	6
NMSTR	29	288	1
NMSI_	29	288	1	96	48	6
NMTAP	29	288	5
NMTAP	30	0	1
NMSTR	30	0	4
NMSV_	30	0	4	96	48	7
NMSTR	30	96	0
NMSI_	30	96	0	96	48	3
NMTAP	30	96	4
NMTAP	30	192	0
NMTAP	30	192	6
NMTAP	30	288	4
NMTAP	30	288	5
NMTAP	30	336	4
NMTAP	30	336	5
NMTAP	31	0	6
NMTAP	31	48	7
NMTAP	31	96	0
NMTAP	31	144	1
NMTAP	31	192	2
NMTAP	31	192	3
NMTAP	31	240	4
NMSTR	31	288	1
BRSXL	31	288	1	96	192	4
NMTAP	31	288	5
NMTAP	32	0	7
EXTAP	32	96	0
EXTAP	32	144	0
NMTAP	32	240	6
NMSTR	32	288	6
BRSV_	32	288	6	96	96	4
NMTAP	33	0	3
EXTAP	33	96	0
CNSI_	33	96	4	0	48	2
EXTAP	33	144	0
NMTAP	33	240	2
NMTAP	33	240	5
NMSTR	33	288	2
NMSXR	33	288	2	96	144	4
NMSTR	33	288	5
NMSXL	33	288	5	96	144	3
EXSTR	34	192	7
BRSCL	34	192	7	96	192	0
NMTTP	34	288	0	C	1	M1
NMTAP	35	192	0
NMTAP	35	192	7
NMSTR	35	288	2
NMSCL	35	288	2	96	288	5
NMTAP	36	0	5
NMTAP	36	96	5
NMTAP	36	192	4
NMTAP	36	288	4
CNSCR	36	288	5	0	288	2
NMTAP	37	0	3
NMTAP	37	96	3
NMSTR	37	192	4
BRSI_	37	192	4	96	48	0
EXTAP	38	0	7
EXSTR	38	48	7
NMSF_	38	48	7	96	48	3
BRTAP	38	144	7
NMSTR	38	240	0
NMSF_	38	240	0	96	48	4
BRTAP	38	336	0
NMSTR	39	48	7
NMSCL	39	48	7	96	48	4
NMSCR	39	48	7	96	48	2
BRTAP	39	144	7
EXTAP	39	240	1
EXTAP	39	240	5
EXTAP	39	288	1
EXTAP	39	288	5
NMSTR	40	0	0
NMSI_	40	0	0	96	48	3
NMTAP	40	0	6
NMTAP	40	96	6
NMSTR	40	192	4
NMSI_	40	192	4	96	48	0
NMTAP	40	192	6
NMTAP	40	288	6
NMSTR	41	0	1
NMSI_	41	0	1	96	48	5
NMTAP	41	0	6
NMTAP	41	96	6
NMSTR	41	192	4
BRSI_	41	192	4	96	48	7
NMTAP	41	192	6
BRTAP	41	288	6
NMSTR	42	0	0
NMSCR	42	0	0	96	96	4
NMTAP	42	0	5
NMSTR	42	96	4
NMSCR	42	96	4	96	96	0
NMTAP	42	192	0
NMTAP	42	288	4
NMTAP	42	336	5
NMSTR	43	0	6
NMSI_	43	0	6	96	48	1
NMSTR	43	96	2
NMSI_	43	96	2	96	48	5
NMTAP	43	96	6
NMTAP	43	192	2
NMHLD	43	192	7	96
NMSTR	43	288	4
NMSCL	43	288	4	96	96	0
NMSTR	44	96	3
NMSCR	44	96	3	96	96	7
NMSTR	44	288	4
NMSCL	44	288	4	96	96	0
NMSTR	45	96	3
NMSI_	45	96	3	96	48	7
NMSTR	45	192	3
NMSCL	45	192	3	96	72	0
NMSCR	45	192	3	96	72	6
NMTAP	46	48	1
NMTAP	46	48	5
NMSTR	46	96	1
NMSI_	46	96	1	96	48	6
NMSTR	46	96	5
NMSI_	46	96	5	96	48	2
NMTAP	46	192	1
NMTAP	46	192	5
NMTAP	46	288	0
NMTAP	46	288	4
NMHLD	46	336	0	96
NMTAP	46	336	4
NMTAP	47	48	3
BRTAP	47	96	2
BRTAP	47	96	5
NMSTR	47	192	3
NMSI_	47	192	3	96	48	0
NMSTR	47	192	4
NMSI_	47	192	4	96	48	7
BXSTR	47	288	3
NMSCL	47	288	3	96	144	4
BXSTR	47	288	4
NMSCR	47	288	4	96	144	3
NMTTP	48	0	3	A	0	M1
NMTTP	48	0	4	A	0	M1
NMTTP	48	0	4	D	1	M1
NMSTR	48	240	6
NMSI_	48	240	6	96	48	2
NMSTR	48	240	7
NMSI_	48	240	7	96	48	3
NMTAP	48	288	0
NMTAP	48	288	5
BRTAP	48	336	6
BRTAP	48	336	7
NMTAP	49	48	1
NMSTR	49	96	0
NMSI_	49	96	0	96	48	4
NMTAP	49	192	0
NMSTR	49	192	5
NMSI_	49	192	5	96	48	2
NMSTR	49	288	1
NMSI_	49	288	1	96	48	6
NMTAP	49	288	5
NMTAP	50	0	1
NMSTR	50	0	4
NMSI_	50	0	4	96	48	7
NMSTR	50	96	0
NMSCR	50	96	0	96	96	5
NMTAP	50	96	4
NMTAP	50	192	0
NMTAP	50	192	6
NMTAP	50	288	7
NMTAP	50	336	7
NMTAP	51	48	2
NMSTR	51	48	5
NMSI_	51	48	5	96	48	1
NMTAP	51	144	0
NMTAP	51	192	0
CNSI_	51	192	1	0	48	6
NMSTR	51	288	2
BRSCL	51	288	2	96	96	6
NMSTR	51	288	4
BRSUL	51	288	4	96	96	6
NMTAP	52	192	4
NMTAP	52	240	4
NMTAP	52	288	3
NMTAP	52	288	5
NMTAP	52	336	4
NMHLD	52	336	6	96
NMTAP	53	48	7
BRSTR	53	96	6
NMSI_	53	96	6	96	48	4
BRSTR	53	96	7
NMSI_	53	96	7	96	48	1
BRSTR	53	192	6
NMSI_	53	192	6	96	48	2
BRSTR	53	192	7
NMSI_	53	192	7	96	48	3
BRTAP	53	288	6
BRTAP	53	288	7
BRTAP	54	0	1
BRTAP	54	0	4
NMSTR	54	48	2
NMSI_	54	48	2	96	48	5
NMTAP	54	72	3
NMTAP	54	96	2
NMTAP	54	120	3
BRTAP	54	144	2
NMSTR	54	240	6
NMSI_	54	240	6	96	48	2
NMTAP	54	264	7
NMTAP	54	288	6
NMTAP	54	312	7
BRTAP	54	336	6
NMSTR	55	48	1
NMSI_	55	48	1	96	48	4
NMTAP	55	72	0
NMTAP	55	96	1
NMTAP	55	120	0
BRTAP	55	144	1
NMTAP	55	240	5
BRTAP	55	288	4
BRSTR	55	288	6
NMSCR	55	288	6	96	48	1
NMTAP	56	0	3
NMSTR	56	96	2
NMSCR	56	96	2	96	48	5
NMTAP	56	192	7
NMTAP	56	288	6
NMSTR	56	336	6
NMSI_	56	336	6	96	48	2
NMSTR	57	48	1
NMSI_	57	48	1	96	48	5
NMTAP	57	48	6
NMTAP	57	144	1
NMSTR	57	144	7
NMSI_	57	144	7	96	48	3
NMTAP	57	240	0
NMTAP	57	288	0
NMTAP	58	0	7
NMSTR	58	48	7
NMSCL	58	48	7	96	48	4
NMSCR	58	48	7	96	48	2
NMTAP	58	144	7
EXSTR	58	240	2
NMSI_	58	240	2	96	48	6
EXTAP	58	240	4
NMHLD	58	336	7	192
BRTAP	59	48	5
BRTAP	59	96	3
BRTAP	59	144	1
NMTAP	59	240	0
NMTAP	59	240	4
NMTAP	59	288	0
NMTAP	59	288	4
NMTAP	60	0	3
NMTAP	60	0	5
NMTAP	60	48	6
NMTAP	60	72	6
NMTAP	60	96	4
NMTAP	60	144	1
NMTAP	60	168	1
NMTAP	60	192	3
NMTAP	60	240	6
NMTAP	60	264	6
NMTAP	60	288	7
NMTAP	60	336	1
NMTAP	60	360	1
NMTAP	61	0	0
NMTAP	61	48	6
NMTAP	61	72	6
NMTAP	61	96	4
NMTAP	61	144	1
NMTAP	61	168	1
NMSTR	61	192	3
NMSI_	61	192	3	96	48	0
NMSI_	61	192	3	96	48	6
BXTAP	61	288	3
NMHLD	62	0	7	96
NMSTR	62	144	1
NMSI_	62	144	1	96	48	6
NMSTR	62	144	5
NMSI_	62	144	5	96	48	2
NMTAP	62	240	1
NMTAP	62	240	5
NMSTR	62	336	0
NMSCR	62	336	0	96	72	3
NMTAP	63	48	4
NMTAP	63	72	5
NMTAP	63	96	6
NMTAP	63	120	7
NMTAP	63	144	0
NMTAP	63	168	1
NMTAP	63	192	2
NMTAP	63	216	3
NMTAP	63	240	4
NMTAP	63	264	5
BXTAP	63	288	0
BXTAP	63	288	6
NMTAP	64	0	1
NMTAP	64	0	3
NMTAP	64	48	2
NMTAP	64	96	4
NMTAP	64	96	6
NMTAP	64	144	5
NMTAP	64	192	2
NMTAP	64	192	4
NMTAP	64	240	2
NMSTR	64	240	4
NMSCR	64	240	4	96	144	2
BXHLD	64	336	0	240
NMTAP	65	192	3
NMTAP	65	240	3
NMTAP	65	288	1
NMTAP	65	288	4
NMTAP	65	336	1
NMTAP	65	336	4
NMTAP	66	48	3
NMTAP	66	48	6
NMSTR	66	96	3
NMSI_	66	96	3	96	48	7
NMTAP	66	96	6
NMSTR	66	192	5
NMSI_	66	192	5	96	48	2
NMTAP	66	288	0
NMSTR	66	336	0
NMSI_	66	336	0	96	48	4
NMTAP	67	48	4
NMSTR	67	96	5
NMSLL	67	96	5	96	96	7
NMTAP	67	192	3
NMTAP	67	240	2
NMTAP	67	288	1
NMHLD	67	336	0	96
NMTAP	68	48	7
NMHLD	68	96	6	96
NMTAP	68	144	7
NMHLD	68	192	1	96
NMTAP	68	240	7
NMHLD	68	288	5	96
NMTAP	68	336	7
BRTAP	69	0	0
NMTAP	69	96	1
NMTAP	69	120	0
NMTAP	69	144	1
NMTAP	69	168	0
NMTAP	69	192	2
NMTAP	69	216	7
NMTAP	69	240	2
NMTAP	69	264	7
NMTAP	69	288	3
NMTAP	69	312	6
NMTAP	69	336	3
NMTAP	69	360	6
NMSTR	70	0	4
NMSI_	70	0	4	96	48	1
NMTAP	70	24	5
NMTAP	70	48	4
NMTAP	70	72	5
NMSTR	70	96	4
NMSI_	70	96	4	96	48	7
NMSTR	70	192	4
NMSI_	70	192	4	96	48	0
NMTTP	71	0	6	A	0	M1
NMTTP	71	24	6	E	0	M1
NMTTP	71	48	5	E	0	M1
NMTTP	71	72	4	A	0	M1
NMTTP	71	96	0	A	0	M1
NMTTP	71	120	1	E	0	M1
NMTTP	71	144	2	E	0	M1
NMTTP	71	168	2	A	0	M1
NMTTP	71	192	7	A	0	M1
NMTTP	71	216	7	E	0	M1
NMTTP	71	240	6	E	0	M1
NMTTP	71	264	5	A	0	M1
NMTTP	71	288	1	A	0	M1
NMTTP	71	312	2	E	0	M1
NMTTP	71	336	3	E	0	M1
NMTTP	71	360	3	A	0	M1
NMTTP	72	0	4	A	0	M1
NMTTP	72	24	5	E	0	M1
NMTTP	72	48	6	E	0	M1
NMTTP	72	72	6	A	0	M1
NMTTP	72	96	2	A	0	M1
NMTTP	72	120	2	E	0	M1
NMTTP	72	144	1	E	0	M1
NMTTP	72	168	0	A	0	M1
NMTTP	72	192	5	A	0	M1
NMTTP	72	216	6	E	0	M1
NMTTP	72	240	7	E	0	M1
NMTTP	72	264	7	A	0	M1
NMTTP	72	288	3	A	0	M1
NMTTP	72	312	3	E	0	M1
NMTTP	72	336	2	E	0	M1
NMTTP	72	360	1	A	0	M1
NMSTR	73	0	6
NMSI_	73	0	6	96	48	2
NMTAP	73	96	1
NMTAP	73	96	6
NMSTR	73	144	0
NMSI_	73	144	0	96	48	4
NMTAP	73	240	0
NMSTR	73	240	5
NMSI_	73	240	5	96	48	2
NMSTR	73	336	1
NMSI_	73	336	1	96	48	6
NMTAP	73	336	5
NMTAP	74	48	1
NMSTR	74	48	7
NMSCL	74	48	7	96	144	1
NMTAP	74	144	0
NMTAP	74	192	0
NMHLD	75	0	4	48
NMHLD	75	0	6	48
NMHLD	75	96	4	48
NMHLD	75	96	6	48
NMHLD	75	192	1	48
NMHLD	75	192	3	48
NMHLD	75	288	1	48
NMHLD	75	288	3	48
NMHLD	76	0	4	48
NMHLD	76	0	6	48
NMHLD	76	96	4	48
NMHLD	76	96	5	48
NMHLD	76	192	1	48
NMHLD	76	192	3	48
NMHLD	76	288	2	48
NMHLD	76	288	3	48
NMHLD	77	0	4	48
NMHLD	77	0	6	48
NMHLD	77	96	6	48
NMHLD	77	96	7	48
NMTAP	77	192	0
NMTAP	77	216	1
NMTAP	77	240	2
NMTAP	77	264	3
NMTAP	77	288	4
NMTAP	77	312	5
NMTAP	77	336	6
NMTAP	77	360	7
EXTAP	78	0	0
EXTAP	78	48	0
NMTAP	78	144	6
NMTAP	78	144	7
NMTAP	78	192	0
NMTAP	78	216	7
NMTAP	78	240	6
NMTAP	78	264	5
NMTAP	78	288	4
NMTAP	78	312	3
NMTAP	78	336	2
NMTAP	78	360	1
EXHLD	79	0	0	48
NMHLD	79	96	1	48
NMHLD	79	96	3	48
NMHLD	79	192	4	48
NMHLD	79	192	6	48
NMHLD	79	288	6	48
NMHLD	79	288	7	48
NMHLD	80	0	1	48
NMHLD	80	0	3	48
NMHLD	80	96	2	48
NMHLD	80	96	3	48
NMHLD	80	192	4	48
NMHLD	80	192	6	48
NMTAP	80	288	4
NMTAP	80	288	5
NMTAP	81	0	3
NMTAP	81	0	7
NMTAP	81	48	3
NMTAP	81	48	7
NMTAP	81	96	6
NMTAP	81	120	4
NMTAP	81	144	5
EXTAP	81	192	1
NMTAP	81	216	3
NMTAP	81	240	1
NMTAP	81	264	3
NMTAP	81	288	1
NMTAP	81	312	3
NMTAP	81	336	1
NMTAP	81	360	3
EXTAP	82	0	2
NMTAP	82	24	4
NMTAP	82	48	2
NMTAP	82	72	4
NMTAP	82	96	2
NMTAP	82	120	4
NMTAP	82	144	2
NMTAP	82	168	4
EXTAP	82	192	3
NMTAP	82	216	5
NMTAP	82	240	3
NMTAP	82	264	5
NMTAP	82	288	3
NMTAP	83	0	4
NMTAP	83	0	5
NMTAP	83	48	6
NMTAP	83	72	7
NMTAP	83	96	6
NMTAP	83	144	1
NMTAP	83	168	0
NMTAP	83	192	1
NMTAP	83	240	6
NMTAP	83	264	7
NMSTR	83	288	6
NMSI_	83	288	6	96	48	2
BRTAP	84	0	0
BRTAP	84	0	6
NMSTR	84	192	0
NMSI_	84	192	0	96	48	3
NMSTR	84	192	7
NMSI_	84	192	7	96	48	4
NMSTR	84	288	0
NMSCR	84	288	0	96	192	7
NMTAP	84	288	7
BRTAP	85	0	0
BRTAP	85	0	7
BXTAP	85	288	0
BXTAP	85	288	7
BXTAP	85	336	0
BXTAP	85	336	7
NMTAP	86	48	1
NMTAP	86	72	3
NMTAP	86	96	2
NMTAP	86	144	5
NMSTR	86	192	3
NMSI_	86	192	3	96	48	7
NMSTR	86	192	4
NMSI_	86	192	4	96	48	0
NMTAP	86	240	2
NMTAP	86	240	5
BXTAP	86	288	3
BXTAP	86	288	4
EXSTR	87	0	1
NMSI_	87	0	1	96	48	4
NMTAP	87	96	1
NMSTR	87	96	6
NMSI_	87	96	6	96	48	3
NMTAP	87	192	0
NMTAP	87	192	6
NMTAP	87	288	2
NMTAP	87	336	2
NMSTR	88	48	1
NMSCR	88	48	1	96	48	5
NMTAP	88	48	5
NMTAP	88	144	7
NMTAP	88	192	7
NMSTR	88	288	4
BRSLL	88	288	4	96	96	0
NMSTR	88	288	5
BRSUL	88	288	5	96	96	7
NMTAP	89	192	7
NMTAP	89	240	7
NMTAP	89	288	0
NMHLD	89	336	1	96
NMTAP	89	336	3
NMTAP	90	48	0
BRSTR	90	96	0
NMSI_	90	96	0	96	48	6
BRSTR	90	96	1
NMSI_	90	96	1	96	48	3
BRSTR	90	192	0
NMSI_	90	192	0	96	48	4
BRSTR	90	192	1
NMSI_	90	192	1	96	48	5
BRTAP	90	288	0
BRTAP	90	288	1
NMTAP	91	0	3
NMTAP	91	0	6
NMSTR	91	48	7
BRSI_	91	48	7	96	48	3
NMTAP	91	72	4
NMTAP	91	96	7
NMTAP	91	120	4
BRTAP	91	144	7
NMSTR	91	240	1
BRSCL	91	240	1	96	48	6
NMTAP	91	264	3
NMTAP	91	288	1
NMTAP	91	312	3
BRTAP	91	336	1
NMSTR	92	48	4
BRSI_	92	48	4	96	48	1
BRSI_	92	48	4	96	48	7
NMTAP	92	72	3
NMTAP	92	96	4
NMTAP	92	120	3
BRTAP	92	144	4
NMTAP	92	240	0
BRSTR	92	288	1
NMSCL	92	288	1	96	48	6
BRTAP	92	288	3
NMTAP	93	0	4
NMSTR	93	96	5
NMSCL	93	96	5	96	48	2
NMTAP	93	192	0
NMTAP	93	288	1
NMSTR	93	336	1
NMSI_	93	336	1	96	48	5
NMTAP	94	48	1
NMSTR	94	48	4
NMSI_	94	48	4	96	48	7
NMSTR	94	144	0
NMSUR	94	144	0	96	48	4
NMTAP	94	144	4
NMTAP	94	240	6
NMTAP	94	288	6
NMTAP	95	0	4
NMSTR	95	48	4
NMSV_	95	48	4	96	48	1
NMSV_	95	48	4	96	48	7
NMTAP	95	144	4
EXTAP	95	240	2
NMSTR	95	240	6
NMSI_	95	240	6	96	48	2
NMHLD	95	336	3	192
BRTAP	96	48	1
BRTAP	96	96	7
BRTAP	96	144	5
EXTAP	96	240	2
EXTAP	96	240	6
EXTAP	96	288	2
EXTAP	96	288	6
NMTAP	97	0	3
NMTAP	97	0	5
NMTAP	97	48	2
NMTAP	97	72	2
NMTAP	97	96	3
NMTAP	97	144	2
NMTAP	97	168	2
NMTAP	97	192	1
NMTAP	97	240	2
NMTAP	97	264	2
NMTAP	97	288	0
NMTAP	97	336	2
NMTAP	97	360	2
NMTAP	98	0	7
NMTAP	98	48	2
NMTAP	98	72	2
NMTAP	98	96	5
NMTAP	98	144	2
NMTAP	98	168	2
NMSTR	98	192	4
NMSI_	98	192	4	96	48	1
NMSI_	98	192	4	96	48	7
BXTAP	98	288	4
NMHLD	99	0	0	96
NMSTR	99	144	2
NMSI_	99	144	2	96	48	5
NMSTR	99	144	6
NMSI_	99	144	6	96	48	1
NMTAP	99	240	2
NMTAP	99	240	6
NMSTR	99	336	3
NMSCL	99	336	3	96	72	0
NMTAP	100	48	7
NMTAP	100	72	6
NMTAP	100	96	5
NMTAP	100	120	4
NMTAP	100	144	3
NMTAP	100	168	2
NMTAP	100	192	1
NMTAP	100	216	0
NMTAP	100	240	7
NMTAP	100	264	6
BXTAP	100	288	3
BXTAP	100	288	5
NMTAP	101	0	1
NMTAP	101	0	3
NMTAP	101	48	0
NMTAP	101	96	4
NMTAP	101	96	6
NMTAP	101	144	7
NMTAP	101	192	0
NMTAP	101	192	6
NMSTR	101	240	0
BRSI_	101	240	0	96	48	4
NMTAP	101	240	6
BRTAP	101	336	0
NMTAP	101	336	5
NMTAP	102	48	6
NMTAP	102	72	6
NMTAP	102	96	7
NMTAP	102	144	0
NMTAP	102	144	5
NMTAP	102	192	1
NMTAP	102	192	4
NMTAP	102	240	2
NMTAP	102	240	3
NMTAP	102	288	2
NMTAP	102	288	3
NMTAP	102	336	1
NMTAP	102	360	1
NMTAP	103	0	0
NMTAP	103	48	2
NMTAP	103	48	7
NMTAP	103	96	3
NMTAP	103	96	6
NMTAP	103	144	3
NMTAP	103	144	6
NMTAP	103	192	5
NMTAP	103	216	4
NMSTR	103	240	6
NMSI_	103	240	6	96	48	2
NMTAP	103	264	4
NMTAP	103	288	6
NMTAP	103	312	4
NMTAP	103	336	6
NMTAP	104	48	1
NMTAP	104	48	3
NMTAP	104	96	1
NMTAP	104	96	3
NMTAP	104	144	0
NMTAP	104	192	6
NMTAP	104	192	7
NMTAP	104	240	5
NMTAP	104	288	2
NMTAP	104	288	4
NMTAP	104	336	2
NMTAP	104	336	4
NMTTP	105	0	1	A	0	M1
NMTTP	105	24	2	E	0	M1
NMTTP	105	48	3	E	0	M1
NMTTP	105	72	3	A	0	M1
NMTTP	105	96	4	A	0	M1
NMTTP	105	120	5	E	0	M1
NMTTP	105	144	6	E	0	M1
NMTAP	105	192	7
NMSTR	105	240	7
NMSI_	105	240	7	96	48	3
NMTAP	105	288	0
NMTAP	105	288	6
BRTAP	105	336	7
NMTAP	106	48	1
NMTAP	106	72	1
NMTAP	106	96	0
NMTAP	106	144	2
NMTAP	106	144	7
NMTAP	106	192	3
NMTAP	106	192	6
NMTAP	106	240	4
NMTAP	106	240	5
NMTAP	106	288	4
NMTAP	106	288	5
NMTAP	107	0	5
NMTAP	107	24	3
NMTAP	107	48	5
NMTAP	107	72	3
NMTAP	107	96	4
NMTAP	107	120	2
NMTAP	107	144	4
NMTAP	107	168	2
NMTAP	107	192	3
NMSTR	107	240	0
NMSI_	107	240	0	96	48	4
NMTAP	107	288	7
BRTAP	107	336	0
BRTAP	107	336	6
NMTAP	108	48	3
NMTAP	108	48	5
NMTAP	108	96	3
NMTAP	108	96	5
NMTAP	108	144	6
NMSTR	108	192	7
NMSI_	108	192	7	96	48	3
NMTAP	108	240	7
NMTAP	108	288	3
NMTAP	108	336	2
NMSTR	109	0	1
NMSI_	109	0	1	96	48	5
NMTAP	109	48	1
NMTAP	109	96	5
NMTAP	109	144	6
NMSTR	109	192	7
NMSI_	109	192	7	96	48	3
NMTAP	109	240	7
NMTAP	109	288	3
NMTAP	109	336	2
NMSTR	110	0	1
NMSCL	110	0	1	96	48	6
NMTAP	110	96	4
NMSTR	110	144	5
NMSCL	110	144	5	96	48	2
NMTAP	110	240	2
NMHLD	110	288	1	144
NMTAP	111	48	3
NMTAP	111	96	0
NMTAP	111	96	4
NMTAP	111	144	0
NMTAP	111	144	4
NMTAP	111	192	1
NMTAP	111	216	3
NMSTR	111	240	2
NMSCL	111	240	2	96	96	5
NMTAP	111	264	4
NMTAP	111	288	3
NMTAP	111	312	5
BRTAP	111	336	2
NMSTR	112	48	4
NMSCR	112	48	4	96	96	1
BRTAP	112	144	2
BRTAP	112	144	4
NMSTR	112	240	3
NMSI_	112	240	3	96	48	7
BRTAP	112	336	3
BRTAP	112	336	5
NMTAP	113	48	0
NMTAP	113	72	5
NMSTR	113	96	1
NMSCL	113	96	1	96	288	3
NMTAP	113	120	6
NMTAP	113	144	2
NMTAP	113	168	7
BRTAP	113	192	4

T_REC_TAP	559
T_REC_BRK	48
T_REC_XTP	28
T_REC_BXX	13
T_REC_HLD	54
T_REC_XHO	1
T_REC_BHO	0
T_REC_BXH	2
T_REC_STR	123
T_REC_BST	10
T_REC_XST	4
T_REC_XBS	2
T_REC_TTP	57
T_REC_THO	0
T_REC_SLD	127
T_REC_BSL	21
T_REC_ALL	1049
T_NUM_TAP	771
T_NUM_BRK	96
T_NUM_HLD	55
T_NUM_SLD	127
T_NUM_ALL	1049
T_JUDGE_TAP	844
T_JUDGE_HLD	104
T_JUDGE_SLD	148
T_JUDGE_ALL	1096
TTM_EACHPAIRS	178
TTM_SCR_TAP	385500
TTM_SCR_BRK	249600
TTM_SCR_HLD	55000
TTM_SCR_SLD	190500
TTM_SCR_ALL	880600
TTM_SCR_S	844900
TTM_SCR_SS	871000
TTM_RAT_ACV	10110

