VERSION	0.00.00	1.04.00
FES_MODE	0
BPM_DEF	188.000	188.000	188.000	188.000
MET_DEF	4	4
RESOLUTION	384
CLK_DEF	384
COMPATIBLE_CODE	MA2

BPM	0	0	188.000
MET	0	0	4	4

NMSTR	2	0	3
NMSXR	2	0	3	96	1248	0
NMSTR	2	0	4
NMSXL	2	0	4	96	1248	7
NMTAP	5	288	2
NMTAP	5	288	5
NMTAP	6	0	3
NMTAP	6	0	4
NMTAP	6	96	1
NMTAP	6	192	3
NMTAP	6	192	4
NMTAP	6	288	6
NMTAP	7	0	3
NMTAP	7	0	4
NMTAP	7	96	1
NMTAP	7	96	3
NMTAP	7	192	3
NMTAP	7	192	4
NMTAP	7	288	4
NMTAP	7	288	6
NMTAP	7	336	4
NMTAP	7	336	6
NMTAP	8	48	0
NMTAP	8	48	7
NMTAP	8	96	0
NMTAP	8	96	7
NMTAP	8	192	1
NMTAP	8	192	3
NMTAP	8	240	1
NMTAP	8	240	3
NMTTP	8	336	0	C	1	M1
NMTTP	8	336	2	B	0	M1
NMTTP	8	336	2	E	0	M1
NMTTP	8	336	6	B	0	M1
NMTTP	8	336	6	E	0	M1
EXHLD	9	336	0	144
NMTAP	10	48	7
NMTAP	10	96	7
NMTAP	10	192	1
NMTAP	10	288	2
NMTAP	10	288	3
NMTAP	11	0	5
NMTAP	11	96	4
NMTAP	11	96	6
NMTAP	11	192	0
NMTAP	11	240	0
NMTAP	11	288	7
EXHLD	11	336	1	144
NMTAP	12	48	3
NMTAP	12	96	3
NMTAP	12	192	4
NMTAP	12	288	3
NMTAP	12	288	4
NMTAP	13	0	5
NMTAP	13	96	4
NMTAP	13	96	5
NMTAP	13	192	3
NMTAP	13	192	6
NMTAP	13	240	3
NMTAP	13	240	6
EXHLD	13	336	7	144
NMTAP	14	48	0
NMTAP	14	96	0
NMTAP	14	192	6
NMTAP	14	288	4
NMTAP	14	288	5
NMTAP	15	0	2
NMTAP	15	96	1
NMTAP	15	96	3
NMTAP	15	192	7
NMTAP	15	240	7
NMTAP	15	288	0
EXHLD	15	336	6	144
NMTAP	16	48	4
NMTAP	16	96	4
NMTAP	16	192	3
NMTAP	16	288	3
NMTAP	16	288	4
NMTAP	17	0	2
NMTAP	17	96	2
NMTAP	17	96	3
NMSTR	17	192	1
NMSI_	17	192	1	96	48	4
EXTAP	18	0	6
EXTAP	18	0	7
NMTAP	18	96	3
NMTAP	18	96	4
EXTAP	18	144	3
EXTAP	18	144	4
NMTAP	18	240	0
NMTAP	18	240	1
EXTAP	18	288	0
EXTAP	18	288	1
EXTAP	19	48	7
EXTAP	19	96	7
EXTAP	19	144	7
EXTAP	19	192	7
EXTAP	19	240	7
EXTAP	19	288	7
EXSTR	19	336	7
NMSI_	19	336	7	96	48	3
EXHLD	20	96	2	192
NMTAP	20	288	3
NMSTR	20	336	1
NMSI_	20	336	1	96	48	4
NMTAP	20	336	4
EXHLD	21	96	5	192
NMTAP	21	288	4
NMTAP	21	336	3
NMSTR	21	336	6
NMSI_	21	336	6	96	48	2
EXHLD	22	96	1	192
NMTAP	22	288	0
NMTAP	22	336	2
NMTAP	22	336	7
NMTAP	23	96	6
NMTAP	23	96	7
NMTAP	23	192	0
NMTAP	23	192	1
NMTAP	23	288	0
NMTAP	23	288	7
NMSTR	23	336	0
NMSI_	23	336	0	96	48	4
NMTAP	23	336	7
EXHLD	24	96	5	192
NMTAP	24	288	4
NMTAP	24	336	3
NMSTR	24	336	6
NMSI_	24	336	6	96	48	3
EXHLD	25	96	2	192
NMTAP	25	288	3
NMSTR	25	336	1
NMSI_	25	336	1	96	48	5
NMTAP	25	336	4
EXHLD	26	96	6	192
NMTAP	26	288	7
NMTAP	26	336	0
NMTAP	26	336	5
NMTAP	27	96	0
NMTAP	27	96	1
NMTAP	27	192	6
NMTAP	27	192	7
BRTAP	27	288	3
BRTAP	27	288	4
NMTAP	28	0	2
NMTAP	28	96	1
NMTAP	28	96	3
NMTAP	28	192	0
NMTAP	28	240	0
NMTAP	28	288	7
NMTAP	29	0	5
NMTAP	29	96	4
NMTAP	29	96	6
NMTAP	29	192	7
NMTAP	29	240	7
NMTAP	29	288	0
NMTAP	30	0	2
NMTAP	30	0	3
NMTAP	30	96	4
NMTAP	30	96	5
NMTAP	30	192	6
NMTAP	30	192	7
NMTAP	30	288	0
NMSTR	30	288	1
NMSXL	30	288	1	96	192	4
EXTAP	31	192	5
EXTAP	31	288	6
EXTAP	31	288	7
NMTAP	32	0	5
NMTAP	32	96	4
NMTAP	32	96	6
NMTAP	32	192	7
NMTAP	32	240	7
NMTAP	32	288	0
NMTAP	33	0	2
NMTAP	33	96	1
NMTAP	33	96	3
NMTAP	33	192	0
NMTAP	33	240	0
NMTAP	33	288	7
NMTAP	34	0	4
NMTAP	34	0	5
NMTAP	34	96	2
NMTAP	34	96	3
NMTAP	34	192	0
NMTAP	34	192	1
NMSTR	34	288	6
NMSXR	34	288	6	96	192	3
NMTAP	34	288	7
EXTAP	35	192	2
EXTAP	35	288	0
EXTAP	35	288	1
NMHLD	36	0	2	288
NMTAP	36	96	3
NMTAP	36	192	3
NMTAP	36	288	3
NMHLD	37	0	5	288
NMTAP	37	96	4
NMTAP	37	192	4
NMTAP	37	288	4
NMTAP	38	0	3
NMTAP	38	0	4
NMTAP	38	48	3
NMTAP	38	48	4
NMTAP	38	144	0
NMSTR	38	144	1
NMSI_	38	144	1	96	48	4
NMSTR	38	336	6
NMSI_	38	336	6	96	48	3
NMTAP	38	336	7
NMSTR	39	144	0
NMSCR	39	144	0	96	48	3
NMSTR	39	144	7
NMSCL	39	144	7	96	48	4
NMHLD	40	0	5	288
NMTAP	40	96	4
NMTAP	40	192	4
NMTAP	40	288	3
NMHLD	41	0	2	288
NMTAP	41	96	3
NMTAP	41	192	3
NMTAP	41	288	4
NMTAP	42	0	4
NMTAP	42	0	6
NMTAP	42	96	7
NMTAP	42	192	5
NMTAP	42	240	5
NMTAP	42	288	4
NMTAP	43	0	1
NMTAP	43	0	3
NMTAP	43	96	0
NMTAP	43	192	2
NMTAP	43	240	2
NMTAP	43	288	3
NMHLD	44	0	4	96
NMTAP	44	0	7
NMTAP	44	96	5
NMTAP	44	192	3
NMTAP	44	240	3
NMTAP	44	288	4
NMTAP	45	0	0
NMHLD	45	0	3	96
NMTAP	45	96	2
NMTAP	45	192	4
NMTAP	45	240	4
NMTAP	45	288	3
EXTAP	46	48	2
EXTAP	46	48	5
EXTAP	46	96	2
EXTAP	46	96	5
EXTAP	46	192	2
EXTAP	46	192	5
EXTAP	46	288	2
EXTAP	46	288	5
EXTAP	46	336	2
EXTAP	46	336	5
EXTAP	47	48	2
EXTAP	47	48	5
EXTAP	47	96	2
EXTAP	47	96	5
BRTAP	48	0	0
BRTAP	48	0	7
NMTAP	48	96	4
NMTAP	48	96	6
NMTAP	48	192	2
NMTAP	48	192	3
NMSTR	48	240	2
NMSI_	48	240	2	96	48	7
NMSTR	48	240	3
NMSI_	48	240	3	96	48	6
NMHLD	49	96	0	96
NMHLD	49	192	2	96
NMHLD	49	288	4	96
NMTAP	50	0	6
NMTAP	50	96	5
NMTAP	50	96	7
NMTAP	50	192	1
NMTAP	50	288	0
NMTAP	50	288	2
NMTAP	51	0	7
NMSTR	51	96	0
NMSI_	51	96	0	96	48	4
NMSTR	51	96	7
NMSI_	51	96	7	96	48	3
NMHLD	52	0	5	96
NMTAP	52	96	4
NMTAP	52	192	2
NMTAP	52	192	3
NMTAP	52	288	1
NMTAP	52	336	1
NMTAP	53	48	7
NMHLD	53	96	7	96
NMHLD	53	192	5	96
NMHLD	53	288	3	96
NMTAP	54	0	1
NMTAP	54	96	0
NMTAP	54	96	2
NMTAP	54	192	6
NMTAP	54	192	7
NMSTR	54	240	6
NMSCL	54	240	6	96	192	0
NMTAP	54	240	7
EXTAP	55	192	6
EXTAP	55	192	7
EXTAP	55	288	0
EXTAP	55	288	1
BRTAP	56	0	0
BRTAP	56	0	7
NMTAP	56	96	4
NMTAP	56	96	6
NMTAP	56	192	2
NMTAP	56	240	2
NMTAP	56	288	3
NMTAP	57	0	0
NMTAP	57	0	7
NMTAP	57	96	1
NMTAP	57	96	3
NMTAP	57	192	5
NMTAP	57	240	5
NMTAP	57	288	4
NMTAP	58	0	3
NMTAP	58	0	6
NMTAP	58	96	1
NMTAP	58	96	4
NMTAP	58	192	0
NMTAP	58	192	7
NMTAP	58	240	0
NMTAP	58	240	7
BXSTR	58	336	6
NMSI_	58	336	6	96	48	2
BXSTR	59	48	1
NMSI_	59	48	1	96	48	5
BXTAP	59	144	7
EXTAP	59	288	3
EXTAP	59	288	4
EXTAP	60	0	5
NMTAP	60	48	5
EXTAP	60	96	4
NMTAP	60	144	4
EXTAP	60	192	6
NMTAP	60	240	6
EXTAP	60	288	0
NMTAP	60	336	0
EXTAP	61	0	7
NMTAP	61	48	7
EXTAP	61	96	1
NMTAP	61	144	1
EXTAP	61	192	3
NMTAP	61	240	3
EXTAP	61	288	2
NMTAP	62	0	3
NMTAP	62	0	4
NMTAP	62	48	3
NMTAP	62	48	4
NMHLD	62	144	6	96
NMTAP	62	240	7
NMHLD	62	336	1	96
NMTAP	63	48	0
NMTAP	63	144	3
NMTAP	63	144	4
NMTAP	63	240	1
NMTAP	63	240	6
NMTAP	63	288	1
NMTAP	63	288	6
NMSTR	64	0	0
NMSI_	64	0	0	96	48	5
NMSTR	64	0	7
NMSI_	64	0	7	96	48	2
EXTAP	64	192	3
EXTAP	64	192	4
EXTAP	64	240	3
EXTAP	64	240	4
BRTAP	64	336	1
BRTAP	64	336	6
NMTAP	65	48	2
NMTAP	65	96	2
EXTAP	65	96	3
NMTAP	65	192	5
NMTAP	65	240	5
NMTAP	65	288	4
NMTAP	65	336	6
NMTAP	66	48	2
NMTAP	66	96	2
EXTAP	66	96	3
NMTAP	66	192	1
NMTAP	66	240	1
NMTAP	66	288	7
NMTAP	66	336	0
NMTAP	67	48	5
EXTAP	67	96	4
NMTAP	67	96	5
NMTAP	67	192	2
NMTAP	67	240	2
NMTAP	67	288	3
NMTAP	67	336	1
NMTAP	68	48	5
EXTAP	68	96	4
NMTAP	68	96	5
NMTAP	68	192	0
NMTAP	68	240	0
EXTAP	68	288	1
EXTAP	68	288	7
NMTAP	69	0	4
NMTAP	69	0	5
EXTAP	69	96	1
NMTAP	69	96	3
NMTAP	69	192	7
NMTAP	69	240	7
EXTAP	69	288	0
EXTAP	69	288	6
NMTAP	70	0	2
NMTAP	70	0	3
NMTAP	70	96	4
EXTAP	70	96	6
NMTAP	70	192	0
NMTAP	70	192	7
NMTAP	70	240	0
NMTAP	70	240	7
EXTAP	70	288	1
EXTAP	70	288	6
NMHLD	71	0	3	96
NMHLD	71	96	2	96
NMHLD	71	192	1	96
NMHLD	71	288	0	96
NMHLD	72	0	7	96
NMHLD	72	96	6	96
NMHLD	72	192	5	96
NMHLD	72	288	4	96
NMSTR	73	0	3
NMSCL	73	0	3	96	48	0
NMTAP	73	96	6
NMSTR	73	192	7
NMSCL	73	192	7	96	48	4
NMTAP	73	288	0
NMSTR	74	0	1
NMSI_	74	0	1	96	48	5
NMTAP	74	96	7
BXTAP	74	192	0
BXTAP	74	192	6
NMTAP	75	0	1
NMTAP	75	96	1
NMTAP	75	192	2
NMTAP	75	192	3
NMTAP	75	288	2
NMTAP	75	288	3
NMTAP	76	0	4
NMTAP	76	96	4
NMTAP	76	192	3
NMTAP	76	192	5
NMTAP	76	288	3
NMTAP	76	288	5
NMTAP	77	0	6
NMTAP	77	96	6
NMTAP	77	192	4
NMTAP	77	192	5
NMTAP	77	288	4
NMTAP	77	288	5
NMTAP	78	0	3
NMTAP	78	96	3
NMTAP	78	192	2
NMTAP	78	192	4
NMTAP	78	288	2
NMTAP	78	288	4
NMTAP	79	0	1
NMTAP	79	96	2
NMTAP	79	192	3
NMTAP	79	192	4
NMTAP	79	288	4
NMTAP	79	288	5
NMTAP	80	0	6
NMTAP	80	96	5
NMTAP	80	192	3
NMTAP	80	192	4
NMTAP	80	288	2
NMTAP	80	288	3
NMHLD	81	0	1	96
NMTAP	81	96	3
NMTAP	81	192	4
NMTAP	81	240	4
NMTAP	81	288	3
NMHLD	82	0	6	96
NMTAP	82	96	4
NMTAP	82	192	3
NMTAP	82	240	3
NMTAP	82	288	4
NMHLD	83	0	0	96
NMTAP	83	96	7
NMTAP	83	192	1
NMTAP	83	192	6
NMTAP	83	240	1
NMTAP	83	240	6
NMTAP	83	288	2
NMTAP	83	288	5
NMTTP	84	0	0	C	1	M1
NMTTP	84	0	0	E	0	M1
NMTTP	84	0	3	B	0	M1
NMTTP	84	0	4	E	0	M1
NMTTP	84	0	7	B	0	M1
BRHLD	85	0	0	96
BRHLD	85	0	7	96
NMTAP	85	192	4
NMTAP	85	192	5
NMSTR	85	240	4
BRSI_	85	240	4	96	48	1
NMSTR	85	240	5
BRSI_	85	240	5	96	48	0
NMHLD	86	96	7	96
NMHLD	86	192	5	96
NMHLD	86	288	3	96
NMTAP	87	0	1
NMTAP	87	96	2
NMTAP	87	96	4
NMTAP	87	192	3
NMTAP	87	192	5
NMTAP	87	288	4
NMTAP	87	288	6
NMTAP	88	0	0
NMTAP	88	0	7
NMSTR	88	96	1
NMSI_	88	96	1	96	48	4
NMSTR	88	96	6
NMSI_	88	96	6	96	48	3
NMHLD	89	0	6	96
NMTAP	89	96	7
NMTAP	89	192	4
NMTAP	89	192	5
NMTAP	89	288	2
NMTAP	89	288	3
NMTAP	89	336	2
NMTAP	89	336	3
NMTAP	90	48	0
NMHLD	90	96	0	96
NMHLD	90	192	2	96
NMHLD	90	288	4	96
NMTAP	91	0	6
NMTAP	91	96	5
NMTAP	91	96	7
NMTAP	91	192	0
NMTAP	91	192	1
NMTAP	91	240	0
NMSTR	91	240	1
NMSCR	91	240	1	96	192	7
EXTAP	92	192	0
EXTAP	92	192	1
EXTAP	92	288	6
EXTAP	92	288	7
BRTAP	93	0	0
BRTAP	93	0	7
NMTAP	93	96	1
NMTAP	93	96	3
NMTAP	93	192	5
NMTAP	93	240	5
NMTAP	93	288	4
NMTAP	94	0	0
NMTAP	94	0	7
NMTAP	94	96	4
NMTAP	94	96	6
NMTAP	94	192	2
NMTAP	94	240	2
NMTAP	94	288	3
NMTAP	95	0	0
NMTAP	95	0	7
NMTAP	95	96	3
NMTAP	95	96	4
NMTAP	95	144	3
NMTAP	95	144	4
NMTAP	95	240	1
NMSTR	95	240	6
NMSI_	95	240	6	96	48	2
BXSTR	95	336	0
NMSCR	95	336	0	96	48	3
BXSTR	96	48	7
NMSCL	96	48	7	96	48	4
BXTAP	96	144	0
EXTAP	96	288	3
EXTAP	96	288	4
EXTAP	97	0	2
NMTAP	97	48	2
EXTAP	97	96	3
NMTAP	97	144	3
EXTAP	97	192	1
NMTAP	97	240	1
EXTAP	97	288	7
NMTAP	97	336	7
EXTAP	98	0	0
NMTAP	98	48	0
EXTAP	98	96	6
NMTAP	98	144	6
EXTAP	98	192	4
NMTAP	98	240	4
EXTAP	98	288	3
EXTAP	98	288	5
NMTAP	99	0	2
NMTAP	99	0	4
NMTAP	99	48	2
NMTAP	99	48	4
NMSTR	99	144	6
NMSI_	99	144	6	96	48	3
NMTAP	99	144	7
NMTAP	99	336	0
NMSTR	99	336	1
NMSI_	99	336	1	96	48	4
NMTAP	100	144	6
NMTAP	100	144	7
NMTAP	100	240	3
NMTAP	100	240	4
NMTAP	100	288	3
NMTAP	100	288	4
NMSTR	101	0	1
NMSCR	101	0	1	96	48	3
NMSTR	101	0	6
NMSCL	101	0	6	96	48	4
EXTAP	101	192	0
EXTAP	101	192	7
EXTAP	101	240	0
EXTAP	101	240	7
BRHLD	101	336	1	768
BRHLD	101	336	6	768
EXTAP	104	96	3
EXTAP	104	96	4
NMTAP	104	192	2
NMTAP	104	240	2
NMTAP	104	288	1
NMTAP	104	288	3
NMTAP	105	0	0
NMTAP	105	48	0
NMTAP	105	96	1
NMTAP	105	96	7
NMTAP	105	192	5
NMTAP	105	240	5
NMTAP	105	288	4
EXTAP	105	336	3
EXTAP	105	336	6
NMTAP	106	48	0
NMTAP	106	96	0
NMTAP	106	192	6
NMTAP	106	192	7
NMTAP	106	288	4
NMTAP	106	288	5
NMTAP	107	0	2
NMTAP	107	0	3
NMTAP	107	96	0
NMTAP	107	96	1
NMTAP	107	192	2
NMTAP	107	240	2
NMTAP	107	288	3
EXTAP	107	336	1
EXSTR	107	336	4
NMSI_	107	336	4	96	48	7
NMTAP	108	144	0
NMTAP	108	192	0
NMTAP	108	288	4
NMTAP	108	288	6
NMTAP	108	336	7
NMTAP	109	0	7
NMTAP	109	96	1
NMTAP	109	96	3
NMTAP	109	144	0
NMSTR	109	192	0
NMSI_	109	192	0	96	48	3
NMHLD	110	0	4	96
NMHLD	110	0	5	96
NMHLD	110	144	2	96
NMHLD	110	144	3	96
NMHLD	110	288	3	96
NMHLD	110	288	4	96
EXTAP	111	48	2
EXTAP	111	48	5
EXTAP	111	96	2
EXTAP	111	96	5
EXTAP	111	144	2
EXTAP	111	144	5
EXTAP	111	192	2
EXTAP	111	192	5
EXTAP	111	240	3
EXTAP	111	240	4
NMSTR	111	336	6
NMSI_	111	336	6	96	48	3
NMSTR	111	336	7
NMSI_	111	336	7	96	48	2
NMSTR	112	144	0
NMSI_	112	144	0	96	48	5
NMSTR	112	144	1
NMSI_	112	144	1	96	48	4
NMTAP	112	336	6
NMTAP	112	336	7
NMTAP	113	48	0
NMTAP	113	48	7
NMTAP	113	96	1
NMTAP	113	96	6
NMTAP	113	144	2
NMTAP	113	144	5
EXHLD	113	192	3	336
EXHLD	113	192	4	336

T_REC_TAP	429
T_REC_BRK	10
T_REC_XTP	96
T_REC_BXX	4
T_REC_HLD	39
T_REC_XHO	12
T_REC_BHO	4
T_REC_BXH	0
T_REC_STR	39
T_REC_BST	0
T_REC_XST	2
T_REC_XBS	4
T_REC_TTP	10
T_REC_THO	0
T_REC_SLD	43
T_REC_BSL	2
T_REC_ALL	694
T_NUM_TAP	576
T_NUM_BRK	24
T_NUM_HLD	51
T_NUM_SLD	43
T_NUM_ALL	694
T_JUDGE_TAP	594
T_JUDGE_HLD	180
T_JUDGE_SLD	45
T_JUDGE_ALL	819
TTM_EACHPAIRS	194
TTM_SCR_TAP	288000
TTM_SCR_BRK	62400
TTM_SCR_HLD	51000
TTM_SCR_SLD	64500
TTM_SCR_ALL	465900
TTM_SCR_S	449600
TTM_SCR_SS	463500
TTM_RAT_ACV	10051

