VERSION	0.00.00	1.04.00
FES_MODE	0
BPM_DEF	188.000	188.000	188.000	188.000
MET_DEF	4	4
RESOLUTION	384
CLK_DEF	384
COMPATIBLE_CODE	MA2

BPM	0	0	188.000
MET	0	0	4	4

NMTAP	2	0	2
NMTAP	2	192	2
NMTAP	3	0	1
NMTAP	3	192	1
NMTAP	4	0	0
NMTAP	4	192	0
NMTAP	5	0	6
NMTAP	5	0	7
NMTAP	6	0	5
NMTAP	6	192	5
NMTAP	7	0	6
NMTAP	7	192	6
NMTAP	8	0	7
NMTAP	8	192	7
EXTAP	9	0	0
EXTAP	9	0	1
NMTAP	10	0	1
NMTAP	10	96	1
NMTAP	10	192	1
NMTAP	11	0	2
NMTAP	11	96	2
NMTAP	11	192	2
NMTAP	12	0	3
NMTAP	12	96	3
NMTAP	12	192	3
NMTAP	13	0	4
NMTAP	13	0	5
NMTAP	14	0	6
NMTAP	14	96	6
NMTAP	14	192	6
NMTAP	15	0	5
NMTAP	15	96	5
NMTAP	15	192	5
NMTAP	16	0	4
NMTAP	16	96	4
NMTAP	16	192	4
NMTAP	17	0	2
NMTAP	17	0	3
NMHLD	18	0	3	576
NMHLD	18	0	4	576
NMHLD	20	0	2	192
NMHLD	20	192	3	192
NMHLD	21	0	4	192
NMTAP	21	192	5
NMHLD	22	0	5	192
NMHLD	22	192	4	192
NMHLD	23	0	3	192
NMTAP	23	192	2
NMHLD	24	0	1	192
NMHLD	24	192	2	192
NMHLD	25	0	3	192
NMTAP	25	192	4
NMHLD	26	0	6	192
NMHLD	26	192	5	192
NMHLD	27	0	4	192
NMTAP	27	192	3
NMTAP	28	0	2
NMTAP	28	96	2
NMTAP	28	192	2
NMTAP	28	192	3
NMTAP	29	0	1
NMTAP	29	96	1
NMTAP	29	192	0
NMTAP	29	192	1
NMTAP	30	0	7
NMTAP	30	96	7
NMTAP	30	192	6
NMTAP	30	192	7
NMTAP	31	0	4
NMTAP	31	0	5
NMTAP	31	96	4
NMTAP	31	96	5
NMTAP	31	192	4
NMTAP	31	192	5
NMTAP	32	0	5
NMTAP	32	96	5
NMTAP	32	192	4
NMTAP	32	192	5
NMTAP	33	0	6
NMTAP	33	96	6
NMTAP	33	192	6
NMTAP	33	192	7
NMTAP	34	0	0
NMTAP	34	96	0
NMTAP	34	192	0
NMTAP	34	192	1
NMTAP	35	0	2
NMTAP	35	0	3
NMTAP	35	96	2
NMTAP	35	96	3
NMTAP	35	192	2
NMTAP	35	192	3
NMSTR	36	0	1
NMSI_	36	0	1	96	192	5
NMSTR	37	0	6
NMSI_	37	0	6	96	192	3
NMSTR	38	0	2
NMSI_	38	0	2	96	192	5
NMTAP	39	0	6
NMTAP	39	96	6
NMTAP	39	192	6
NMTAP	39	192	7
NMSTR	40	0	6
NMSI_	40	0	6	96	192	2
NMSTR	41	0	1
NMSI_	41	0	1	96	192	4
NMSTR	42	0	5
NMSI_	42	0	5	96	192	2
NMTAP	43	0	1
NMTAP	43	96	1
NMTAP	43	192	0
NMTAP	43	192	1
NMTAP	44	0	2
NMTAP	44	0	3
NMTAP	44	96	2
NMTAP	44	96	3
NMTAP	44	192	2
NMTAP	44	192	3
NMTAP	45	0	4
NMTAP	45	0	5
NMTAP	45	96	4
NMTAP	45	96	5
NMTAP	45	192	4
NMTAP	45	192	5
NMHLD	46	0	3	480
NMHLD	46	0	4	480
NMTAP	48	0	5
NMTAP	48	96	5
NMTAP	48	192	6
NMTAP	48	288	6
NMTAP	49	0	7
NMTAP	49	96	7
NMTAP	49	192	0
NMTAP	49	192	1
NMTAP	50	0	2
NMTAP	50	96	2
NMTAP	50	192	1
NMTAP	50	288	1
NMTAP	51	0	0
NMTAP	51	96	0
NMTAP	51	192	6
NMTAP	51	192	7
NMTAP	52	0	6
NMTAP	52	96	6
NMTAP	52	192	5
NMTAP	52	288	5
NMTAP	53	0	4
NMTAP	53	96	4
NMTAP	53	192	2
NMTAP	53	192	3
NMTAP	54	0	1
NMTAP	54	96	1
NMTAP	54	192	2
NMTAP	54	288	2
BRTAP	55	0	3
BRTAP	55	0	4
NMTAP	56	0	5
NMTAP	56	96	5
NMTAP	56	192	6
NMTAP	56	192	7
NMTAP	56	288	6
NMTAP	56	288	7
NMTAP	57	0	0
NMTAP	57	96	0
NMTAP	57	192	0
NMTAP	57	192	1
NMTAP	58	0	2
NMTAP	58	96	2
NMTAP	58	192	0
NMTAP	58	192	1
NMTAP	58	288	0
NMTAP	58	288	1
NMTAP	59	0	7
NMTAP	59	96	7
NMTAP	59	192	6
NMTAP	59	192	7
NMTAP	60	0	6
NMTAP	60	96	6
NMTAP	60	192	4
NMTAP	60	192	5
NMTAP	60	288	4
NMTAP	60	288	5
NMTAP	61	0	3
NMTAP	61	96	3
NMTAP	61	192	2
NMTAP	61	192	3
NMTAP	62	0	1
NMTAP	62	96	1
NMTAP	62	192	2
NMTAP	62	192	3
NMTAP	62	288	2
NMTAP	62	288	3
NMTAP	63	0	4
NMTAP	63	96	4
NMTAP	63	192	4
NMTAP	63	192	5
NMTAP	64	0	3
NMTAP	64	0	4
NMTAP	64	96	3
NMTAP	64	96	4
BRTAP	64	192	2
BRTAP	64	192	5
NMTTP	65	0	1	B	0	L1
NMTTP	65	96	2	B	0	L1
NMTTP	65	192	3	B	0	L1
NMTTP	66	0	6	B	0	L1
NMTTP	66	96	5	B	0	L1
NMTTP	66	192	4	B	0	L1
NMTTP	67	0	0	B	0	L1
NMTTP	67	96	1	B	0	L1
NMTTP	67	192	2	B	0	L1
NMTTP	67	192	3	B	0	L1
NMTTP	68	0	7	B	0	L1
NMTTP	68	96	6	B	0	L1
NMTTP	68	192	4	B	0	L1
NMTTP	68	192	5	B	0	L1
NMTTP	69	0	1	B	0	L1
NMTTP	69	96	2	B	0	L1
NMTTP	69	192	3	B	0	L1
NMTTP	69	288	4	B	0	L1
NMTTP	70	0	5	B	0	L1
NMTTP	70	96	6	B	0	L1
NMTTP	70	192	0	B	0	L1
NMTTP	70	192	7	B	0	L1
NMTTP	71	0	2	B	0	L1
NMTTP	71	96	1	B	0	L1
NMTTP	71	192	0	B	0	L1
NMTTP	71	288	7	B	0	L1
NMTTP	72	0	6	B	0	L1
NMTTP	72	96	5	B	0	L1
NMTTP	72	192	3	B	0	L1
NMTTP	72	192	4	B	0	L1
NMTHO	73	0	0	384	C	1	L1
NMTAP	75	0	1
NMTAP	75	96	1
NMTAP	75	192	1
NMTAP	75	288	1
NMTAP	76	0	2
NMTAP	76	96	2
NMTAP	76	192	2
NMTAP	76	288	2
NMTAP	77	0	3
NMTAP	77	96	3
NMTAP	77	192	3
NMTAP	77	288	3
NMTAP	78	0	4
NMTAP	78	96	4
NMTAP	78	192	4
NMTAP	78	192	5
NMTAP	79	0	6
NMTAP	79	96	6
NMTAP	79	192	6
NMTAP	79	288	6
NMTAP	80	0	5
NMTAP	80	96	5
NMTAP	80	192	5
NMTAP	80	288	5
NMTAP	81	0	4
NMTAP	81	96	4
NMTAP	81	192	4
NMTAP	81	288	4
NMTAP	82	0	3
NMTAP	82	96	3
NMTAP	82	192	2
NMTAP	82	192	3
NMHLD	83	0	3	384
NMHLD	83	0	4	384
NMTAP	85	0	3
NMTAP	85	96	2
NMTAP	85	192	1
NMTAP	85	288	0
NMTAP	86	0	7
NMTAP	86	96	6
NMTAP	86	192	4
NMTAP	86	192	5
NMTAP	87	0	4
NMTAP	87	96	5
NMTAP	87	192	6
NMTAP	87	288	7
NMTAP	88	0	0
NMTAP	88	96	1
NMTAP	88	192	2
NMTAP	88	192	3
NMTAP	89	0	1
NMTAP	89	96	2
NMTAP	89	192	3
NMTAP	89	288	4
NMTAP	90	0	5
NMTAP	90	96	6
NMTAP	90	192	0
NMTAP	90	192	7
NMTAP	91	0	1
NMTAP	91	0	6
NMTAP	91	96	1
NMTAP	91	96	6
NMTAP	91	192	2
NMTAP	91	192	5
NMTAP	91	288	2
NMTAP	91	288	5
BRTAP	92	0	3
BRTAP	92	0	4
NMTAP	93	0	2
NMTAP	93	48	2
NMTAP	93	96	2
NMTAP	93	192	1
NMTAP	93	240	1
NMTAP	93	288	1
NMTAP	94	0	0
NMTAP	94	48	0
NMTAP	94	96	0
NMTAP	94	192	6
NMTAP	94	192	7
NMTAP	95	0	5
NMTAP	95	48	5
NMTAP	95	96	5
NMTAP	95	192	6
NMTAP	95	240	6
NMTAP	95	288	6
NMTAP	96	0	7
NMTAP	96	48	7
NMTAP	96	96	7
NMTAP	96	192	0
NMTAP	96	192	1
NMTAP	97	0	1
NMTAP	97	48	1
NMTAP	97	96	1
NMTAP	97	192	2
NMTAP	97	240	2
NMTAP	97	288	2
NMTAP	98	0	3
NMTAP	98	48	3
NMTAP	98	96	3
NMTAP	98	192	4
NMTAP	98	192	5
NMTAP	99	0	6
NMTAP	99	48	6
NMTAP	99	96	6
NMTAP	99	192	5
NMTAP	99	240	5
NMTAP	99	288	5
NMTAP	100	0	4
NMTAP	100	48	4
NMTAP	100	96	4
NMTAP	100	192	2
NMTAP	100	192	3
NMTAP	101	0	3
NMTAP	101	0	4
NMTAP	101	48	3
NMTAP	101	48	4
NMTAP	101	96	3
NMTAP	101	96	4
BRTAP	101	192	2
BRTAP	101	192	5
NMTAP	102	0	3
NMTAP	102	96	3
NMTAP	102	192	2
NMTAP	102	192	3
NMTAP	103	0	1
NMTAP	103	96	1
NMTAP	103	192	0
NMTAP	103	192	1
NMTAP	104	0	7
NMTAP	104	96	7
NMTAP	104	192	6
NMTAP	104	192	7
NMTAP	105	0	4
NMTAP	105	0	5
NMTAP	105	96	4
NMTAP	105	96	5
NMTAP	105	192	3
NMTAP	105	192	6
NMTAP	106	0	4
NMTAP	106	96	4
NMTAP	106	192	4
NMTAP	106	192	5
NMTAP	107	0	6
NMTAP	107	96	6
NMTAP	107	192	6
NMTAP	107	192	7
NMTAP	108	0	0
NMTAP	108	96	0
NMTAP	108	192	0
NMTAP	108	192	1
NMTAP	109	0	2
NMTAP	109	0	3
NMTAP	109	96	2
NMTAP	109	96	3
NMTAP	109	192	1
NMTAP	109	192	4
NMHLD	110	0	3	144
NMHLD	110	0	4	144
NMHLD	110	288	2	288
NMHLD	110	288	5	288
NMTAP	112	0	3
NMTAP	112	0	4
NMTAP	112	96	3
NMTAP	112	96	4
NMTAP	112	192	2
NMTAP	112	192	5
NMTAP	112	288	2
NMTAP	112	288	5
NMTAP	113	0	1
NMTAP	113	0	6
NMTAP	113	96	1
NMTAP	113	96	6
NMHLD	113	192	0	288
NMHLD	113	192	7	288

T_REC_TAP	330
T_REC_BRK	8
T_REC_XTP	2
T_REC_BXX	0
T_REC_HLD	24
T_REC_XHO	0
T_REC_BHO	0
T_REC_BXH	0
T_REC_STR	6
T_REC_BST	0
T_REC_XST	0
T_REC_XBS	0
T_REC_TTP	30
T_REC_THO	1
T_REC_SLD	6
T_REC_BSL	0
T_REC_ALL	407
T_NUM_TAP	368
T_NUM_BRK	8
T_NUM_HLD	25
T_NUM_SLD	6
T_NUM_ALL	407
T_JUDGE_TAP	376
T_JUDGE_HLD	146
T_JUDGE_SLD	6
T_JUDGE_ALL	528
TTM_EACHPAIRS	85
TTM_SCR_TAP	184000
TTM_SCR_BRK	20800
TTM_SCR_HLD	25000
TTM_SCR_SLD	9000
TTM_SCR_ALL	238800
TTM_SCR_S	230900
TTM_SCR_SS	238000
TTM_RAT_ACV	10033

