VERSION	0.00.00	1.04.00
FES_MODE	0
BPM_DEF	195.000	195.000	195.000	195.000
MET_DEF	4	4
RESOLUTION	384
CLK_DEF	384
COMPATIBLE_CODE	MA2

BPM	0	0	195.000
MET	0	0	4	4

BXSTR	1	0	0
NMSCR	1	0	0	96	672	7
BXHLD	1	0	4	1344
CNSCL	3	0	7	0	600	0
NMTAP	4	288	0
NMTAP	4	288	6
NMTAP	5	0	0
NMTAP	5	48	0
NMTAP	5	96	5
NMTAP	5	144	2
NMTAP	5	192	2
NMTAP	5	240	3
NMHLD	5	288	2	48
NMHLD	5	288	4	48
NMTAP	6	0	5
NMTAP	6	48	5
NMTAP	6	96	4
NMTAP	6	144	7
NMTAP	6	192	7
NMTAP	6	240	0
NMHLD	6	288	1	48
NMHLD	6	288	5	48
EXTAP	7	0	2
NMTAP	7	24	4
NMTAP	7	48	2
NMTAP	7	72	4
NMTAP	7	96	2
NMTAP	7	120	4
EXTAP	7	144	2
NMTAP	7	168	4
NMTAP	7	192	3
NMTAP	7	216	4
EXTAP	7	240	3
NMTAP	7	264	4
EXTAP	7	288	3
NMTAP	7	312	4
EXTAP	7	336	3
NMTAP	7	360	4
EXTAP	8	0	3
NMTAP	8	24	5
NMTAP	8	48	3
NMTAP	8	72	5
NMTAP	8	96	3
NMTAP	8	120	5
EXTAP	8	144	3
NMTAP	8	168	5
NMTAP	8	192	4
NMTAP	8	216	5
NMTAP	8	240	4
NMTAP	8	264	5
EXSTR	8	288	4
NMSI_	8	288	4	96	48	0
NMTAP	8	312	5
NMTAP	8	336	4
NMTAP	8	360	5
BRSTR	9	0	4
NMSV_	9	0	4	96	96	1
NMSV_	9	0	4	96	96	7
CNSI_	9	192	1	0	48	3
CNSI_	9	192	7	0	48	5
EXTAP	9	288	3
EXTAP	9	288	5
NMHLD	10	0	2	96
NMTAP	10	48	4
NMTAP	10	96	3
NMTAP	10	144	4
NMHLD	10	192	5	96
NMTAP	10	240	3
NMTAP	10	288	4
NMTAP	10	336	3
NMSTR	11	0	2
NMSCL	11	0	2	96	48	7
NMTAP	11	48	2
NMTAP	11	96	3
NMTAP	11	144	4
NMSTR	11	192	5
NMSCL	11	192	5	96	48	2
NMTAP	11	240	5
NMTAP	11	288	0
NMHLD	12	0	1	96
NMTAP	12	48	3
NMTAP	12	96	3
NMTAP	12	144	2
NMTAP	12	144	4
NMHLD	12	192	5	96
NMTAP	12	240	3
NMTAP	12	288	3
NMTAP	12	336	2
NMTAP	12	336	4
BXTAP	13	0	1
BXTAP	13	0	3
BXTAP	13	72	0
BXTAP	13	72	7
BXTAP	13	144	3
BXTAP	13	144	5
BXTAP	13	192	4
BXTAP	13	192	6
BXTAP	13	264	0
BXTAP	13	264	7
BXTAP	13	336	2
BXTAP	13	336	3
NMHLD	14	0	1	96
NMTAP	14	48	4
NMTAP	14	96	3
NMTAP	14	144	4
NMHLD	14	192	5	96
NMTAP	14	240	4
NMTAP	14	288	3
NMTAP	14	336	4
NMSTR	15	0	6
NMSCR	15	0	6	96	48	1
NMTAP	15	48	6
NMTAP	15	96	4
NMTAP	15	144	3
NMSTR	15	192	2
NMSCR	15	192	2	96	48	5
NMTAP	15	240	2
NMTAP	15	288	7
NMTAP	16	0	6
NMHLD	16	48	6	48
NMTAP	16	96	4
NMHLD	16	144	4	48
NMTAP	16	192	5
NMHLD	16	240	5	48
NMTAP	16	288	2
NMHLD	16	336	2	48
BRTAP	17	0	3
BRTAP	17	72	4
BRTAP	17	72	5
BRTAP	17	144	2
BRTAP	17	144	6
BRTAP	17	192	0
BRTAP	17	192	1
BRTAP	17	264	0
BRTAP	17	264	6
BRTAP	17	336	1
BRTAP	17	336	5
NMTAP	18	0	2
NMTAP	18	48	1
NMTAP	18	48	3
NMTAP	18	96	2
NMTAP	18	144	0
NMTAP	18	144	1
NMTAP	18	192	2
NMTAP	18	240	1
NMTAP	18	240	5
NMTAP	18	288	2
NMTAP	18	336	1
NMTAP	18	336	3
NMTAP	19	0	2
NMTAP	19	48	1
NMTAP	19	48	7
NMTAP	19	96	2
NMTAP	19	144	1
NMTAP	19	144	4
NMTAP	19	192	2
NMTAP	19	216	3
NMTAP	19	240	2
NMTAP	19	288	3
NMTAP	19	288	4
NMTAP	19	336	4
NMTAP	19	336	5
NMTAP	20	0	6
NMTAP	20	48	5
NMTAP	20	48	7
NMTAP	20	96	6
NMTAP	20	144	1
NMTAP	20	144	5
NMTAP	20	192	6
NMTAP	20	240	3
NMTAP	20	240	5
NMTAP	20	288	6
NMTAP	20	336	5
NMTAP	21	0	4
NMSTR	21	0	6
NMSI_	21	0	6	96	48	3
NMTAP	21	72	3
NMTAP	21	96	6
NMTAP	21	144	0
NMHLD	21	192	1	72
NMTAP	21	192	4
NMTAP	21	264	3
NMTAP	21	288	1
NMTAP	21	336	2
NMTAP	21	336	4
NMTAP	22	0	5
NMTAP	22	48	4
NMTAP	22	48	6
NMTAP	22	96	5
NMTAP	22	144	6
NMTAP	22	144	7
NMTAP	22	192	5
NMTAP	22	240	4
NMTAP	22	240	6
NMTAP	22	288	5
NMTAP	22	336	2
NMTAP	22	336	6
NMTAP	23	0	3
NMTAP	23	0	5
NMTAP	23	48	2
NMTAP	23	48	4
NMTAP	23	96	1
NMTAP	23	144	0
NMTAP	23	144	7
NMSTR	23	192	7
NMSCL	23	192	7	96	48	4
NMTAP	23	216	0
NMTAP	23	240	6
NMTAP	23	288	1
NMTAP	23	288	7
NMTAP	24	0	2
EXTAP	24	0	3
NMTAP	24	48	2
NMTAP	24	48	3
NMTAP	24	96	3
NMTAP	24	96	4
NMTAP	24	144	3
NMTAP	24	144	4
NMTAP	24	192	4
NMTAP	24	192	5
NMTAP	24	240	4
NMTAP	24	240	5
NMTAP	24	288	3
NMSTR	24	288	6
NMSI_	24	288	6	96	48	3
NMSTR	25	0	0
NMSI_	25	0	0	96	48	4
NMTAP	25	0	6
NMTAP	25	96	0
NMSTR	25	96	5
NMSI_	25	96	5	96	48	0
NMTAP	25	192	3
NMTAP	25	192	5
NMTAP	25	288	2
NMSTR	25	288	7
NMSCL	25	288	7	96	240	2
EXTAP	26	0	0
NMTAP	26	96	0
NMTAP	26	192	0
NMTAP	26	288	0
NMTAP	27	0	1
NMSTR	27	0	3
NMSLR	27	0	3	96	192	7
NMTAP	27	96	1
NMTAP	27	192	2
NMTAP	27	288	3
NMTAP	28	0	4
NMHLD	28	0	7	96
NMTAP	28	96	3
NMTAP	28	192	2
NMTAP	28	240	2
NMTAP	28	288	1
NMTAP	28	312	3
NMTAP	28	336	1
NMTAP	28	360	3
NMHLD	29	0	1	48
NMHLD	29	72	0	48
NMHLD	29	72	2	48
NMTAP	29	144	3
NMTAP	29	144	7
NMHLD	29	192	6	48
NMHLD	29	264	5	48
NMHLD	29	264	7	48
NMTAP	29	336	0
NMTAP	29	336	4
NMTAP	30	0	1
NMSTR	30	0	3
NMSI_	30	0	3	96	48	7
NMTAP	30	48	1
NMTAP	30	96	1
NMTAP	30	96	3
NMTAP	30	144	1
NMTAP	30	192	0
NMSTR	30	192	6
NMSI_	30	192	6	96	48	2
NMTAP	30	240	0
NMTAP	30	288	0
NMTAP	30	288	6
NMTAP	30	336	0
NMTAP	31	0	1
NMTAP	31	0	3
NMTAP	31	48	4
NMTAP	31	96	3
NMTAP	31	96	5
NMTAP	31	144	6
NMTAP	31	192	1
NMTAP	31	216	0
NMTAP	31	240	1
NMTAP	31	288	2
NMTAP	31	288	7
NMSTR	32	0	3
NMSI_	32	0	3	96	48	1
NMTAP	32	0	6
NMTAP	32	48	6
NMTAP	32	96	3
NMTAP	32	96	6
NMTAP	32	144	6
NMSTR	32	192	0
NMSI_	32	192	0	96	48	4
NMTAP	32	192	5
NMTAP	32	240	5
NMTAP	32	288	0
NMTAP	32	288	5
NMTAP	32	336	5
NMHLD	33	0	3	48
NMHLD	33	0	6	48
NMHLD	33	72	3	48
NMHLD	33	72	6	48
NMTAP	33	144	3
NMTAP	33	144	6
NMHLD	33	192	4	48
NMHLD	33	192	5	48
NMHLD	33	264	4	48
NMHLD	33	264	5	48
NMTAP	33	336	4
NMTAP	33	336	5
NMHLD	34	0	3	48
NMHLD	34	72	3	48
NMSTR	34	144	2
NMSI_	34	144	2	96	48	4
NMTAP	34	144	3
NMHLD	34	288	5	48
NMHLD	34	360	5	48
NMTAP	35	48	5
NMSTR	35	48	6
NMSI_	35	48	6	96	48	2
NMHLD	35	192	1	48
NMSTR	35	264	1
NMSI_	35	264	1	96	48	7
NMTAP	35	264	2
NMHLD	36	0	6	48
NMHLD	36	72	6	48
NMSTR	36	144	5
NMSI_	36	144	5	96	48	0
NMTAP	36	144	7
NMHLD	36	288	1	48
NMHLD	36	360	1	48
NMTAP	37	48	0
NMSTR	37	48	2
NMSI_	37	48	2	96	48	7
NMHLD	37	192	5	48
NMHLD	37	264	5	48
NMTAP	37	336	4
NMTAP	37	336	6
NMTAP	38	0	4
NMTAP	38	0	6
NMTAP	38	48	4
NMTAP	38	96	3
NMTAP	38	96	5
NMTAP	38	144	5
NMTAP	38	192	2
NMTAP	38	192	4
NMTAP	38	240	2
NMTAP	38	288	1
NMTAP	38	288	3
NMTAP	38	336	3
NMTAP	39	0	0
NMTAP	39	0	4
NMTAP	39	48	0
NMTAP	39	96	1
NMTAP	39	96	5
NMTAP	39	144	5
NMTAP	39	192	2
NMTAP	39	192	6
NMTAP	39	240	2
NMTAP	39	288	3
NMTAP	39	288	7
NMTAP	39	336	7
NMTAP	40	0	4
NMTAP	40	24	6
NMTAP	40	48	4
NMTAP	40	72	6
NMTAP	40	96	3
NMTAP	40	120	5
NMTAP	40	144	3
NMTAP	40	168	5
NMTAP	40	192	2
NMTAP	40	216	4
NMTAP	40	240	2
NMTAP	40	264	4
NMTAP	40	288	1
NMTAP	40	312	3
NMTAP	40	336	1
NMTAP	40	360	3
NMTAP	41	0	0
NMTAP	41	24	1
NMTAP	41	48	2
NMTAP	41	72	3
NMTAP	41	96	5
NMTAP	41	120	6
NMTAP	41	144	7
NMTAP	41	168	0
NMTAP	41	192	4
NMTAP	41	216	3
NMTAP	41	240	2
NMTAP	41	264	1
NMSTR	41	288	7
NMSI_	41	288	7	96	48	3
NMTAP	41	312	6
NMTAP	41	336	5
NMTAP	41	360	4
NMTAP	42	0	3
BRSTR	42	0	7
NMSI_	42	0	7	96	288	5
NMTTP	42	1	0	C	1	M1
CNSI_	43	0	5	0	384	3
CNSI_	44	0	3	0	384	1
CNSI_	45	0	1	0	384	7
NMTAP	46	0	4
NMTAP	46	96	3
NMHLD	46	144	3	192
NMHLD	46	240	5	96
NMTAP	47	48	3
NMTAP	47	96	2
NMTAP	47	96	4
NMHLD	47	144	2	96
NMHLD	47	144	4	144
NMHLD	48	0	1	240
NMTAP	48	96	3
NMHLD	48	144	3	144
NMTAP	49	0	2
NMTAP	49	48	3
NMTAP	49	96	4
NMTAP	49	144	5
NMTAP	49	192	3
NMTAP	49	240	4
NMTAP	49	288	5
NMTAP	49	336	6
NMHLD	50	0	4	96
NMTAP	50	0	5
NMTAP	50	96	5
NMHLD	50	144	4	96
NMTAP	50	192	5
NMTAP	50	288	4
NMTAP	50	288	5
NMHLD	51	0	3	96
NMTAP	51	0	6
NMTAP	51	96	6
NMHLD	51	144	3	96
NMTAP	51	192	6
NMTAP	51	288	3
NMTAP	51	288	6
NMHLD	52	0	4	96
NMTAP	52	0	5
NMTAP	52	96	5
NMHLD	52	144	4	96
NMTAP	52	192	5
NMTAP	52	288	4
NMTAP	52	288	5
NMHLD	53	0	3	96
NMTAP	53	0	4
NMTAP	53	96	4
NMHLD	53	144	2	96
NMTAP	53	192	3
NMTAP	53	288	2
NMTAP	53	288	4
NMHLD	54	0	3	96
NMTAP	54	48	5
NMTAP	54	96	5
NMHLD	54	144	2	96
NMTAP	54	192	4
NMTAP	54	240	4
NMTAP	54	288	1
NMTAP	54	288	3
NMTAP	54	336	1
NMTAP	54	336	3
NMHLD	55	0	2	96
NMTAP	55	48	4
NMTAP	55	96	4
NMHLD	55	144	3	96
NMTAP	55	192	5
NMTAP	55	240	5
NMHLD	55	288	4	48
NMHLD	55	288	6	48
NMTAP	56	0	5
NMTAP	56	24	3
NMTAP	56	48	5
NMTAP	56	72	3
NMTAP	56	96	4
NMTAP	56	120	3
NMTAP	56	144	4
NMTAP	56	168	3
NMTAP	56	192	4
NMTAP	56	216	2
NMTAP	56	240	4
NMTAP	56	264	2
NMTAP	56	288	3
NMTAP	56	312	2
NMTAP	56	336	3
NMTAP	56	360	2
NMTAP	57	0	3
NMTAP	57	24	1
NMTAP	57	48	3
NMTAP	57	72	1
NMTAP	57	96	2
NMTAP	57	120	1
NMTAP	57	144	2
NMTAP	57	168	1
NMTAP	57	192	2
NMTAP	57	216	0
NMTAP	57	240	2
NMTAP	57	264	0
NMSTR	57	288	1
NMSLL	57	288	1	96	144	3
NMTAP	57	312	0
NMTAP	57	336	1
NMTAP	57	360	0
NMTAP	58	240	0
NMTAP	58	240	6
NMTAP	58	288	1
NMTAP	58	288	5
NMTAP	59	0	5
NMTAP	59	24	4
NMTAP	59	48	5
NMTAP	59	96	1
NMTAP	59	144	1
NMTAP	59	168	3
NMTAP	59	216	3
NMTAP	59	240	4
NMTAP	59	288	4
NMSTR	59	288	5
NMSI_	59	288	5	96	48	1
NMTAP	59	336	3
NMHLD	60	0	2	168
CNSI_	60	48	1	0	48	7
CNSI_	60	96	7	0	48	2
CNSI_	60	144	2	0	48	4
NMTAP	60	288	3
NMTAP	60	288	5
NMTAP	60	336	3
NMTAP	60	336	5
NMTAP	61	0	2
NMTAP	61	24	3
NMTAP	61	48	2
NMTAP	61	96	6
NMTAP	61	144	6
NMTAP	61	168	4
NMTAP	61	216	4
NMTAP	61	240	3
NMSTR	61	288	2
NMSI_	61	288	2	96	48	6
NMTAP	61	288	3
NMTAP	61	336	4
NMHLD	62	0	5	168
CNSI_	62	48	6	0	48	0
CNSI_	62	96	0	0	48	5
CNSI_	62	144	5	0	48	3
NMTAP	62	288	2
NMTAP	62	288	4
NMTAP	62	336	2
NMTAP	62	336	4
NMTAP	63	0	1
NMTAP	63	0	3
NMTAP	63	48	1
NMTAP	63	48	3
NMTAP	63	96	2
NMTAP	63	120	3
NMTAP	63	168	3
NMTAP	63	216	3
NMTAP	63	240	2
NMHLD	63	288	1	48
NMHLD	63	288	4	48
NMTAP	64	0	3
NMTAP	64	0	5
NMTAP	64	48	3
NMTAP	64	48	5
NMTAP	64	96	6
NMTAP	64	120	4
NMTAP	64	168	4
NMTAP	64	216	4
NMTAP	64	240	5
NMHLD	64	288	4	48
NMHLD	64	288	6	48
NMTAP	65	0	3
NMTAP	65	0	5
NMTAP	65	48	3
NMTAP	65	48	5
NMTAP	65	96	6
NMTAP	65	120	4
NMTAP	65	168	4
NMTAP	65	216	4
NMTAP	65	240	3
NMSTR	65	288	2
NMSI_	65	288	2	96	48	5
NMTAP	65	288	3
NMTAP	65	336	4
NMHLD	66	0	5	288
CNSI_	66	48	5	0	72	3
CNSI_	66	120	3	0	48	6
CNSI_	66	168	6	0	48	0
BXTAP	66	288	0
NMHLD	67	0	1	48
NMHLD	67	0	3	48
NMHLD	67	96	1	48
NMHLD	67	96	3	48
NMHLD	67	192	2	48
NMHLD	67	192	4	48
NMHLD	67	288	3	48
NMSTR	67	288	5
NMSCR	67	288	5	96	192	1
NMHLD	68	0	4	48
NMHLD	68	96	4	48
NMHLD	68	192	4	48
NMHLD	68	288	4	48
NMHLD	69	0	4	48
NMHLD	69	0	5	48
NMHLD	69	96	4	48
NMHLD	69	96	5	48
NMHLD	69	192	3	48
NMHLD	69	192	4	48
NMSTR	69	288	2
NMSCL	69	288	2	96	192	6
NMHLD	69	288	3	48
NMHLD	70	0	3	48
NMHLD	70	96	3	48
NMHLD	70	192	3	48
NMTAP	70	288	0
NMTAP	70	288	4
NMTAP	71	0	1
NMTAP	71	0	5
NMTAP	71	48	2
NMTAP	71	48	4
NMTAP	71	96	1
NMTAP	71	120	3
NMTAP	71	168	3
NMTAP	71	216	3
NMTAP	71	240	2
NMHLD	71	288	1	48
NMHLD	71	288	5	48
NMTAP	72	0	2
NMTAP	72	0	6
NMTAP	72	48	3
NMTAP	72	48	5
NMTAP	72	96	6
NMTAP	72	120	4
NMTAP	72	168	4
NMTAP	72	216	4
NMTAP	72	240	5
NMHLD	72	288	2	48
NMHLD	72	288	6	48
NMTAP	73	0	1
NMTAP	73	0	5
NMTAP	73	48	1
NMTAP	73	48	5
NMTAP	73	96	2
NMTAP	73	120	4
NMTAP	73	168	4
NMTAP	73	216	4
NMTAP	73	240	5
NMTAP	73	288	4
NMTAP	73	288	6
NMTAP	73	336	3
NMTAP	73	336	5
EXTAP	74	0	2
NMTAP	74	0	4
NMTAP	74	48	2
EXTAP	74	72	3
NMTAP	74	96	1
NMTAP	74	144	0
EXTAP	74	144	4
NMTAP	74	192	5
EXTAP	74	216	4
NMTAP	74	240	6
EXSTR	74	288	7
NMSI_	74	288	7	96	48	2
EXTAP	74	336	2
NMHLD	75	0	3	384
NMTAP	75	0	7
NMSTR	76	0	2
NMSI_	76	0	2	96	48	6
NMTAP	76	48	2
NMSTR	76	96	0
NMSI_	76	96	0	96	48	4
NMTAP	76	144	0
NMTAP	76	192	7
NMTAP	76	240	7
NMTAP	76	288	2
NMTAP	76	288	6
BRTAP	77	0	1
NMTAP	77	24	1
NMTAP	77	48	0
NMTAP	77	96	2
NMTAP	77	96	7
NMTAP	77	144	6
NMTAP	77	168	4
NMTAP	77	192	5
NMTAP	77	216	3
NMTAP	77	240	4
NMTAP	77	264	2
NMTAP	77	288	3
NMTAP	77	312	1
NMTAP	77	336	2
NMTAP	78	0	0
NMTAP	78	0	1
NMTAP	78	48	2
NMTAP	78	48	7
NMTAP	78	96	3
NMTAP	78	96	6
NMTAP	78	144	5
NMTAP	78	168	4
NMTAP	78	216	4
NMHLD	78	240	6	48
NMTAP	78	288	0
NMTAP	78	336	0
NMTAP	79	0	6
NMTAP	79	24	6
NMTAP	79	48	7
NMTAP	79	96	0
NMTAP	79	96	5
NMTAP	79	144	1
NMTAP	79	168	3
NMTAP	79	192	2
NMTAP	79	216	4
NMTAP	79	240	3
NMTAP	79	264	5
NMTAP	79	288	4
NMTAP	79	312	6
NMTAP	79	336	5
NMTAP	80	0	6
NMTAP	80	0	7
NMTAP	80	48	0
NMTAP	80	48	5
NMTAP	80	96	1
NMTAP	80	96	4
NMTAP	80	144	1
NMHLD	80	168	3	48
NMTAP	80	216	2
NMTAP	80	240	1
NMTAP	80	264	0
NMTAP	80	288	7
NMTAP	80	312	6
NMTAP	80	336	5
NMTAP	80	360	4
NMTAP	81	0	3
NMTAP	81	48	2
NMTAP	81	48	4
NMTAP	81	96	1
NMTAP	81	120	3
NMTAP	81	168	4
NMTAP	81	168	5
NMTAP	81	216	6
NMTAP	81	240	7
NMTAP	81	288	0
NMSTR	81	288	1
NMSI_	81	288	1	96	48	5
NMTAP	81	336	2
BRTAP	82	0	1
BRTAP	82	0	5
NMTAP	82	48	6
NMTAP	82	96	6
NMTAP	82	120	4
NMTAP	82	168	2
NMTAP	82	168	3
NMTAP	82	216	1
NMTAP	82	240	0
NMSTR	82	288	6
NMSI_	82	288	6	96	48	2
NMTAP	82	288	7
NMTAP	82	336	5
BRTAP	83	0	2
BRTAP	83	0	6
NMTAP	83	48	1
NMTAP	83	96	1
NMTAP	83	120	3
NMTAP	83	168	4
NMTAP	83	168	5
NMTAP	83	216	6
NMTAP	83	240	6
NMTAP	83	240	7
NMTAP	83	288	0
NMTAP	83	288	5
NMTAP	83	336	1
NMTAP	83	336	4
NMHLD	84	0	2	48
NMHLD	84	0	3	48
NMHLD	84	72	0	48
NMHLD	84	72	1	48
NMHLD	84	144	6	48
NMHLD	84	144	7	48
NMHLD	84	216	4	48
NMHLD	84	216	5	48
BRTAP	84	288	1
BRTAP	84	288	7
NMTAP	85	0	6
NMTAP	85	24	7
NMTAP	85	48	5
NMTAP	85	96	0
NMTAP	85	96	4
NMTAP	85	144	2
NMTAP	85	168	2
NMTAP	85	168	3
NMTAP	85	216	5
NMTAP	85	240	4
NMTAP	85	240	5
NMTAP	85	288	3
NMTAP	85	288	6
NMTAP	85	336	2
NMTAP	85	336	5
NMTAP	86	0	1
NMTAP	86	0	4
NMHLD	86	48	3	48
NMTAP	86	96	2
NMSTR	86	144	0
NMSI_	86	144	0	96	48	4
NMTAP	86	144	6
NMTAP	86	168	0
NMTAP	86	168	6
CNSI_	86	288	4	0	48	2
NMTAP	87	0	0
NMTAP	87	24	1
NMTAP	87	48	0
NMTAP	87	96	3
NMTAP	87	96	7
NMTAP	87	144	5
NMTAP	87	168	4
NMTAP	87	168	5
NMTAP	87	216	2
NMTAP	87	240	2
NMTAP	87	240	3
NMTAP	87	288	1
NMTAP	87	288	4
NMTAP	87	336	2
NMTAP	87	336	5
NMTAP	88	0	3
NMTAP	88	0	6
NMHLD	88	48	4	48
NMTAP	88	96	5
NMTAP	88	144	2
NMTAP	88	144	6
NMHLD	88	168	2	72
NMHLD	88	168	6	72
NMTAP	88	288	1
NMTAP	88	288	7
NMTAP	89	0	0
NMTAP	89	0	6
NMTAP	89	48	0
NMTAP	89	48	6
NMTAP	89	96	1
NMTAP	89	120	3
NMTAP	89	168	0
NMTAP	89	168	4
NMTAP	89	216	2
NMTAP	89	240	3
NMHLD	89	288	0	48
NMHLD	89	288	5	48
NMTAP	90	0	1
NMTAP	90	0	7
NMTAP	90	48	1
NMTAP	90	48	7
NMTAP	90	96	6
NMTAP	90	120	4
NMTAP	90	168	3
NMTAP	90	168	7
NMTAP	90	216	5
NMTAP	90	240	4
NMHLD	90	288	1	48
NMHLD	90	288	7	48
NMTAP	91	0	0
NMTAP	91	0	6
NMTAP	91	48	0
NMTAP	91	48	6
NMTAP	91	96	1
NMTAP	91	120	3
NMTAP	91	168	0
NMTAP	91	168	4
NMTAP	91	216	2
NMTAP	91	240	3
NMTAP	91	288	6
NMTAP	91	288	7
NMTAP	91	336	0
NMTAP	91	336	7
BRHLD	92	0	0	48
BRHLD	92	0	1	48
BRHLD	92	72	4	48
BRHLD	92	72	6	48
BRHLD	92	144	1	48
BRHLD	92	144	3	48
BRHLD	92	216	4	48
BRHLD	92	216	5	48
BRTAP	92	288	6
BRSTR	92	288	7
NMSI_	92	288	7	96	48	3
NMTAP	92	336	0
BRHLD	93	0	1	1440
BRSTR	93	0	7
NMSI_	93	0	7	96	288	5
CNSI_	94	0	5	0	384	2
CNSSL	95	0	2	0	384	6
CNSCR	96	0	6	0	288	4
NMTAP	97	0	2
NMTAP	97	48	2
NMTAP	97	96	3
NMTAP	97	144	3
NMTAP	97	192	4
NMTAP	97	240	4
NMTAP	97	288	5
NMTAP	97	336	5
NMTAP	98	0	4
NMTAP	98	48	4
NMTAP	98	96	3
NMTAP	98	144	3
NMTAP	98	192	2
NMTAP	98	240	2
NMTAP	98	288	3
NMTAP	98	336	3
NMTAP	99	0	2
NMTAP	99	24	4
NMTAP	99	48	2
NMTAP	99	72	4
NMTAP	99	96	2
NMTAP	99	120	5
NMTAP	99	144	2
NMTAP	99	168	5
NMTAP	99	192	1
NMTAP	99	216	6
NMTAP	99	240	1
NMTAP	99	264	6
NMTAP	99	288	1
NMTAP	99	312	7
NMTAP	99	336	1
NMTAP	99	360	7
BRTAP	100	0	1
NMTAP	100	12	2
NMTAP	100	24	3
NMTAP	100	36	4
BRTAP	100	72	7
NMTAP	100	84	6
NMTAP	100	96	5
NMTAP	100	108	4
BRTAP	100	144	0
NMTAP	100	156	1
NMTAP	100	168	2
NMTAP	100	180	3
BRTAP	100	216	6
NMTAP	100	228	5
NMTAP	100	240	4
NMTAP	100	252	3
BRTAP	100	288	1
BRTAP	100	288	7
BRTAP	101	0	2
BRTAP	101	0	4
NMSTR	101	48	1
BRSI_	101	48	1	96	24	4
NMTAP	101	72	7
NMTAP	101	96	1
NMTAP	101	120	7
NMTAP	101	144	1
NMTAP	101	192	6
NMTAP	101	216	7
NMTAP	101	240	5
NMTAP	101	264	0
NMTAP	101	288	4
NMTAP	101	312	1
NMTAP	101	336	3
NMTAP	101	360	2
BRTAP	102	0	4
NMSTR	102	48	5
BRSI_	102	48	5	96	24	0
NMTAP	102	72	0
NMTAP	102	96	5
NMTAP	102	120	0
NMTAP	102	144	5
NMTAP	102	192	1
NMTAP	102	216	2
NMTAP	102	240	3
NMTAP	102	264	4
NMTAP	102	288	7
NMTAP	102	312	6
NMTAP	102	336	5
NMTAP	102	360	4
BRTAP	103	0	2
BRTAP	103	0	3
NMSTR	103	48	1
BRSI_	103	48	1	96	24	4
NMTAP	103	72	0
NMTAP	103	96	1
NMTAP	103	120	0
NMTAP	103	144	1
NMTAP	103	192	6
NMTAP	103	216	7
NMTAP	103	240	5
NMTAP	103	264	0
NMTAP	103	288	4
NMTAP	103	312	1
NMTAP	103	336	3
NMTAP	103	360	2
BRTAP	104	0	3
NMTAP	104	48	6
NMTAP	104	72	4
NMTAP	104	96	6
NMTAP	104	120	4
NMHLD	104	144	6	48
NMTAP	104	192	7
NMTAP	104	216	0
NMTAP	104	240	1
NMTAP	104	264	2
BRTAP	104	288	3
BRTAP	104	288	7
NMTAP	104	336	7
BRTAP	105	0	0
BRTAP	105	0	1
NMTAP	105	48	2
NMTAP	105	72	3
NMSTR	105	96	1
BRSCR	105	96	1	96	48	4
NMTAP	105	144	1
NMTAP	105	192	5
NMTAP	105	208	6
NMTAP	105	224	7
NMTAP	105	240	0
NMTAP	105	288	0
NMTAP	105	336	1
NMTAP	105	336	7
BRTAP	106	0	2
BRTAP	106	0	6
NMTAP	106	48	5
NMTAP	106	72	4
NMSTR	106	96	6
BRSCL	106	96	6	96	48	3
NMTAP	106	144	6
NMTAP	106	192	2
NMTAP	106	208	1
NMTAP	106	224	0
NMTAP	106	240	7
NMTAP	106	288	7
NMTAP	106	336	0
NMTAP	106	336	6
BRTAP	107	0	1
BRTAP	107	0	5
NMTAP	107	48	2
NMTAP	107	72	3
NMTAP	107	96	0
NMTAP	107	144	0
NMTAP	107	192	0
NMTAP	107	192	3
NMTAP	107	208	1
NMTAP	107	208	4
NMTAP	107	224	2
NMTAP	107	224	5
NMTAP	107	240	3
NMTAP	107	240	6
NMTAP	107	288	4
NMTAP	107	288	7
NMTAP	107	304	3
NMTAP	107	304	6
NMTAP	107	320	2
NMTAP	107	320	5
NMTAP	107	336	1
NMTAP	107	336	4
BRHLD	108	0	7	48
BRHLD	108	72	0	48
BRHLD	108	72	6	48
BRHLD	108	144	1	48
BRHLD	108	144	3	48
BRHLD	108	216	4	48
BRHLD	108	216	5	48
BRTAP	108	288	0
NMTTP	108	288	0	C	1	M1
NMHLD	109	0	1	48
NMTAP	109	0	7
NMHLD	109	72	1	48
NMTAP	109	72	7
NMHLD	109	144	1	48
NMTAP	109	144	3
NMHLD	109	216	1	48
NMTAP	109	216	3
NMTAP	109	288	2
NMTAP	109	288	4
NMTAP	109	336	3
NMTAP	109	336	5
NMTAP	110	0	4
NMHLD	110	0	6	48
NMTAP	110	72	4
NMHLD	110	72	6	48
NMHLD	110	144	6	48
NMTAP	110	144	7
NMHLD	110	216	6	48
NMTAP	110	216	7
NMTAP	110	288	1
NMTAP	110	288	5
NMTAP	110	336	1
NMTAP	110	336	5
NMHLD	111	0	2	48
NMTAP	111	0	4
NMHLD	111	72	2	48
NMTAP	111	72	4
NMTAP	111	144	0
NMHLD	111	144	2	48
NMHLD	111	216	2	48
NMTAP	111	216	6
NMTAP	111	288	3
NMTAP	111	288	4
NMTAP	111	336	4
NMTAP	111	336	5
NMTAP	112	0	5
NMHLD	112	0	6	48
NMTAP	112	72	5
NMHLD	112	72	6	48
NMTAP	112	144	0
NMHLD	112	144	6	48
NMTAP	112	216	4
NMHLD	112	216	6	48
NMTAP	112	288	3
NMTAP	112	288	5
NMTAP	112	336	2
NMTAP	112	336	6
BRTAP	113	0	1
BRTAP	113	0	7
NMTAP	113	48	2
BRTAP	113	72	3
NMTAP	113	96	2
BRTAP	113	144	0
BRTAP	113	144	6
NMTAP	113	192	5
BRTAP	113	216	4
NMTAP	113	240	5
NMTAP	113	288	2
EXTAP	113	288	3
EXTAP	113	336	1
NMTAP	113	336	4
BRTAP	114	0	6
BRTAP	114	0	7
NMTAP	114	48	5
BRTAP	114	72	3
NMTAP	114	96	4
BRTAP	114	144	0
BRTAP	114	144	1
NMTAP	114	192	2
BRTAP	114	216	4
NMTAP	114	240	3
EXTAP	114	288	4
NMTAP	114	288	6
NMTAP	114	336	3
EXTAP	114	336	5
EXTAP	115	0	1
NMTAP	115	24	3
NMTAP	115	48	1
EXTAP	115	72	4
NMTAP	115	96	3
NMTAP	115	120	4
EXTAP	115	144	2
NMTAP	115	168	3
NMTAP	115	192	2
EXTAP	115	216	5
NMTAP	115	240	3
NMTAP	115	264	5
EXTAP	115	288	1
NMTAP	115	312	7
EXTAP	115	336	1
NMTAP	115	360	7
BRTAP	116	0	2
NMTAP	116	24	4
NMTAP	116	48	3
BRTAP	116	72	6
NMTAP	116	96	4
NMTAP	116	120	5
BRTAP	116	144	1
NMTAP	116	168	3
NMTAP	116	192	2
BRTAP	116	216	6
NMTAP	116	240	7
NMTAP	116	264	6
BXSTR	116	288	7
BRSI_	116	288	7	96	48	3
NMTAP	116	300	0
NMTAP	116	300	6
NMTAP	116	312	1
NMTAP	116	312	5
NMTAP	116	324	2
NMTAP	116	324	4
BXSTR	116	336	3
NMSCR	116	336	3	96	144	6
NMTTP	117	0	0	C	1	M1
BRSTR	117	0	7
NMSCR	117	0	7	96	96	2
CNSUL	117	192	2	0	960	0
CNSUL	117	192	6	0	960	4

T_REC_TAP	817
T_REC_BRK	56
T_REC_XTP	26
T_REC_BXX	13
T_REC_HLD	129
T_REC_XHO	0
T_REC_BHO	16
T_REC_BXH	1
T_REC_STR	37
T_REC_BST	5
T_REC_XST	2
T_REC_XBS	3
T_REC_TTP	3
T_REC_THO	0
T_REC_SLD	42
T_REC_BSL	6
T_REC_ALL	1156
T_NUM_TAP	885
T_NUM_BRK	100
T_NUM_HLD	129
T_NUM_SLD	42
T_NUM_ALL	1156
T_JUDGE_TAP	962
T_JUDGE_HLD	255
T_JUDGE_SLD	48
T_JUDGE_ALL	1265
TTM_EACHPAIRS	257
TTM_SCR_TAP	442500
TTM_SCR_BRK	260000
TTM_SCR_HLD	129000
TTM_SCR_SLD	63000
TTM_SCR_ALL	894500
TTM_SCR_S	858000
TTM_SCR_SS	884500
TTM_RAT_ACV	10113

