VERSION	0.00.00	1.04.00
FES_MODE	0
BPM_DEF	195.000	195.000	195.000	195.000
MET_DEF	4	4
RESOLUTION	384
CLK_DEF	384
COMPATIBLE_CODE	MA2

BPM	0	0	195.000
MET	0	0	4	4

BXTAP	1	0	1
BXHLD	1	0	7	384
NMHLD	2	0	0	384
NMTHO	3	0	0	384	C	0	M1
NMHLD	4	0	1	288
NMTAP	5	0	2
NMTAP	5	0	3
NMTAP	5	96	2
NMTAP	5	96	3
NMTAP	5	192	3
NMTAP	5	192	4
NMTAP	5	288	3
NMTAP	5	288	4
NMTAP	6	0	4
NMTAP	6	0	5
NMTAP	6	96	4
NMTAP	6	96	5
NMTAP	6	192	3
NMTAP	6	192	4
NMTAP	6	288	3
NMTAP	6	288	4
NMTAP	7	0	2
NMTAP	7	48	2
NMTAP	7	96	3
NMTAP	7	192	5
NMTAP	7	240	5
NMTAP	7	288	4
NMTAP	8	0	1
NMTAP	8	48	1
NMTAP	8	96	6
NMTAP	8	144	6
NMTAP	8	192	0
NMTAP	8	240	0
NMTAP	8	288	7
BRSTR	9	0	1
NMSLL	9	0	1	96	192	3
BRSTR	9	0	6
NMSLR	9	0	6	96	192	4
NMTAP	10	0	2
NMTAP	10	48	3
NMTAP	10	96	1
NMTAP	10	192	0
NMTAP	10	192	1
NMTAP	10	288	0
NMTAP	10	288	7
NMTAP	11	0	6
NMTAP	11	0	7
NMTAP	11	96	6
NMTAP	11	96	7
NMTAP	11	192	4
NMTAP	11	192	5
NMTAP	11	288	2
NMTAP	11	288	6
NMTAP	11	336	2
NMTAP	11	336	6
NMTAP	12	0	2
NMHLD	12	0	6	96
NMTAP	12	96	4
NMHLD	12	192	1	96
NMTAP	12	192	5
NMTAP	12	288	3
EXHLD	13	0	1	72
EXHLD	13	72	3	72
EXTAP	13	144	2
EXHLD	13	192	6	72
EXHLD	13	264	4	72
EXTAP	13	336	5
NMTAP	14	0	5
NMTAP	14	48	4
NMTAP	14	96	6
NMTAP	14	192	6
NMTAP	14	192	7
NMTAP	14	288	0
NMTAP	14	288	7
NMTAP	15	0	0
NMTAP	15	0	1
NMTAP	15	96	0
NMTAP	15	96	1
NMTAP	15	192	2
NMTAP	15	192	3
NMTAP	15	288	1
NMTAP	15	288	5
NMTAP	15	336	1
NMTAP	15	336	5
NMHLD	16	0	1	96
NMTAP	16	0	5
NMTAP	16	96	3
NMTAP	16	192	2
NMHLD	16	192	6	96
NMTAP	16	288	4
EXHLD	17	0	6	72
EXHLD	17	72	4	72
EXTAP	17	144	5
EXHLD	17	192	2	72
EXHLD	17	264	3	72
EXTAP	17	336	1
NMTAP	18	0	1
NMTAP	18	48	0
NMTAP	18	96	2
NMTAP	18	192	2
NMTAP	18	192	3
NMTAP	18	288	3
NMTAP	18	288	4
NMTAP	19	0	4
NMTAP	19	0	5
NMTAP	19	96	4
NMTAP	19	96	5
NMTAP	19	192	6
NMTAP	19	192	7
NMTAP	19	288	1
NMTAP	19	288	5
NMTAP	19	336	1
NMTAP	19	336	5
NMHLD	20	0	1	96
NMTAP	20	0	5
NMTAP	20	96	0
NMTAP	20	192	2
NMHLD	20	192	6	96
NMTAP	20	288	7
EXHLD	21	0	0	72
EXHLD	21	72	2	72
EXTAP	21	144	1
EXHLD	21	192	7	72
EXHLD	21	264	5	72
EXTAP	21	336	6
NMSTR	22	0	6
NMSI_	22	0	6	96	48	4
NMTAP	22	96	3
NMTAP	22	192	2
NMTAP	22	240	2
NMTAP	22	288	1
NMTAP	22	288	3
NMSTR	23	0	1
NMSI_	23	0	1	96	48	3
NMTAP	23	96	4
NMTAP	23	192	5
NMTAP	23	240	5
NMTAP	23	288	4
NMTAP	23	288	6
NMTAP	24	0	7
NMTAP	24	48	7
NMTAP	24	96	1
NMTAP	24	144	1
NMTAP	24	192	6
NMTAP	24	240	6
NMTAP	24	288	0
NMTAP	24	336	0
NMTAP	25	0	0
NMTAP	25	0	7
NMTAP	25	96	1
NMTAP	25	96	2
NMTAP	25	192	3
NMTAP	25	192	4
NMTAP	25	288	5
NMSTR	25	288	6
NMSCR	25	288	6	96	288	4
NMTTP	26	0	0	C	1	M1
NMHLD	27	0	0	96
NMSTR	27	0	6
NMSI_	27	0	6	96	48	2
NMSTR	27	192	1
NMSI_	27	192	1	96	48	4
NMHLD	27	192	7	96
NMHLD	28	0	3	288
NMSTR	28	0	5
NMSCR	28	0	5	96	192	2
NMHLD	29	0	5	72
NMHLD	29	72	4	72
NMTAP	29	144	7
NMHLD	29	192	2	72
NMHLD	29	264	3	72
NMTAP	29	336	0
NMSTR	30	0	0
NMSI_	30	0	0	96	48	4
NMTAP	30	96	5
NMSTR	30	192	6
NMSI_	30	192	6	96	48	3
NMTAP	30	288	2
NMSTR	31	0	1
NMSI_	31	0	1	96	48	5
NMTAP	31	96	6
NMTAP	31	192	4
NMTAP	31	192	6
NMTAP	31	288	3
NMTAP	31	288	5
NMTAP	31	336	3
NMTAP	31	336	5
NMSTR	32	0	3
NMSI_	32	0	3	96	48	0
NMSTR	32	0	5
NMSI_	32	0	5	96	48	0
NMSTR	32	192	7
NMSI_	32	192	7	96	48	2
NMSI_	32	192	7	96	48	4
NMHLD	33	0	1	72
NMTAP	33	72	3
NMTAP	33	144	2
NMTAP	33	144	4
NMHLD	33	192	6	72
NMTAP	33	264	4
NMTAP	33	336	3
NMTAP	33	336	5
EXHLD	34	0	2	48
EXHLD	34	0	4	48
EXHLD	34	72	2	48
EXHLD	34	72	4	48
EXTAP	34	144	2
EXTAP	34	144	4
EXHLD	34	288	1	48
EXHLD	34	288	3	48
EXHLD	34	360	1	48
EXHLD	34	360	3	48
EXTAP	35	48	1
EXTAP	35	48	3
EXHLD	35	192	0	48
EXHLD	35	192	2	48
EXTAP	35	264	0
EXTAP	35	264	2
EXHLD	36	0	3	48
EXHLD	36	0	5	48
EXHLD	36	72	3	48
EXHLD	36	72	5	48
EXTAP	36	144	3
EXTAP	36	144	5
EXHLD	36	288	4	48
EXHLD	36	288	6	48
EXHLD	36	360	4	48
EXHLD	36	360	6	48
EXTAP	37	48	4
EXTAP	37	48	6
EXHLD	37	192	5	48
EXHLD	37	192	7	48
EXTAP	37	264	5
EXTAP	37	264	7
NMTAP	38	0	2
NMTAP	38	48	2
NMTAP	38	96	3
NMTAP	38	144	3
NMTAP	38	192	4
NMTAP	38	240	4
NMTAP	38	288	5
NMTAP	38	336	5
NMTAP	39	0	1
NMTAP	39	48	1
NMTAP	39	96	3
NMTAP	39	144	3
NMTAP	39	192	4
NMTAP	39	240	4
NMTAP	39	288	6
NMTAP	39	336	6
NMSTR	40	0	7
NMSCL	40	0	7	96	288	0
NMHLD	41	0	7	384
NMTHO	41	192	0	192	C	1	M1
NMTTP	41	192	5	B	0	M1
NMTTP	41	192	6	B	0	M1
NMTTP	41	192	6	E	0	M1
NMSTR	46	0	1
NMSCR	46	0	1	96	192	4
NMSTR	47	0	6
NMSCL	47	0	6	96	192	3
NMSTR	48	0	1
NMSXR	48	0	1	96	384	4
NMHLD	49	192	5	864
NMTTP	50	0	5	E	0	M1
NMTTP	50	96	6	E	0	M1
NMTTP	50	192	7	E	0	M1
NMTTP	50	288	0	E	0	M1
NMTTP	51	0	1	E	0	M1
NMTTP	51	96	2	E	0	M1
NMTTP	51	192	3	E	0	M1
EXHLD	51	288	2	672
NMTTP	52	0	4	D	0	M1
NMTTP	52	96	3	D	0	M1
NMTTP	52	192	2	D	0	M1
NMTTP	52	288	1	D	0	M1
NMTTP	53	0	0	D	0	M1
NMTTP	53	96	7	D	0	M1
NMTTP	53	192	6	D	0	M1
EXTAP	53	288	3
EXTAP	53	288	4
NMHLD	54	0	5	96
NMHLD	54	96	4	96
NMHLD	54	192	3	96
NMHLD	54	288	2	96
NMHLD	55	0	6	96
NMHLD	55	96	4	96
NMHLD	55	192	3	96
NMHLD	55	288	1	96
NMTAP	56	0	7
NMTAP	56	48	7
NMTAP	56	96	0
NMTAP	56	144	0
NMTAP	56	192	6
NMTAP	56	240	6
NMTAP	56	288	1
NMTAP	56	336	1
NMTAP	57	0	7
NMTAP	57	24	0
NMTAP	57	48	7
NMTAP	57	72	0
NMTAP	57	96	7
NMTAP	57	120	0
NMTAP	57	144	7
NMTAP	57	168	0
NMTAP	57	192	7
NMTAP	57	216	0
NMTAP	57	240	7
NMTAP	57	264	0
NMSTR	57	288	7
NMSF_	57	288	7	96	192	3
NMTAP	59	0	2
NMTAP	59	48	2
NMHLD	59	96	0	48
NMHLD	59	96	1	48
NMHLD	59	168	0	48
NMHLD	59	168	1	48
NMTAP	59	240	0
NMTAP	59	240	1
NMTAP	59	288	2
NMTAP	59	288	7
NMTAP	60	0	6
NMTAP	60	48	6
NMHLD	60	96	6	72
NMSTR	60	96	7
NMSLR	60	96	7	96	120	3
NMTAP	61	0	5
NMTAP	61	48	5
NMHLD	61	96	6	48
NMHLD	61	96	7	48
NMHLD	61	168	6	48
NMHLD	61	168	7	48
NMTAP	61	240	6
NMTAP	61	240	7
NMTAP	61	288	0
NMTAP	61	288	5
NMTAP	62	0	1
NMTAP	62	48	1
NMSTR	62	96	0
NMSSR	62	96	0	96	120	4
NMHLD	62	96	1	72
NMTAP	63	0	2
NMTAP	63	48	2
NMHLD	63	96	2	72
NMTAP	63	168	3
NMTAP	63	240	2
NMTAP	63	240	3
NMTAP	63	288	1
NMTAP	63	288	4
NMTAP	64	0	5
NMTAP	64	48	5
NMHLD	64	96	5	72
NMTAP	64	168	4
NMTAP	64	240	4
NMTAP	64	240	5
NMTAP	64	288	3
NMTAP	64	288	6
NMTAP	65	0	7
NMTAP	65	48	7
NMHLD	65	96	7	72
NMTAP	65	168	0
NMTAP	65	240	0
NMTAP	65	240	7
NMTAP	65	288	0
NMTAP	65	288	7
EXTAP	66	0	6
EXTAP	66	0	7
EXTAP	66	72	0
EXTAP	66	72	1
EXTAP	66	144	2
EXTAP	66	144	3
EXTAP	66	216	4
EXTAP	66	216	5
BXTAP	66	288	3
BXTAP	66	288	6
NMHLD	67	0	7	768
NMTAP	67	96	0
NMTAP	67	192	1
NMTAP	67	288	2
NMTAP	68	0	3
NMTAP	68	96	4
NMTAP	68	192	5
NMTAP	68	288	6
NMHLD	69	0	0	576
NMTAP	69	96	6
NMTAP	69	192	5
NMTAP	69	288	4
NMTAP	70	0	3
NMTAP	70	96	2
NMTAP	70	192	1
NMTAP	70	288	0
NMTAP	70	288	7
NMTAP	71	0	6
NMTAP	71	0	7
NMTAP	71	48	6
NMTAP	71	48	7
NMHLD	71	96	6	72
NMHLD	71	168	4	72
NMTAP	71	240	5
NMTAP	71	288	3
NMTAP	71	288	6
NMTAP	72	0	0
NMTAP	72	0	1
NMTAP	72	48	0
NMTAP	72	48	1
NMHLD	72	96	1	72
NMHLD	72	168	3	72
NMTAP	72	240	2
NMTAP	72	288	3
NMTAP	72	288	4
NMTAP	73	0	2
NMTAP	73	48	2
NMTAP	73	96	5
NMTAP	73	144	5
NMTAP	73	192	1
NMTAP	73	240	1
NMTAP	73	288	6
NMTAP	73	336	6
NMTAP	74	0	0
NMTAP	74	24	7
NMTAP	74	48	0
NMTAP	74	72	7
NMTAP	74	96	0
NMTAP	74	120	7
NMTAP	74	144	0
NMTAP	74	168	7
NMTAP	74	192	0
NMTAP	74	216	7
NMTAP	74	240	0
NMTAP	74	264	7
NMTAP	74	288	0
BRSTR	75	0	2
BRSCL	75	0	2	96	408	4
BRSTR	75	0	5
BRSCR	75	0	5	96	408	3
EXTAP	76	288	1
EXTAP	76	288	6
NMTAP	77	0	0
NMTAP	77	0	1
NMTAP	77	48	0
NMTAP	77	48	1
NMTAP	77	96	2
NMSTR	77	96	7
NMSI_	77	96	7	96	48	3
NMSTR	77	192	1
NMSI_	77	192	1	96	48	4
NMTAP	77	288	5
NMTAP	78	0	6
NMTAP	78	48	6
NMSTR	78	96	2
NMSI_	78	96	2	96	48	7
NMSTR	78	96	6
NMSI_	78	96	6	96	48	3
NMTAP	78	288	0
NMTAP	78	288	4
NMTAP	79	0	6
NMTAP	79	0	7
NMTAP	79	48	6
NMTAP	79	48	7
NMSTR	79	96	0
NMSI_	79	96	0	96	48	4
NMTAP	79	96	5
NMSTR	79	192	6
NMSI_	79	192	6	96	48	3
NMTAP	79	288	2
NMTAP	80	0	1
NMTAP	80	48	1
NMSTR	80	96	1
NMSI_	80	96	1	96	48	4
NMSTR	80	96	5
NMSI_	80	96	5	96	48	0
NMTAP	80	288	3
NMTAP	80	288	7
NMSTR	81	0	1
NMSI_	81	0	1	96	48	4
NMTAP	81	48	1
NMSTR	81	96	5
NMSI_	81	96	5	96	48	0
NMTAP	81	144	5
NMTAP	81	192	3
NMTAP	81	288	2
NMTAP	81	288	7
NMSTR	82	0	6
NMSI_	82	0	6	96	48	3
NMTAP	82	48	6
NMSTR	82	96	2
NMSI_	82	96	2	96	48	7
NMTAP	82	144	2
NMTAP	82	192	4
NMTAP	82	288	0
NMTAP	82	288	5
NMTAP	83	0	6
NMTAP	83	48	6
NMTAP	83	96	4
NMTAP	83	144	4
NMTAP	83	192	2
NMTAP	83	240	2
NMHLD	83	288	0	96
BXTAP	84	0	7
BXTAP	84	72	4
BXTAP	84	72	6
BXTAP	84	144	3
BXTAP	84	144	4
BXTAP	84	216	1
BXTAP	84	216	3
BXTAP	84	288	0
BXTAP	84	288	7
NMTAP	85	0	5
NMTAP	85	48	5
NMHLD	85	96	6	48
NMHLD	85	96	7	48
NMHLD	85	168	0	48
NMHLD	85	168	7	48
NMTAP	85	240	0
NMTAP	85	240	1
NMTAP	85	288	0
NMTAP	85	288	1
NMTAP	86	0	2
NMTAP	86	48	3
NMSTR	86	96	1
NMSLL	86	96	1	96	96	4
NMHLD	86	96	4	72
NMTAP	87	0	2
NMTAP	87	48	2
NMHLD	87	96	0	48
NMHLD	87	96	1	48
NMHLD	87	168	0	48
NMHLD	87	168	7	48
NMTAP	87	240	6
NMTAP	87	240	7
NMTAP	87	288	6
NMTAP	87	288	7
NMTAP	88	0	5
NMTAP	88	48	4
NMHLD	88	96	3	72
NMSTR	88	96	6
NMSI_	88	96	6	96	48	3
CNSI_	88	240	3	0	72	7
NMTAP	89	0	0
NMTAP	89	0	6
NMTAP	89	48	0
NMTAP	89	48	6
NMHLD	89	96	5	72
NMTAP	89	168	4
NMTAP	89	240	4
NMTAP	89	240	5
NMTAP	89	288	3
NMTAP	89	288	6
NMTAP	90	0	1
NMTAP	90	0	7
NMTAP	90	48	1
NMTAP	90	48	7
NMHLD	90	96	2	72
NMTAP	90	168	3
NMTAP	90	240	2
NMTAP	90	240	3
NMTAP	90	288	1
NMTAP	90	288	4
NMTAP	91	0	5
NMTAP	91	48	5
NMTAP	91	96	7
NMTAP	91	144	7
NMTAP	91	192	1
NMTAP	91	240	1
NMHLD	91	288	3	96
BXTAP	92	0	4
BXTAP	92	72	5
BXTAP	92	72	6
BXTAP	92	144	0
BXTAP	92	144	7
BXTAP	92	216	1
BXTAP	92	216	2
BXTAP	92	288	3
BXTAP	92	288	4
NMTTP	93	0	0	E	1	M1
NMTTP	93	0	1	E	0	M1
NMTTP	93	0	7	E	0	M1
EXTAP	96	288	2
EXTAP	96	288	5
NMTAP	97	0	1
NMTAP	97	48	1
NMTAP	97	96	3
NMTAP	97	144	3
NMTAP	97	192	2
NMTAP	97	240	2
NMTAP	97	288	5
NMTAP	97	336	5
NMTAP	98	0	4
NMTAP	98	48	4
NMTAP	98	96	6
NMTAP	98	144	6
NMTAP	98	192	0
NMTAP	98	240	0
NMTAP	98	288	6
NMTAP	98	336	6
NMTAP	99	0	1
NMTAP	99	24	5
NMTAP	99	48	1
NMTAP	99	72	5
NMTAP	99	96	1
NMTAP	99	120	5
NMTAP	99	144	1
NMTAP	99	168	5
NMTAP	99	192	2
NMTAP	99	216	4
NMTAP	99	240	2
NMTAP	99	264	4
NMTAP	99	288	2
BRTAP	100	0	1
BRTAP	100	0	3
BRTAP	100	72	5
BRTAP	100	72	7
BRTAP	100	144	0
BRTAP	100	144	2
BRTAP	100	216	4
BRTAP	100	216	6
BRTAP	100	288	1
BRTAP	100	288	5
NMTAP	101	0	2
NMTAP	101	0	3
NMTAP	101	48	2
NMTAP	101	48	3
NMSTR	101	96	1
NMSI_	101	96	1	96	48	4
NMTAP	101	96	4
NMSTR	101	192	6
NMSI_	101	192	6	96	48	3
NMSTR	101	288	0
NMSI_	101	288	0	96	48	5
NMSTR	102	0	7
NMSI_	102	0	7	96	48	2
NMSTR	102	96	1
NMSI_	102	96	1	96	48	4
NMTAP	102	192	5
NMTAP	102	240	5
EXTAP	102	288	4
EXTAP	102	288	6
NMTAP	103	0	6
NMTAP	103	0	7
NMTAP	103	48	6
NMTAP	103	48	7
NMTAP	103	96	0
NMSTR	103	96	5
NMSI_	103	96	5	96	48	0
NMSTR	103	192	2
NMSI_	103	192	2	96	48	7
NMSTR	103	288	4
NMSI_	103	288	4	96	48	1
NMSTR	104	0	3
NMSI_	104	0	3	96	48	6
NMSTR	104	96	5
NMSI_	104	96	5	96	48	7
NMTAP	104	192	0
NMTAP	104	240	0
EXTAP	104	288	0
EXTAP	104	288	7
NMSTR	105	0	1
NMSI_	105	0	1	96	48	5
NMTAP	105	48	1
NMSTR	105	96	6
NMSI_	105	96	6	96	48	2
NMTAP	105	144	6
NMSTR	105	192	0
NMSI_	105	192	0	96	48	4
NMTAP	105	240	0
NMSTR	105	288	7
NMSI_	105	288	7	96	48	3
NMTAP	105	336	7
NMSTR	106	0	2
NMSI_	106	0	2	96	48	6
NMTAP	106	48	2
NMSTR	106	96	4
NMSI_	106	96	4	96	48	7
NMTAP	106	144	4
NMTAP	106	192	0
NMTAP	106	240	0
NMTAP	106	288	6
NMTAP	106	336	6
NMTAP	107	0	0
NMTAP	107	24	7
NMTAP	107	48	0
NMTAP	107	72	7
NMTAP	107	96	1
NMTAP	107	120	6
NMTAP	107	144	1
NMTAP	107	168	6
NMTAP	107	192	2
NMTAP	107	216	5
NMTAP	107	240	2
NMTAP	107	264	5
NMTAP	107	288	3
NMTAP	107	312	4
NMTAP	107	336	3
NMTAP	107	360	4
NMSTR	108	0	3
NMSCL	108	0	3	96	120	4
BRTAP	108	288	0
BRTAP	108	288	7
NMHLD	109	0	1	72
NMHLD	109	72	3	72
NMHLD	109	144	4	72
NMHLD	109	216	6	72
NMTAP	109	288	7
NMTAP	109	336	7
NMHLD	110	0	6	72
NMHLD	110	72	4	72
NMHLD	110	144	3	72
NMHLD	110	216	1	72
NMTAP	110	288	0
NMTAP	110	336	0
NMHLD	111	0	2	72
NMHLD	111	72	0	72
NMHLD	111	144	7	72
NMHLD	111	216	5	72
NMTAP	111	288	7
NMTAP	111	336	7
NMHLD	112	0	5	72
NMHLD	112	72	7	72
NMHLD	112	144	0	72
NMHLD	112	216	2	72
NMTAP	112	288	0
NMTAP	112	336	0
NMHLD	113	0	0	48
NMHLD	113	0	1	48
NMHLD	113	72	5	48
NMHLD	113	72	6	48
NMHLD	113	144	2	48
NMHLD	113	144	3	48
NMHLD	113	216	0	48
NMHLD	113	216	1	48
NMTAP	113	288	3
NMTAP	113	288	6
NMTAP	113	336	3
NMTAP	113	336	6
NMHLD	114	0	4	48
NMHLD	114	0	5	48
NMHLD	114	72	1	48
NMHLD	114	72	2	48
NMHLD	114	144	6	48
NMHLD	114	144	7	48
NMHLD	114	216	3	48
NMHLD	114	216	4	48
NMTAP	114	288	2
NMTAP	114	288	5
NMTAP	114	336	2
NMTAP	114	336	5
NMTAP	115	0	3
NMTAP	115	24	4
NMTAP	115	48	3
NMTAP	115	72	4
NMTAP	115	96	3
NMTAP	115	120	4
NMTAP	115	144	3
NMTAP	115	168	4
NMTAP	115	192	3
NMTAP	115	216	4
NMTAP	115	240	3
NMTAP	115	264	4
NMTAP	115	288	3
NMTAP	115	312	4
NMTAP	115	336	3
NMTAP	115	360	4
NMTAP	116	0	3
NMTAP	116	24	2
NMTAP	116	48	1
NMTAP	116	72	0
NMTAP	116	96	7
NMTAP	116	120	6
NMTAP	116	144	5
NMTAP	116	168	4
NMTAP	116	192	3
NMTAP	116	216	2
NMTAP	116	240	1
NMTAP	116	264	0
NMSTR	116	288	7
BRSF_	116	288	7	96	48	3

T_REC_TAP	446
T_REC_BRK	12
T_REC_XTP	36
T_REC_BXX	21
T_REC_HLD	92
T_REC_XHO	33
T_REC_BHO	0
T_REC_BXH	1
T_REC_STR	51
T_REC_BST	4
T_REC_XST	0
T_REC_XBS	0
T_REC_TTP	21
T_REC_THO	2
T_REC_SLD	53
T_REC_BSL	3
T_REC_ALL	775
T_NUM_TAP	554
T_NUM_BRK	41
T_NUM_HLD	127
T_NUM_SLD	53
T_NUM_ALL	775
T_JUDGE_TAP	591
T_JUDGE_HLD	290
T_JUDGE_SLD	56
T_JUDGE_ALL	937
TTM_EACHPAIRS	164
TTM_SCR_TAP	277000
TTM_SCR_BRK	106600
TTM_SCR_HLD	127000
TTM_SCR_SLD	79500
TTM_SCR_ALL	590100
TTM_SCR_S	568450
TTM_SCR_SS	586000
TTM_RAT_ACV	10069

