VERSION	0.00.00	1.04.00
FES_MODE	0
BPM_DEF	195.000	195.000	195.000	195.000
MET_DEF	4	4
RESOLUTION	384
CLK_DEF	384
COMPATIBLE_CODE	MA2

BPM	0	0	195.000
MET	0	0	4	4

NMTAP	1	0	0
NMTAP	1	0	1
NMTAP	2	0	2
NMTAP	2	0	3
NMTAP	3	0	4
NMTAP	3	0	5
NMTAP	4	0	6
NMTAP	4	0	7
NMHLD	5	0	6	144
NMHLD	5	0	7	144
NMHLD	6	0	4	144
NMHLD	6	0	5	144
NMHLD	7	0	2	144
NMHLD	7	0	3	144
NMHLD	8	0	0	144
NMHLD	8	0	1	144
BRTAP	9	0	0
BRTAP	9	0	7
NMTAP	10	0	1
NMTAP	10	96	1
NMTAP	10	192	1
NMTAP	11	0	2
NMTAP	11	96	2
NMTAP	11	192	2
NMTAP	12	0	3
NMTAP	12	96	3
NMTAP	12	192	3
EXTAP	13	0	4
EXTAP	13	0	5
NMTAP	14	0	6
NMTAP	14	96	6
NMTAP	14	192	6
NMTAP	15	0	5
NMTAP	15	96	5
NMTAP	15	192	5
NMTAP	16	0	4
NMTAP	16	96	4
NMTAP	16	192	4
EXTAP	17	0	2
EXTAP	17	0	3
NMTAP	18	0	2
NMTAP	18	96	2
NMTAP	18	192	2
NMTAP	18	192	3
NMTAP	19	0	1
NMTAP	19	96	1
NMTAP	19	192	0
NMTAP	19	192	1
NMTAP	20	0	7
NMTAP	20	96	7
NMTAP	20	192	6
NMTAP	20	192	7
EXTAP	21	0	4
EXTAP	21	0	5
NMTAP	22	0	5
NMTAP	22	96	5
NMTAP	22	192	4
NMTAP	22	192	5
NMTAP	23	0	6
NMTAP	23	96	6
NMTAP	23	192	6
NMTAP	23	192	7
NMTAP	24	0	0
NMTAP	24	96	0
NMTAP	24	192	0
NMTAP	24	192	1
EXTAP	25	0	2
EXTAP	25	0	3
EXTAP	25	96	2
EXTAP	25	96	3
EXTAP	25	192	2
EXTAP	25	192	3
NMTAP	26	0	2
NMTAP	26	96	2
NMTAP	26	192	1
NMTAP	26	288	1
NMTAP	27	0	0
NMTAP	27	96	0
NMTAP	27	192	6
NMTAP	27	192	7
NMTAP	28	0	5
NMTAP	28	96	5
NMTAP	28	192	6
NMTAP	28	288	6
NMTAP	29	0	7
NMTAP	29	96	7
NMTAP	29	192	0
NMTAP	29	192	1
NMTAP	30	0	1
NMTAP	30	96	1
NMTAP	30	192	2
NMTAP	30	288	2
NMTAP	31	0	3
NMTAP	31	96	3
NMTAP	31	192	4
NMTAP	31	192	5
NMTAP	32	0	6
NMTAP	32	96	6
NMTAP	32	192	5
NMTAP	32	288	5
NMTAP	33	0	4
NMTAP	33	96	4
NMTAP	33	192	2
NMTAP	33	192	3
NMSTR	34	0	1
NMSXL	34	0	1	96	480	4
NMSTR	36	0	6
NMSXR	36	0	6	96	480	3
NMTAP	38	0	1
NMTAP	38	96	1
NMTAP	38	192	0
NMTAP	38	192	1
NMTAP	39	0	2
NMTAP	39	96	2
NMTAP	39	192	2
NMTAP	39	192	3
NMTAP	40	0	5
NMTAP	40	96	5
NMTAP	40	192	4
NMTAP	40	192	5
NMTAP	41	0	6
NMTAP	41	96	6
NMTAP	41	192	6
NMTAP	41	192	7
NMHLD	42	0	5	384
NMHLD	43	0	4	384
NMHLD	44	0	3	384
NMTAP	45	0	2
NMHLD	46	0	2	384
NMHLD	47	0	3	384
NMHLD	48	0	4	384
NMTAP	49	0	5
NMTAP	50	0	6
NMTAP	50	96	6
NMTAP	50	192	6
NMTAP	50	192	7
NMTAP	50	288	6
NMTAP	50	288	7
NMTAP	51	0	5
NMTAP	51	96	5
NMTAP	51	192	4
NMTAP	51	192	5
NMTAP	51	288	4
NMTAP	51	288	5
NMTAP	52	0	3
NMTAP	52	96	3
NMTAP	52	192	2
NMTAP	52	192	3
NMTAP	52	288	2
NMTAP	52	288	3
NMTAP	53	0	0
NMTAP	53	0	1
NMTAP	53	96	0
NMTAP	53	96	1
NMTAP	53	192	0
NMTAP	53	192	1
NMTAP	54	0	1
NMTAP	54	96	1
NMTAP	54	192	0
NMTAP	54	192	1
NMTAP	54	288	0
NMTAP	54	288	1
NMTAP	55	0	2
NMTAP	55	96	2
NMTAP	55	192	2
NMTAP	55	192	3
NMTAP	55	288	2
NMTAP	55	288	3
NMTAP	56	0	4
NMTAP	56	96	4
NMTAP	56	192	4
NMTAP	56	192	5
NMTAP	56	288	4
NMTAP	56	288	5
NMTAP	57	0	6
NMTAP	57	0	7
NMTAP	57	96	6
NMTAP	57	96	7
NMTAP	57	192	6
NMTAP	57	192	7
NMHLD	58	0	0	192
NMHLD	58	0	7	192
NMTAP	59	0	6
NMTAP	59	96	6
NMTAP	59	192	5
NMTAP	59	288	5
NMTAP	60	0	4
NMTAP	60	96	4
NMTAP	60	192	2
NMTAP	60	192	3
NMTAP	61	0	1
NMTAP	61	96	1
NMTAP	61	192	2
NMTAP	61	288	2
NMTAP	62	0	3
NMTAP	62	96	3
NMTAP	62	192	4
NMTAP	62	192	5
NMTAP	63	0	6
NMTAP	63	96	6
NMTAP	63	192	5
NMTAP	63	288	5
NMTAP	64	0	4
NMTAP	64	96	4
NMTAP	64	192	3
NMTAP	64	288	3
NMTAP	65	0	2
NMTAP	65	96	2
NMTAP	65	192	1
NMTAP	65	288	1
EXTAP	66	0	0
EXTAP	66	0	7
NMTTP	67	0	1	B	0	L1
NMTTP	67	96	2	B	0	L1
NMTTP	67	192	3	B	0	L1
NMTTP	68	0	6	B	0	L1
NMTTP	68	96	5	B	0	L1
NMTTP	68	192	4	B	0	L1
NMTTP	69	0	0	B	0	L1
NMTTP	69	96	1	B	0	L1
NMTTP	69	192	2	B	0	L1
NMTTP	69	192	3	B	0	L1
NMTTP	70	0	7	B	0	L1
NMTTP	70	96	6	B	0	L1
NMTTP	70	192	4	B	0	L1
NMTTP	70	192	5	B	0	L1
NMTTP	71	0	1	B	0	L1
NMTTP	71	96	2	B	0	L1
NMTTP	71	192	3	B	0	L1
NMTTP	71	288	4	B	0	L1
NMTTP	72	0	5	B	0	L1
NMTTP	72	96	6	B	0	L1
NMTTP	72	192	0	B	0	L1
NMTTP	72	192	7	B	0	L1
NMTTP	73	0	2	B	0	L1
NMTTP	73	96	1	B	0	L1
NMTTP	73	192	0	B	0	L1
NMTTP	73	288	7	B	0	L1
NMTTP	74	0	6	B	0	L1
NMTTP	74	96	5	B	0	L1
NMTTP	74	192	3	B	0	L1
NMTTP	74	192	4	B	0	L1
NMTTP	75	0	0	C	1	L1
NMTAP	77	0	2
NMTAP	77	0	3
NMTAP	77	96	2
NMTAP	77	96	3
NMTAP	77	192	0
NMTAP	77	192	1
NMTAP	77	288	0
NMTAP	77	288	1
NMTAP	78	0	7
NMTAP	78	48	7
NMTAP	78	96	7
NMTAP	78	192	6
NMTAP	78	192	7
NMTAP	79	0	6
NMTAP	79	96	6
NMTAP	79	192	4
NMTAP	79	192	5
NMTAP	79	288	4
NMTAP	79	288	5
NMTAP	80	0	3
NMTAP	80	48	3
NMTAP	80	96	3
NMTAP	80	192	2
NMTAP	80	192	3
NMTAP	81	0	1
NMTAP	81	48	1
NMTAP	81	96	1
NMTAP	81	192	0
NMTAP	81	192	1
NMTAP	82	0	2
NMTAP	82	48	2
NMTAP	82	96	2
NMTAP	82	192	2
NMTAP	82	192	3
NMTAP	83	0	4
NMTAP	83	48	4
NMTAP	83	96	4
NMTAP	83	192	4
NMTAP	83	192	5
BXTAP	84	0	6
BXTAP	84	0	7
NMTAP	85	0	4
NMTAP	85	0	5
NMTAP	85	96	4
NMTAP	85	96	5
NMTAP	85	192	6
NMTAP	85	192	7
NMTAP	85	288	6
NMTAP	85	288	7
NMTAP	86	0	0
NMTAP	86	48	0
NMTAP	86	96	0
NMTAP	86	192	0
NMTAP	86	192	1
NMTAP	87	0	1
NMTAP	87	96	1
NMTAP	87	192	2
NMTAP	87	192	3
NMTAP	87	288	2
NMTAP	87	288	3
NMTAP	88	0	4
NMTAP	88	48	4
NMTAP	88	96	4
NMTAP	88	192	4
NMTAP	88	192	5
NMTAP	89	0	6
NMTAP	89	48	6
NMTAP	89	96	6
NMTAP	89	192	6
NMTAP	89	192	7
NMTAP	90	0	5
NMTAP	90	48	5
NMTAP	90	96	5
NMTAP	90	192	4
NMTAP	90	192	5
NMTAP	91	0	3
NMTAP	91	48	3
NMTAP	91	96	3
NMTAP	91	192	2
NMTAP	91	192	3
NMTAP	92	0	1
NMTAP	92	48	1
NMTAP	92	96	1
BRTAP	92	192	0
BRTAP	92	192	7
NMSTR	93	0	1
NMSI_	93	0	1	96	192	4
NMSTR	94	0	6
NMSI_	94	0	6	96	192	3
NMSTR	95	0	1
NMSV_	95	0	1	96	192	4
NMSTR	96	0	6
NMSV_	96	0	6	96	192	3
NMTAP	97	0	2
NMTAP	97	96	1
NMTAP	97	192	0
NMTAP	97	288	7
NMTAP	98	0	6
NMTAP	98	96	5
NMTAP	98	192	4
NMTAP	98	288	3
NMTAP	99	0	2
NMTAP	99	96	1
NMTAP	99	192	0
NMTAP	99	192	7
EXTAP	100	0	1
EXTAP	100	0	6
EXTAP	100	72	1
EXTAP	100	72	6
EXTAP	100	144	1
EXTAP	100	144	6
NMTAP	101	0	2
NMTAP	101	48	2
NMTAP	101	96	2
NMTAP	101	192	1
NMTAP	101	240	1
NMTAP	101	288	1
NMTAP	102	0	0
NMTAP	102	48	0
NMTAP	102	96	0
NMTAP	102	192	6
NMTAP	102	192	7
NMTAP	103	0	5
NMTAP	103	48	5
NMTAP	103	96	5
NMTAP	103	192	6
NMTAP	103	240	6
NMTAP	103	288	6
NMTAP	104	0	7
NMTAP	104	48	7
NMTAP	104	96	7
NMTAP	104	192	0
NMTAP	104	192	1
NMTAP	105	0	1
NMTAP	105	48	1
NMTAP	105	96	1
NMTAP	105	192	2
NMTAP	105	240	2
NMTAP	105	288	2
NMTAP	106	0	3
NMTAP	106	48	3
NMTAP	106	96	3
NMTAP	106	192	4
NMTAP	106	192	5
NMTAP	107	0	6
NMTAP	107	48	6
NMTAP	107	96	6
NMTAP	107	192	5
NMTAP	107	240	5
NMTAP	107	288	5
NMTAP	108	0	4
NMTAP	108	48	4
NMTAP	108	96	4
NMTAP	108	192	2
NMTAP	108	192	3
EXTAP	109	0	2
NMTAP	109	72	2
NMTAP	109	144	2
NMTAP	109	216	2
EXTAP	110	0	3
NMTAP	110	72	3
NMTAP	110	144	3
NMTAP	110	216	3
EXTAP	111	0	4
NMTAP	111	72	4
NMTAP	111	144	4
NMTAP	111	216	4
EXTAP	112	0	5
NMTAP	112	72	5
NMTAP	112	144	5
NMTAP	112	216	5
EXTAP	113	0	6
NMTAP	113	72	6
NMTAP	113	144	6
NMTAP	113	216	6
NMTAP	113	288	6
NMTAP	113	288	7
EXTAP	114	0	5
NMTAP	114	72	5
NMTAP	114	144	5
NMTAP	114	216	5
NMTAP	114	288	4
NMTAP	114	288	5
EXTAP	115	0	2
NMTAP	115	72	2
NMTAP	115	144	2
NMTAP	115	216	2
NMTAP	115	288	2
NMTAP	115	288	3
EXTAP	116	0	1
NMTAP	116	72	1
NMTAP	116	144	1
NMTAP	116	216	1
NMTAP	116	288	0
NMTAP	116	288	1
BXTAP	117	0	0
BXTAP	117	0	7

T_REC_TAP	345
T_REC_BRK	4
T_REC_XTP	28
T_REC_BXX	4
T_REC_HLD	16
T_REC_XHO	0
T_REC_BHO	0
T_REC_BXH	0
T_REC_STR	6
T_REC_BST	0
T_REC_XST	0
T_REC_XBS	0
T_REC_TTP	31
T_REC_THO	0
T_REC_SLD	6
T_REC_BSL	0
T_REC_ALL	440
T_NUM_TAP	410
T_NUM_BRK	8
T_NUM_HLD	16
T_NUM_SLD	6
T_NUM_ALL	440
T_JUDGE_TAP	418
T_JUDGE_HLD	80
T_JUDGE_SLD	6
T_JUDGE_ALL	504
TTM_EACHPAIRS	88
TTM_SCR_TAP	205000
TTM_SCR_BRK	20800
TTM_SCR_HLD	16000
TTM_SCR_SLD	9000
TTM_SCR_ALL	250800
TTM_SCR_S	242500
TTM_SCR_SS	250000
TTM_RAT_ACV	10032

