VERSION	0.00.00	1.04.00
FES_MODE	0
BPM_DEF	185.000	185.000	185.000	185.000
MET_DEF	4	4
RESOLUTION	384
CLK_DEF	384
COMPATIBLE_CODE	MA2

BPM	0	0	185.000
MET	0	0	4	4

NMSTR	2	0	2
NMSI_	2	0	2	96	72	5
NMHLD	2	0	4	240
CNSI_	2	168	5	0	72	7
EXTAP	2	336	1
EXTAP	2	336	3
EXTAP	3	48	3
EXTAP	3	48	4
EXTAP	3	144	4
EXTAP	3	144	6
NMTAP	3	240	0
NMTAP	3	240	7
NMTAP	3	288	0
NMTAP	3	288	7
NMSTR	4	0	1
NMSI_	4	0	1	96	72	3
NMHLD	4	0	4	240
CNSV_	4	168	3	0	72	5
NMTAP	4	336	3
NMTAP	4	336	6
NMTAP	5	48	4
NMTAP	5	48	5
NMSTR	5	96	4
NMSCL	5	96	4	96	96	1
NMTAP	5	96	5
NMTAP	5	240	7
NMTAP	5	288	7
NMTAP	5	336	6
NMSTR	6	0	5
NMSV_	6	0	5	96	96	0
NMSTR	6	96	0
NMSLL	6	96	0	96	120	4
NMTAP	6	240	1
NMTAP	6	288	1
NMSTR	7	0	0
NMSI_	7	0	0	96	96	4
NMSTR	7	96	4
NMSLL	7	96	4	96	120	7
NMTAP	7	240	5
NMTAP	7	336	6
NMSTR	8	0	6
NMSXL	8	0	6	96	192	3
NMTAP	8	240	2
NMTAP	8	288	2
NMSTR	8	336	1
NMSCR	8	336	1	96	96	4
NMSTR	9	48	4
NMSUL	9	48	4	96	96	7
NMTAP	9	144	6
NMTAP	9	240	5
NMTAP	9	288	5
NMHLD	10	0	4	48
NMHLD	10	0	6	48
NMHLD	10	96	4	48
NMHLD	10	96	6	48
NMTAP	10	192	3
NMTAP	10	192	5
NMTAP	10	264	2
NMTAP	10	264	4
NMTAP	10	336	1
NMTAP	10	336	3
NMHLD	11	0	1	48
NMHLD	11	0	3	48
NMHLD	11	96	1	48
NMHLD	11	96	3	48
NMTAP	11	192	2
NMTAP	11	192	4
NMTAP	11	264	3
NMTAP	11	264	5
NMTAP	11	336	4
NMTAP	11	336	6
NMHLD	12	0	4	48
NMHLD	12	0	6	48
NMHLD	12	96	4	48
NMHLD	12	96	5	48
NMTAP	12	192	3
NMTAP	12	192	6
NMTAP	12	264	2
NMTAP	12	264	5
NMTAP	12	336	1
NMTAP	12	336	4
NMHLD	13	0	1	48
NMHLD	13	0	4	48
NMHLD	13	96	0	48
NMHLD	13	96	3	48
NMTAP	13	192	1
NMTAP	13	192	4
NMTAP	13	264	2
NMTAP	13	264	5
NMTAP	13	336	3
NMTAP	13	336	6
NMTAP	14	0	3
NMTAP	14	0	6
NMTAP	14	48	5
NMTAP	14	96	2
NMTAP	14	96	4
NMTAP	14	144	1
NMTAP	14	192	6
NMTAP	14	216	7
NMTAP	14	240	6
NMTAP	14	288	0
NMTAP	14	288	5
NMTAP	15	0	1
NMTAP	15	0	4
NMTAP	15	48	2
NMTAP	15	96	3
NMTAP	15	96	5
NMTAP	15	144	6
NMTAP	15	192	1
NMTAP	15	216	0
NMTAP	15	240	1
NMTAP	15	288	2
NMTAP	15	288	7
NMTAP	16	0	3
NMTAP	16	0	4
NMTAP	16	48	2
NMTAP	16	48	5
NMTAP	16	96	1
NMTAP	16	96	6
NMTAP	16	144	0
NMTAP	16	144	7
NMTAP	16	192	0
NMTAP	16	216	7
NMTAP	16	240	0
NMTAP	16	264	7
EXTAP	16	288	0
EXTAP	16	300	1
EXTAP	16	312	2
EXTAP	16	324	3
EXTAP	16	336	4
EXTAP	16	348	5
EXTAP	16	360	6
EXTAP	16	372	7
EXSTR	17	0	0
NMSI_	17	0	0	96	48	4
NMSTR	17	48	6
NMSI_	17	48	6	96	48	2
NMTAP	17	96	0
NMTAP	17	144	6
NMSTR	17	192	7
NMSF_	17	192	7	96	48	3
NMTAP	17	288	7
BRTAP	18	0	1
BRTAP	18	0	5
NMTAP	18	96	1
NMTAP	18	96	4
NMTAP	18	144	2
NMTAP	18	168	3
NMTAP	18	192	2
NMTAP	18	240	4
NMTAP	18	264	3
NMTAP	18	288	4
NMTAP	18	336	2
NMTAP	18	360	3
NMTAP	19	0	2
NMTAP	19	48	4
NMTAP	19	72	3
NMTAP	19	96	5
NMTAP	19	144	2
NMTAP	19	168	3
NMTAP	19	192	1
NMTAP	19	240	5
NMTAP	19	264	4
NMTAP	19	288	6
NMTAP	19	336	0
NMTAP	19	336	1
BRTAP	20	0	2
BRTAP	20	0	7
NMTAP	20	96	4
NMSTR	20	96	6
NMSCR	20	96	6	96	96	3
NMTAP	20	144	5
NMTAP	20	192	4
NMTAP	20	192	6
NMTAP	21	0	2
NMTAP	21	24	3
NMTAP	21	72	5
NMTAP	21	96	4
NMTAP	21	144	3
NMTAP	21	144	6
NMTAP	21	192	0
NMTAP	21	192	1
NMTAP	21	240	2
NMTAP	21	288	3
NMTAP	21	288	4
NMTAP	21	336	5
NMTAP	22	0	6
NMTAP	22	0	7
NMTAP	22	96	3
NMHLD	22	96	6	48
NMTAP	22	144	2
NMHLD	22	192	1	48
NMTAP	22	192	4
NMTAP	22	240	5
NMTAP	22	288	2
NMTAP	22	288	6
NMHLD	23	0	1	48
NMTAP	23	0	4
NMTAP	23	48	5
NMTAP	23	96	3
NMHLD	23	96	6	48
NMTAP	23	144	2
NMTAP	23	192	1
NMTAP	23	192	5
NMTAP	23	240	0
NMTAP	23	240	4
NMTAP	23	288	0
NMTAP	23	288	4
BRTAP	24	0	1
BRSTR	24	0	5
NMSCR	24	0	5	96	96	1
NMHLD	24	96	3	48
CNSCL	24	192	1	0	96	5
NMHLD	24	192	4	48
NMTAP	24	288	3
NMTAP	25	0	5
NMTAP	25	24	4
NMTAP	25	72	2
NMTAP	25	96	3
NMHLD	25	144	1	48
NMHLD	25	144	4	48
NMTAP	25	240	6
NMTAP	25	240	7
NMTAP	25	288	0
NMTAP	25	288	5
NMTAP	25	336	1
NMTAP	25	336	4
NMSTR	26	0	2
NMSCL	26	0	2	96	96	4
NMTAP	26	0	3
EXSTR	26	192	3
NMSLL	26	192	3	96	72	7
CNSI_	26	360	7	0	24	5
EXSTR	27	0	4
NMSCR	27	0	4	96	96	2
EXSTR	27	192	3
NMSI_	27	192	3	96	48	7
EXTAP	27	288	3
NMTAP	28	0	0
NMTAP	28	0	6
NMTAP	28	96	0
NMTAP	28	96	1
NMTAP	28	144	2
NMTAP	28	192	6
NMTAP	28	192	7
NMTAP	28	240	5
NMTAP	28	288	0
NMTAP	28	288	7
NMTAP	29	0	1
NMTAP	29	24	3
NMTAP	29	72	6
NMTAP	29	96	4
NMTAP	29	144	3
NMTAP	29	144	7
NMTAP	29	192	3
NMTAP	29	192	7
NMTAP	29	240	5
NMTAP	29	288	0
NMTAP	29	288	4
NMTAP	29	336	2
BRTAP	30	0	3
BRTAP	30	0	4
NMHLD	30	96	2	48
NMTAP	30	96	4
NMTAP	30	144	5
NMTAP	30	192	3
NMHLD	30	192	6	48
NMTAP	30	240	2
NMTAP	30	288	1
NMTAP	30	288	4
NMSTR	31	0	5
NMSI_	31	0	5	96	48	0
NMTAP	31	48	5
NMSTR	31	96	1
NMSI_	31	96	1	96	48	5
NMTAP	31	144	1
NMSTR	31	192	7
NMSI_	31	192	7	96	48	4
NMTAP	31	240	7
NMTAP	31	288	3
NMTAP	32	0	2
NMTAP	32	48	1
NMTAP	32	48	3
NMTAP	32	96	5
NMTAP	32	144	4
NMTAP	32	144	6
NMTAP	32	192	0
NMTAP	32	216	7
NMTAP	32	240	0
NMTAP	32	264	7
NMTAP	32	288	1
NMTAP	32	312	6
NMTAP	32	336	1
EXTAP	33	0	3
EXTAP	33	0	4
NMTAP	33	48	5
NMTAP	33	72	4
NMTAP	33	120	2
NMTAP	33	144	3
EXTAP	33	192	1
EXTAP	33	192	4
NMTAP	33	240	0
NMTAP	33	240	7
BRTAP	33	288	3
BRTAP	33	288	6
EXHLD	34	0	7	48
NMTAP	34	48	2
NMHLD	34	72	6	48
NMTAP	34	120	1
NMHLD	34	144	5	48
NMSTR	34	192	0
NMSI_	34	192	0	96	48	4
NMSTR	34	240	4
NMSI_	34	240	4	96	48	7
NMHLD	35	0	5	48
EXTAP	35	48	0
NMHLD	35	72	6	48
NMTAP	35	120	1
NMHLD	35	144	7	48
NMSTR	35	192	2
NMSV_	35	192	2	96	48	0
NMSTR	35	240	0
NMSUR	35	240	0	96	48	4
NMHLD	36	0	7	48
EXTAP	36	48	3
NMHLD	36	72	6	48
NMTAP	36	120	2
NMHLD	36	144	5	48
NMSTR	36	192	1
NMSI_	36	192	1	96	48	4
NMSTR	36	240	4
NMSV_	36	240	4	96	48	7
EXHLD	37	0	6	48
EXHLD	37	72	5	48
EXHLD	37	72	7	48
EXTAP	37	144	0
EXSTR	37	144	4
NMSCR	37	144	4	96	96	2
EXHLD	38	0	2	48
EXHLD	38	0	3	48
NMHLD	38	72	3	48
NMHLD	38	72	4	48
NMTAP	38	144	4
NMTAP	38	144	5
NMTAP	38	192	6
NMTAP	38	216	7
NMTAP	38	240	6
NMTAP	38	264	7
NMTAP	38	288	6
NMHLD	39	0	4	48
NMHLD	39	0	5	48
NMHLD	39	72	3	48
NMHLD	39	72	4	48
NMTAP	39	144	2
NMTAP	39	144	3
NMTAP	39	192	1
NMTAP	39	216	0
NMTAP	39	240	1
NMTAP	39	264	0
NMTAP	39	288	1
NMTAP	40	0	2
NMTAP	40	0	4
NMTAP	40	48	2
NMTAP	40	48	4
NMTAP	40	96	3
NMTAP	40	96	5
NMTAP	40	144	3
NMTAP	40	144	5
NMTAP	40	192	2
NMTAP	40	216	6
NMTAP	40	240	2
NMTAP	40	264	6
NMTAP	40	288	1
NMTAP	40	312	7
NMTAP	40	336	1
NMTAP	40	360	7
NMSTR	41	0	0
NMSXL	41	0	0	96	192	4
NMTHO	42	0	0	672	C	1	M1
EXTAP	42	0	5
NMHLD	42	96	6	48
NMHLD	42	192	5	48
NMHLD	42	288	4	48
NMTAP	43	0	3
NMTAP	43	48	3
NMTAP	43	96	4
NMTAP	43	144	4
NMTAP	43	192	5
NMTAP	43	240	6
NMTAP	43	288	7
BXSTR	44	0	0
NMSLR	44	0	0	96	96	4
BXHLD	44	0	6	480
CNSV_	44	192	4	0	96	1
CNSLR	44	288	1	0	96	5
CNSI_	45	0	5	0	96	7
NMTAP	45	192	1
NMTAP	45	192	5
NMTTP	45	288	0	B	0	M1
NMTTP	45	288	0	E	0	M1
NMTTP	45	288	0	A	0	M1
NMTTP	45	288	0	D	1	M1
NMTTP	45	288	1	E	0	M1
NMTTP	45	288	1	D	0	M1
NMTTP	45	288	7	B	0	M1
NMTTP	45	288	7	E	0	M1
NMTTP	45	288	7	A	0	M1
NMTTP	45	288	7	D	0	M1
BXHLD	46	0	2	480
BXSTR	46	0	4
BRSLR	46	0	4	96	96	0
CNSV_	46	192	0	0	96	5
CNSLR	46	288	5	0	96	1
CNSI_	47	0	1	0	96	3
NMTAP	47	192	1
NMTAP	47	192	5
NMTTP	47	288	2	B	0	M1
NMTTP	47	288	2	A	0	M1
NMTTP	47	288	3	B	0	M1
NMTTP	47	288	3	E	0	M1
NMTTP	47	288	3	A	1	M1
NMTTP	47	288	3	D	0	M1
NMTTP	47	288	4	B	0	M1
NMTTP	47	288	4	E	0	M1
NMTTP	47	288	4	A	0	M1
NMTTP	47	288	4	D	0	M1
NMSTR	48	0	1
NMSI_	48	0	1	96	48	4
EXHLD	48	0	5	576
CNSI_	48	144	4	0	48	7
CNSI_	48	192	7	0	48	2
CNSI_	48	240	2	0	48	5
CNSI_	48	288	5	0	48	0
CNSI_	48	336	0	0	144	3
CNSI_	49	96	3	0	96	6
BRTAP	49	288	0
BRTAP	49	288	4
NMSTR	50	0	1
NMSI_	50	0	1	96	48	3
NMHLD	50	0	3	96
NMHLD	50	192	4	48
NMHLD	50	192	5	48
NMTAP	50	264	3
NMTAP	50	264	6
NMHLD	51	0	1	48
NMHLD	51	0	2	48
NMHLD	51	72	3	48
NMHLD	51	72	4	48
NMTAP	51	144	5
NMTAP	51	144	6
NMSTR	51	192	5
NMSI_	51	192	5	96	48	0
NMSTR	51	192	6
NMSI_	51	192	6	96	48	3
NMSTR	52	0	1
NMSI_	52	0	1	96	48	4
NMTAP	52	96	1
EXTAP	52	192	4
EXTAP	52	192	7
NMTAP	52	240	6
NMTAP	52	264	5
NMTAP	52	312	5
NMTAP	52	336	4
NMTAP	53	0	4
NMTAP	53	24	3
NMTAP	53	72	3
NMTAP	53	96	2
EXTAP	53	144	1
EXTAP	53	144	4
EXTAP	53	192	1
EXTAP	53	192	4
NMTTP	53	288	2	B	0	M1
NMTTP	53	288	2	E	0	M1
NMTTP	53	288	2	A	0	M1
NMTTP	53	288	2	D	0	M1
NMTTP	53	288	3	B	0	M1
NMTTP	53	288	3	E	1	M1
NMTTP	53	288	3	A	0	M1
NMTTP	53	288	3	D	0	M1
NMTTP	53	288	4	E	0	M1
NMTTP	53	288	4	D	0	M1
NMHLD	54	0	6	96
NMSTR	54	0	7
NMSI_	54	0	7	96	48	5
NMHLD	54	192	4	48
NMHLD	54	192	7	48
NMHLD	54	264	2	48
NMHLD	54	264	5	48
NMTAP	54	336	0
NMTAP	54	336	3
NMHLD	55	0	0	48
NMHLD	55	0	3	48
NMHLD	55	72	2	48
NMHLD	55	72	5	48
NMTAP	55	144	4
NMTAP	55	144	7
NMSTR	55	192	4
NMSI_	55	192	4	96	48	0
NMSTR	55	192	7
NMSI_	55	192	7	96	48	3
NMSTR	56	0	1
NMSI_	56	0	1	96	48	5
NMTAP	56	96	1
NMHLD	56	192	4	48
NMHLD	56	192	6	48
NMTAP	56	264	3
NMTAP	56	264	7
NMTAP	57	0	1
NMTAP	57	0	5
NMTAP	57	48	2
NMTAP	57	72	3
NMTAP	57	120	3
NMTAP	57	144	4
NMTAP	57	192	3
NMTAP	57	192	5
BRTAP	57	288	1
BRTAP	57	288	7
EXTAP	58	0	3
EXSTR	58	0	4
NMSXL	58	0	4	96	576	7
NMSTR	60	0	0
NMSCR	60	0	0	96	576	7
NMTTP	62	0	1	E	0	M1
NMTTP	62	96	2	E	0	M1
NMTTP	62	192	3	E	0	M1
NMTTP	62	288	4	E	0	M1
NMTTP	63	0	5	E	0	M1
NMTTP	63	96	6	E	0	M1
NMTTP	63	192	7	E	0	M1
NMTTP	63	288	0	E	0	M1
NMTTP	64	0	1	E	0	M1
NMTTP	64	96	2	E	0	M1
NMTTP	64	192	3	E	0	M1
NMTTP	64	288	4	E	0	M1
NMTTP	65	0	3	E	0	M1
NMTTP	65	0	3	D	0	M1
NMTTP	65	0	5	E	0	M1
NMTTP	65	0	5	D	0	M1
NMTTP	65	96	1	E	0	M1
NMTTP	65	96	1	D	0	M1
NMTTP	65	96	7	E	0	M1
NMTTP	65	96	7	D	0	M1
NMTHO	65	192	0	96	C	0	M1
EXSTR	66	0	1
NMSUL	66	0	1	96	240	4
CNSUL	66	336	4	0	240	7
NMTAP	67	288	0
NMTAP	67	288	6
NMSTR	68	0	5
NMSLR	68	0	5	96	192	3
NMSTR	69	0	2
NMSV_	69	0	2	96	96	7
NMTAP	69	96	3
NMTAP	69	192	4
CNSLR	69	192	7	0	96	3
NMTAP	69	288	5
NMTAP	70	0	4
NMTAP	70	0	5
NMTAP	70	48	6
NMTAP	70	96	0
NMTAP	70	96	7
NMTAP	70	144	1
NMSTR	70	192	2
NMSI_	70	192	2	96	48	7
NMHLD	70	192	3	96
NMTAP	71	0	0
NMTAP	71	0	6
NMTAP	71	48	5
NMTAP	71	96	3
NMTAP	71	96	4
NMTAP	71	144	2
NMHLD	71	192	0	96
NMSTR	71	192	1
NMSI_	71	192	1	96	48	4
NMTAP	72	0	3
NMTAP	72	0	5
NMTAP	72	48	6
NMTAP	72	96	2
NMTAP	72	96	4
NMTAP	72	144	1
NMTAP	72	192	0
NMTAP	72	216	7
NMTAP	72	240	0
NMTAP	72	264	7
NMTAP	72	288	0
NMTAP	72	312	7
NMTAP	72	336	0
NMTAP	73	0	1
NMTAP	73	0	3
NMTAP	73	48	2
NMTAP	73	96	4
NMTAP	73	96	6
NMTAP	73	144	5
EXSTR	73	192	3
NMSI_	73	192	3	96	48	7
EXSTR	73	192	4
NMSI_	73	192	4	96	48	0
EXTAP	73	240	2
EXTAP	73	240	5
BRTAP	73	288	3
BRTAP	73	288	4
NMTAP	74	0	1
NMTAP	74	0	6
NMTAP	74	48	2
NMTAP	74	72	4
NMTAP	74	96	0
NMTAP	74	144	5
NMTAP	74	168	3
NMSTR	74	192	7
NMSI_	74	192	7	96	48	3
NMSTR	74	240	3
NMSF_	74	240	3	96	48	7
NMTAP	74	288	7
NMTAP	75	48	1
NMTAP	75	48	5
NMTAP	75	96	2
NMTAP	75	96	6
NMTAP	75	144	3
NMTAP	75	144	7
NMSTR	75	192	0
NMSCL	75	192	0	96	48	5
NMSTR	75	192	4
NMSCL	75	192	4	96	48	1
NMTAP	75	288	0
NMTAP	75	288	4
NMTAP	76	0	2
NMTAP	76	0	6
NMTAP	76	48	5
NMTAP	76	72	4
NMTAP	76	96	5
NMTAP	76	144	1
NMTAP	76	168	3
NMSTR	76	192	2
NMSCL	76	192	2	96	48	7
NMSTR	76	240	7
NMSUL	76	240	7	96	48	3
NMTAP	76	288	2
NMTAP	76	336	6
NMTAP	77	48	5
NMTAP	77	96	6
NMTAP	77	144	7
NMTAP	77	192	0
NMSTR	77	192	1
NMSI_	77	192	1	96	48	5
NMTAP	77	240	2
NMTAP	77	288	1
NMTAP	77	288	7
NMTAP	78	0	4
NMTAP	78	0	6
NMTAP	78	48	7
NMTAP	78	96	0
NMTAP	78	96	1
NMTAP	78	144	2
NMSTR	78	192	3
NMSCL	78	192	3	96	48	0
NMSTR	78	192	6
NMSCL	78	192	6	96	48	3
BRTAP	78	288	3
BRTAP	78	288	6
NMTAP	79	0	1
NMTAP	79	0	3
NMTAP	79	48	0
NMTAP	79	96	6
NMTAP	79	96	7
NMTAP	79	144	5
NMSTR	79	192	1
NMSI_	79	192	1	96	48	4
NMSTR	79	192	4
NMSI_	79	192	4	96	48	7
BRTAP	79	288	1
BRTAP	79	288	4
NMTAP	80	0	3
NMTAP	80	0	6
NMTAP	80	48	5
NMTAP	80	96	2
NMTAP	80	96	3
NMSTR	80	144	0
NMSCL	80	144	0	96	96	2
NMTAP	80	144	1
NMTAP	80	240	2
NMTAP	80	288	1
NMSTR	80	336	7
BRSLR	80	336	7	96	72	3
NMTAP	81	48	5
NMTAP	81	96	6
CNSI_	81	120	3	0	24	5
BRTAP	81	192	3
BRTAP	81	192	7
NMTAP	81	288	5
NMTAP	81	312	4
NMTAP	81	336	5
NMSTR	82	0	2
NMSV_	82	0	2	96	48	7
NMSTR	82	0	6
NMSI_	82	0	6	96	48	3
NMTAP	82	96	2
NMTAP	82	96	6
NMSTR	82	192	1
NMSI_	82	192	1	96	48	7
NMTAP	82	240	5
NMSTR	82	288	1
NMSI_	82	288	1	96	48	3
NMTAP	82	336	4
NMSTR	83	0	1
NMSI_	83	0	1	96	48	7
NMTAP	83	48	6
NMSTR	83	96	1
NMSI_	83	96	1	96	48	5
NMTAP	83	144	4
NMTAP	83	192	1
NMTAP	83	240	7
NMTAP	83	288	4
NMTAP	83	288	6
NMTAP	84	0	1
NMTAP	84	0	7
NMTAP	84	48	2
NMTAP	84	48	6
NMTAP	84	96	3
NMTAP	84	96	5
NMTAP	84	144	0
NMTAP	84	144	6
NMTAP	84	192	1
NMTAP	84	192	5
NMTAP	84	240	2
NMTAP	84	240	4
NMTAP	84	288	3
NMTAP	84	312	4
NMTAP	84	336	3
NMTAP	84	360	4
NMTAP	85	0	2
NMSTR	85	0	5
NMSI_	85	0	5	96	48	2
NMSTR	85	96	1
NMSI_	85	96	1	96	48	4
NMSTR	85	96	5
NMSI_	85	96	5	96	48	0
EXSTR	85	192	1
NMSCL	85	192	1	96	96	3
EXTAP	85	192	5
EXTAP	85	288	1
NMTAP	86	0	0
NMTAP	86	48	0
NMTAP	86	96	1
NMTAP	86	96	3
NMTAP	86	144	2
NMTAP	86	192	4
NMTAP	86	192	6
NMTAP	86	240	5
NMTAP	86	288	3
NMTAP	86	288	4
NMTAP	86	336	2
NMTAP	87	0	0
NMTAP	87	0	1
NMTAP	87	48	7
NMTAP	87	96	4
NMTAP	87	96	6
NMTAP	87	144	3
NMTAP	87	144	4
NMTAP	87	192	1
NMTAP	87	192	3
NMTAP	87	288	0
NMTAP	87	300	1
NMTAP	87	312	2
NMTAP	87	324	3
NMTAP	87	336	4
NMTAP	87	348	5
NMTAP	87	360	6
NMTAP	87	372	7
NMSTR	88	0	0
NMSCL	88	0	0	96	48	5
NMSCR	88	0	0	96	48	3
NMSTR	88	96	0
NMSI_	88	96	0	96	48	4
NMTAP	88	192	0
CNSLL	88	240	4	0	96	7
NMTAP	88	240	6
NMTAP	88	288	5
NMSTR	88	336	3
NMSI_	88	336	3	96	48	6
NMSTR	89	48	1
NMSI_	89	48	1	96	48	4
NMTAP	89	48	3
NMTAP	89	144	1
NMTAP	89	144	7
NMTAP	89	192	7
BRTAP	89	288	2
BRTAP	89	288	6
NMSTR	90	0	1
NMSI_	90	0	1	96	48	3
NMSTR	90	48	0
NMSI_	90	48	0	96	48	4
NMSTR	90	96	1
BRSCL	90	96	1	96	96	3
NMTAP	90	144	0
NMTAP	90	192	1
EXTAP	90	288	7
BXSTR	90	336	7
NMSI_	90	336	7	96	48	3
NMSTR	91	48	1
NMSI_	91	48	1	96	48	5
NMTAP	91	48	7
NMTAP	91	96	0
NMTAP	91	144	1
NMSTR	91	144	7
NMSLL	91	144	7	96	48	3
NMTAP	91	192	0
NMTAP	91	240	1
NMTAP	91	240	7
NMTAP	91	288	0
NMSTR	92	0	6
NMSI_	92	0	6	96	48	4
NMSTR	92	48	7
NMSI_	92	48	7	96	48	3
NMSTR	92	96	6
BRSCR	92	96	6	96	96	4
NMTAP	92	144	7
NMTAP	92	192	6
EXTAP	92	288	0
BXSTR	92	336	0
NMSI_	92	336	0	96	48	4
NMTAP	93	48	0
NMSTR	93	48	6
NMSI_	93	48	6	96	48	2
NMTAP	93	96	7
NMSTR	93	144	0
NMSLR	93	144	0	96	48	4
NMTAP	93	144	6
NMTAP	93	192	7
NMTAP	93	240	0
NMTAP	93	240	6
NMTAP	93	288	7
NMSTR	94	0	6
NMSI_	94	0	6	96	48	3
NMSTR	94	48	3
NMSI_	94	48	3	96	48	6
NMSTR	94	96	6
NMSI_	94	96	6	96	48	1
NMSTR	94	144	1
NMSLR	94	144	1	96	96	7
NMHLD	94	192	2	96
NMSTR	95	0	1
NMSI_	95	0	1	96	48	4
NMSTR	95	48	4
NMSI_	95	48	4	96	48	1
NMSTR	95	96	1
NMSI_	95	96	1	96	48	6
NMSTR	95	144	6
NMSLL	95	144	6	96	96	0
NMHLD	95	192	5	96
EXTAP	96	0	1
EXTAP	96	0	3
NMTAP	96	48	2
NMTAP	96	48	4
NMTAP	96	96	3
NMTAP	96	96	5
NMTAP	96	144	4
NMTAP	96	144	6
NMTAP	96	192	5
NMTAP	96	216	4
NMSTR	96	240	6
NMSI_	96	240	6	96	48	2
NMTAP	96	264	4
NMTAP	96	288	5
NMSTR	96	336	0
NMSI_	96	336	0	96	48	4
NMTAP	96	336	6
NMTAP	97	48	0
NMSTR	97	48	5
NMSCL	97	48	5	96	72	0
NMTAP	97	144	5
EXTAP	97	240	3
EXSTR	97	288	2
NMSI_	97	288	2	96	48	5
NMTAP	98	0	2
NMSTR	98	0	6
NMSI_	98	0	6	96	48	3
NMSTR	98	96	1
NMSLR	98	96	1	96	48	5
NMTAP	98	96	6
NMTAP	98	192	1
NMTAP	98	192	5
EXTAP	98	264	7
EXSTR	98	288	7
NMSI_	98	288	7	96	48	3
NMTAP	98	336	0
NMSTR	99	0	1
NMSI_	99	0	1	96	48	4
NMTAP	99	0	7
NMTAP	99	96	1
NMSTR	99	96	5
NMSCR	99	96	5	96	24	6
NMTAP	99	192	3
NMTAP	99	192	5
CNSI_	99	216	6	0	24	0
EXTAP	99	264	2
EXSTR	99	288	2
NMSI_	99	288	2	96	48	7
NMTAP	99	336	7
NMTAP	100	0	2
NMSTR	100	0	6
NMSI_	100	0	6	96	48	2
NMSTR	100	96	0
NMSUL	100	96	0	96	48	4
NMTAP	100	96	6
NMTAP	100	192	0
NMTAP	100	192	6
EXTAP	100	264	5
EXSTR	100	288	5
NMSI_	100	288	5	96	48	1
NMTAP	100	336	3
NMSTR	101	0	2
NMSV_	101	0	2	96	48	7
NMTAP	101	0	5
NMTAP	101	96	2
NMSTR	101	96	6
NMSLL	101	96	6	96	48	2
NMTAP	101	192	0
NMTAP	101	192	6
EXTAP	101	264	7
EXTAP	101	288	7
NMTAP	101	336	0
NMTAP	101	336	3
NMTAP	102	0	0
NMTAP	102	0	3
NMTAP	102	48	1
NMTAP	102	96	4
NMTAP	102	96	7
NMTAP	102	144	6
NMSTR	102	192	2
NMSI_	102	192	2	96	48	7
NMTAP	102	216	3
NMTAP	102	240	1
NMTAP	102	264	3
NMTAP	102	288	2
NMTAP	103	0	5
NMTAP	103	48	6
NMTAP	103	96	1
NMTAP	103	96	7
NMTAP	103	144	2
NMSTR	103	192	5
NMSI_	103	192	5	96	48	0
NMTAP	103	216	4
NMTAP	103	240	6
NMTAP	103	264	4
NMTAP	103	288	5
NMSTR	104	0	1
BRSI_	104	0	1	96	48	5
NMTAP	104	24	7
NMTAP	104	48	3
NMTAP	104	72	5
NMTAP	104	96	1
NMSTR	104	192	6
BRSI_	104	192	6	96	48	2
NMTAP	104	216	0
NMTAP	104	240	4
NMTAP	104	264	2
NMTAP	104	288	6
NMTAP	105	0	1
NMTAP	105	48	0
NMTAP	105	48	1
NMTAP	105	96	3
NMTAP	105	96	5
NMTAP	105	144	6
NMTAP	105	144	7
NMSTR	105	192	2
NMSI_	105	192	2	96	48	6
NMSTR	105	192	4
NMSI_	105	192	4	96	48	0
BRTAP	105	288	2
BRTAP	105	288	4
NMTTP	106	0	0	C	1	M1
NMTTP	106	0	1	B	0	M1
NMTTP	106	0	3	B	0	M1
NMTTP	106	0	5	B	0	M1
NMTTP	106	0	7	B	0	M1

T_REC_TAP	515
T_REC_BRK	25
T_REC_XTP	44
T_REC_BXX	0
T_REC_HLD	67
T_REC_XHO	7
T_REC_BHO	0
T_REC_BXH	2
T_REC_STR	99
T_REC_BST	1
T_REC_XST	14
T_REC_XBS	4
T_REC_TTP	55
T_REC_THO	2
T_REC_SLD	113
T_REC_BSL	6
T_REC_ALL	954
T_NUM_TAP	727
T_NUM_BRK	38
T_NUM_HLD	76
T_NUM_SLD	113
T_NUM_ALL	954
T_JUDGE_TAP	757
T_JUDGE_HLD	135
T_JUDGE_SLD	119
T_JUDGE_ALL	1011
TTM_EACHPAIRS	213
TTM_SCR_TAP	363500
TTM_SCR_BRK	98800
TTM_SCR_HLD	76000
TTM_SCR_SLD	169500
TTM_SCR_ALL	707800
TTM_SCR_S	682900
TTM_SCR_SS	704000
TTM_RAT_ACV	10053

