VERSION	0.00.00	1.04.00
FES_MODE	0
BPM_DEF	185.000	185.000	185.000	185.000
MET_DEF	4	4
RESOLUTION	384
CLK_DEF	384
COMPATIBLE_CODE	MA2

BPM	0	0	185.000
MET	0	0	4	4

NMHLD	2	0	2	288
NMHLD	2	0	4	288
EXTAP	2	336	2
EXTAP	2	336	4
EXTAP	3	48	2
EXTAP	3	144	2
EXTAP	3	144	3
NMTAP	3	240	4
NMTAP	3	288	4
NMHLD	4	0	4	288
NMHLD	4	0	5	288
EXTAP	4	336	4
EXTAP	4	336	5
NMTAP	5	48	6
NMTAP	5	96	6
NMTAP	5	192	4
NMTAP	5	192	5
NMTAP	5	288	3
NMTAP	5	288	4
NMHLD	6	0	2	96
NMHLD	6	0	3	96
EXTAP	6	192	1
EXTAP	6	192	3
NMTAP	6	288	1
NMTAP	6	288	3
NMHLD	7	0	2	96
NMHLD	7	0	3	96
NMTAP	7	192	4
NMSTR	7	288	5
NMSCR	7	288	5	96	240	2
NMHLD	8	0	4	336
EXTAP	9	48	4
EXTAP	9	144	3
EXTAP	9	144	5
EXTAP	9	240	2
EXTAP	9	240	6
BXTAP	9	288	2
BXTAP	9	288	6
NMSTR	10	0	7
NMSCL	10	0	7	96	96	4
NMTAP	10	192	2
NMTAP	10	288	2
NMSTR	11	0	1
NMSCR	11	0	1	96	96	4
NMTAP	11	192	5
NMTAP	11	288	5
NMSTR	12	0	6
NMSCR	12	0	6	96	96	1
NMTAP	12	192	2
NMTAP	12	288	2
NMSTR	13	0	1
NMSCL	13	0	1	96	96	6
NMTAP	13	192	4
NMTAP	13	288	4
NMTAP	14	0	5
NMTAP	14	48	5
NMTAP	14	96	3
NMTAP	14	144	3
NMTAP	14	192	4
NMTAP	14	288	2
NMTAP	14	288	3
NMTAP	15	0	2
NMTAP	15	48	2
NMTAP	15	96	4
NMTAP	15	144	4
NMTAP	15	192	3
NMTAP	15	288	4
NMTAP	15	288	5
NMTAP	16	0	6
NMTAP	16	48	6
NMTAP	16	96	6
NMTAP	16	96	7
NMTAP	16	192	1
NMTAP	16	240	1
NMTAP	16	288	0
NMTAP	16	288	1
NMSTR	17	0	1
NMSCR	17	0	1	96	96	4
NMSTR	17	0	7
NMSCL	17	0	7	96	96	4
BXTAP	17	288	3
BXTAP	17	288	5
EXHLD	18	0	1	96
NMTAP	18	96	3
NMTAP	18	144	3
NMTAP	18	192	2
NMTAP	18	288	0
NMTAP	18	288	7
NMTAP	19	0	4
NMTAP	19	0	6
NMTAP	19	96	2
NMTAP	19	96	3
EXTAP	19	192	0
EXTAP	19	192	1
NMTAP	19	288	0
NMTAP	19	288	1
EXTAP	20	0	6
EXTAP	20	0	7
NMTAP	20	96	4
NMTAP	20	96	5
NMTAP	20	192	4
NMTAP	20	192	5
NMSTR	20	288	2
NMSI_	20	288	2	96	96	5
NMTAP	20	288	3
CNSV_	21	96	5	0	96	0
EXTAP	21	288	1
EXTAP	21	288	7
NMTAP	22	0	2
NMHLD	22	0	6	96
EXTAP	22	96	4
NMTAP	22	144	4
NMTAP	22	192	5
NMTAP	22	288	3
NMTAP	22	288	4
NMTAP	23	0	2
NMTAP	23	48	2
NMTAP	23	96	3
NMTAP	23	192	0
NMTAP	23	192	1
NMTAP	23	288	0
NMTAP	23	288	1
NMSTR	24	0	2
NMSI_	24	0	2	96	96	7
NMTAP	24	0	7
NMSTR	24	192	6
NMSI_	24	192	6	96	96	3
BRSTR	25	0	0
NMSSL	25	0	0	96	192	4
EXTAP	25	288	5
EXHLD	26	0	4	96
EXHLD	26	0	5	96
EXHLD	26	192	2	96
EXHLD	26	192	3	96
NMTAP	27	0	2
NMTAP	27	0	3
NMTAP	27	96	1
NMTAP	27	96	4
NMTAP	27	192	0
NMHLD	27	192	5	96
EXTAP	27	288	4
BRTAP	28	0	4
BRTAP	28	0	5
NMTAP	28	96	6
NMTAP	28	144	6
NMTAP	28	192	7
NMTAP	28	288	0
NMSTR	28	288	5
NMSI_	28	288	5	96	96	2
NMHLD	29	0	1	288
CNSV_	29	96	2	0	96	7
EXTAP	29	288	7
NMTAP	30	0	0
NMTAP	30	0	1
BRTAP	30	96	2
BRTAP	30	96	3
NMTAP	30	192	5
NMTAP	30	240	5
NMTAP	30	288	4
NMTAP	31	0	2
NMTAP	31	48	2
NMTAP	31	96	3
NMTAP	31	192	0
NMTAP	31	192	1
NMTAP	31	288	6
NMTAP	31	288	7
NMTAP	32	0	5
NMTAP	32	48	5
NMTAP	32	96	4
NMTAP	32	144	4
NMTAP	32	192	7
NMTAP	32	240	7
NMTAP	32	288	0
BRTAP	33	0	1
BRTAP	33	0	7
BRTAP	33	96	1
BRTAP	33	96	7
BRTAP	33	192	2
BRTAP	33	192	6
NMSTR	34	0	2
NMSI_	34	0	2	96	48	4
NMTAP	34	192	5
NMTAP	34	240	5
NMTAP	34	288	4
NMTAP	34	288	5
NMSTR	35	0	6
NMSI_	35	0	6	96	48	3
NMTAP	35	192	1
NMTAP	35	240	1
NMTAP	35	288	1
NMTAP	35	288	3
NMSTR	36	0	0
NMSI_	36	0	0	96	48	4
NMTAP	36	192	6
NMTAP	36	240	6
NMTAP	36	288	3
NMTAP	36	288	6
NMHLD	37	0	4	96
NMHLD	37	0	5	96
BRTAP	37	192	2
BRTAP	37	192	7
NMTAP	37	288	3
NMTAP	37	288	6
NMSTR	38	0	5
NMSI_	38	0	5	96	48	3
NMTAP	38	192	2
NMTAP	38	240	2
NMTAP	38	288	2
NMTAP	38	288	3
NMSTR	39	0	1
NMSI_	39	0	1	96	48	4
NMTAP	39	192	5
NMTAP	39	240	5
NMTAP	39	288	4
NMTAP	39	288	5
NMTAP	40	0	6
NMTAP	40	48	6
NMTAP	40	96	4
NMTAP	40	144	5
NMTAP	40	192	2
NMTAP	40	240	2
NMTAP	40	288	3
NMTAP	40	336	1
BRHLD	41	0	4	288
NMSTR	41	288	0
NMSXL	41	288	0	96	384	4
NMSXR	41	288	0	96	384	4
EXTAP	43	288	4
EXTAP	43	288	5
EXTAP	44	0	2
EXHLD	44	0	3	96
BRTAP	44	96	0
NMHLD	44	192	1	72
NMHLD	44	264	3	72
NMTAP	44	336	2
NMHLD	45	0	2	72
NMHLD	45	72	3	72
NMTAP	45	144	1
NMTAP	45	192	1
NMTAP	45	288	0
NMTAP	45	288	7
EXHLD	46	0	5	96
EXHLD	46	0	6	96
NMHLD	46	192	6	72
NMHLD	46	264	4	72
NMTAP	46	336	5
NMHLD	47	0	5	72
NMHLD	47	72	4	72
NMTAP	47	144	6
NMTAP	47	192	6
NMTAP	47	288	0
NMTAP	47	288	7
EXHLD	48	0	1	96
EXHLD	48	0	3	96
NMHLD	48	192	2	72
NMHLD	48	264	3	72
NMTAP	48	336	1
NMHLD	49	0	1	72
NMHLD	49	72	3	72
NMTAP	49	144	2
NMSTR	49	192	2
NMSI_	49	192	2	96	48	6
BRTAP	50	0	7
NMTAP	50	96	6
NMTAP	50	96	7
NMHLD	50	192	6	72
NMHLD	50	264	5	72
NMTAP	50	336	4
NMHLD	51	0	3	72
NMHLD	51	72	2	72
NMTAP	51	144	1
NMSTR	51	192	1
NMSI_	51	192	1	96	48	5
BRTAP	52	0	7
NMTAP	52	96	4
NMTAP	52	96	5
NMHLD	52	192	1	72
NMHLD	52	264	2	72
NMTAP	52	336	3
NMHLD	53	0	4	72
NMHLD	53	72	5	72
NMTAP	53	144	6
NMSTR	53	192	6
NMSI_	53	192	6	96	48	2
BRTAP	54	0	0
NMTAP	54	96	2
NMTAP	54	96	3
NMHLD	54	192	1	72
NMHLD	54	264	2	72
NMTAP	54	336	3
NMHLD	55	0	4	72
NMHLD	55	72	5	72
NMTAP	55	144	6
NMSTR	55	192	6
NMSI_	55	192	6	96	48	2
BRSTR	56	0	0
BRSI_	56	0	0	96	48	3
BRSI_	56	0	0	96	48	5
EXTAP	56	192	2
EXTAP	56	192	6
NMSTR	56	288	1
NMSI_	56	288	1	96	96	5
NMTAP	56	288	7
CNSI_	57	96	5	0	96	3
CNSI_	57	192	3	0	96	7
BRTAP	58	0	0
BRHLD	58	0	6	2880
NMTHO	60	0	0	384	C	0	M1
NMTTP	62	0	0	E	0	M1
NMTTP	62	192	7	E	0	M1
NMTTP	63	0	6	E	0	M1
NMTTP	63	192	5	E	0	M1
NMTTP	64	0	4	E	0	M1
NMTTP	64	192	0	C	0	M1
NMHLD	65	0	0	192
NMSTR	66	0	0
NMSCR	66	0	0	96	288	3
NMSTR	67	0	7
NMSCL	67	0	7	96	288	4
NMHLD	68	0	2	288
NMTAP	68	192	3
NMTAP	68	288	3
BRTAP	69	0	2
BRTAP	69	0	3
BRTAP	69	96	2
BRTAP	69	96	3
BRTAP	69	192	4
BRTAP	69	192	5
BRTAP	69	288	4
BRTAP	69	288	5
NMTAP	70	0	2
NMTAP	70	48	2
NMTAP	70	96	4
NMTAP	70	144	4
NMTAP	70	192	3
NMTAP	70	240	3
EXHLD	70	288	5	96
NMTAP	71	0	1
NMTAP	71	48	1
NMTAP	71	96	7
NMTAP	71	144	7
NMTAP	71	192	0
NMTAP	71	240	0
NMHLD	71	288	6	96
EXTAP	72	0	0
EXTAP	72	24	7
EXTAP	72	48	0
EXTAP	72	72	7
EXTAP	72	96	0
EXTAP	72	120	7
EXTAP	72	144	0
EXTAP	72	168	7
EXTAP	72	192	0
EXTAP	72	216	7
EXTAP	72	240	0
EXTAP	72	264	7
EXTAP	72	288	0
EXHLD	73	0	1	96
EXHLD	73	0	6	96
NMSTR	73	192	3
BRSI_	73	192	3	96	48	0
NMSTR	73	192	4
BRSI_	73	192	4	96	48	7
BRTAP	74	0	1
BRTAP	74	0	6
NMTAP	74	96	2
NMHLD	74	96	3	96
NMTAP	74	192	1
NMTAP	74	264	3
NMTAP	74	264	4
NMTAP	74	336	4
NMTAP	74	336	6
NMTAP	75	0	4
NMTAP	75	0	6
NMSTR	75	96	6
NMSCL	75	96	6	96	96	3
NMSTR	75	96	7
NMSCR	75	96	7	96	96	2
EXTAP	76	0	0
EXTAP	76	0	1
NMTAP	76	96	2
NMHLD	76	96	3	96
NMTAP	76	192	1
NMTAP	76	264	3
NMTAP	76	264	4
NMTAP	76	336	4
NMTAP	76	336	6
NMTAP	77	0	4
NMTAP	77	0	6
NMTAP	77	96	0
NMTAP	77	96	1
NMTAP	77	192	2
NMTAP	77	240	2
EXTAP	77	288	1
EXTAP	77	288	3
NMHLD	78	0	2	96
NMHLD	78	96	0	96
NMHLD	78	192	6	96
NMHLD	78	288	4	96
NMHLD	79	0	2	96
NMHLD	79	96	0	96
NMHLD	79	192	7	96
NMHLD	79	288	5	96
BRTAP	80	0	4
NMTAP	80	96	2
NMTAP	80	96	3
NMTAP	80	144	2
NMTAP	80	144	3
NMTAP	80	240	0
NMTAP	80	240	7
NMTAP	80	336	4
NMTAP	80	336	5
NMTAP	81	48	2
NMTAP	81	48	6
NMTAP	81	96	2
NMTAP	81	96	6
BRTAP	81	192	1
BRTAP	81	192	7
NMSTR	82	0	1
NMSI_	82	0	1	96	48	4
NMSTR	82	96	7
NMSI_	82	96	7	96	48	3
NMSTR	82	192	0
NMSI_	82	192	0	96	48	4
NMSTR	82	288	6
NMSI_	82	288	6	96	48	3
NMSTR	83	0	1
NMSI_	83	0	1	96	48	5
NMTAP	83	96	0
EXTAP	83	192	7
NMTAP	83	288	4
NMTAP	83	288	6
NMTAP	84	0	0
NMTAP	84	0	1
NMTAP	84	48	0
NMTAP	84	48	1
NMTAP	84	144	3
NMTAP	84	144	4
NMTAP	84	192	3
NMTAP	84	192	4
NMTAP	84	288	4
NMTAP	84	288	6
NMSTR	85	0	6
NMSI_	85	0	6	96	48	2
NMSTR	85	0	7
NMSI_	85	0	7	96	48	3
NMSTR	85	192	0
NMSI_	85	192	0	96	48	4
NMSTR	85	192	1
NMSI_	85	192	1	96	48	5
BRTAP	86	0	6
BRTAP	86	0	7
NMTAP	86	96	5
NMTAP	86	144	5
NMTAP	86	192	4
NMTAP	86	240	6
NMHLD	86	288	0	96
NMTAP	87	0	3
NMTAP	87	96	2
NMTAP	87	144	2
NMTAP	87	192	3
NMTAP	87	240	1
NMHLD	87	288	7	96
NMTAP	88	0	5
NMTAP	88	96	3
NMTAP	88	96	4
EXTAP	88	192	1
EXTAP	88	192	5
EXTAP	88	240	1
EXTAP	88	240	5
EXSTR	88	288	1
NMSCR	88	288	1	96	144	4
EXSTR	88	288	5
NMSCR	88	288	5	96	144	0
BRTAP	89	288	3
BRTAP	89	288	7
NMTAP	90	0	6
NMTAP	90	48	6
NMTAP	90	96	4
NMTAP	90	144	4
NMTAP	90	192	2
NMTAP	90	240	2
NMTAP	90	288	0
NMTAP	90	336	0
NMSTR	91	0	1
NMSI_	91	0	1	96	48	4
NMHLD	91	0	7	96
NMSTR	91	192	6
NMSI_	91	192	6	96	48	3
NMHLD	91	192	7	96
NMTAP	92	0	1
NMTAP	92	48	1
NMTAP	92	96	3
NMTAP	92	144	3
NMTAP	92	192	5
NMTAP	92	240	5
NMTAP	92	288	7
NMTAP	92	336	7
NMHLD	93	0	0	96
NMSTR	93	0	6
NMSI_	93	0	6	96	48	3
NMHLD	93	192	0	96
NMSTR	93	192	1
NMSI_	93	192	1	96	48	4
NMTAP	94	0	6
NMTAP	94	48	6
NMTAP	94	96	4
NMTAP	94	144	4
NMTAP	94	192	2
NMTAP	94	240	2
NMTAP	94	288	0
NMHLD	95	0	0	96
NMTAP	95	0	7
NMHLD	95	96	2	96
NMHLD	95	192	4	96
NMHLD	95	288	6	96
NMTAP	96	0	7
NMTAP	96	48	7
NMTAP	96	96	0
NMTAP	96	96	6
NMTAP	96	192	2
NMTAP	96	192	3
NMTAP	96	288	1
BXTAP	96	336	1
BXTAP	96	336	3
BXTAP	97	48	0
BXTAP	97	48	7
BXTAP	97	144	4
BXTAP	97	144	5
BXTAP	97	240	1
BXTAP	97	240	6
BXTAP	97	288	1
BXTAP	97	288	6
NMSTR	98	0	7
NMSI_	98	0	7	96	48	3
NMTAP	98	96	0
NMHLD	98	192	2	72
NMHLD	98	264	1	72
NMTAP	98	336	0
NMSTR	99	0	0
NMSI_	99	0	0	96	48	4
NMTAP	99	96	7
NMHLD	99	192	5	72
NMHLD	99	264	6	72
NMTAP	99	336	7
NMSTR	100	0	7
NMSI_	100	0	7	96	48	3
NMTAP	100	96	0
NMHLD	100	192	2	72
NMHLD	100	264	1	72
NMTAP	100	336	0
BRTAP	101	0	0
NMSTR	101	96	1
NMSUL	101	96	1	96	120	2
NMSTR	101	96	7
NMSCL	101	96	7	96	120	4
NMTAP	102	0	1
NMTAP	102	48	1
NMTAP	102	96	0
NMTAP	102	144	2
NMTAP	102	192	2
NMTAP	102	192	3
NMTAP	102	240	1
NMTAP	102	240	4
BRTAP	102	288	0
BRTAP	102	288	5
NMTAP	103	0	6
NMTAP	103	48	6
NMTAP	103	96	7
NMTAP	103	144	5
NMTAP	103	192	4
NMTAP	103	192	5
NMTAP	103	240	3
NMTAP	103	240	6
BRTAP	103	288	2
BRTAP	103	288	7
NMTAP	104	0	2
NMTAP	104	0	3
NMTAP	104	48	2
NMTAP	104	48	3
BRTAP	104	96	1
BRTAP	104	96	4
NMTAP	104	192	4
NMTAP	104	192	5
NMTAP	104	240	4
NMTAP	104	240	5
BRTAP	104	288	3
BRTAP	104	288	6
BXTAP	105	0	0
BXTAP	105	48	0
BXTAP	105	96	1
BXTAP	105	96	7
BXTAP	105	144	2
BXTAP	105	144	6
BXTAP	105	192	3
BXSTR	105	192	5
NMSI_	105	192	5	96	48	0
BXSTR	105	288	1
BRSF_	105	288	1	96	48	5

T_REC_TAP	285
T_REC_BRK	43
T_REC_XTP	51
T_REC_BXX	21
T_REC_HLD	67
T_REC_XHO	13
T_REC_BHO	2
T_REC_BXH	0
T_REC_STR	46
T_REC_BST	2
T_REC_XST	2
T_REC_XBS	2
T_REC_TTP	6
T_REC_THO	1
T_REC_SLD	49
T_REC_BSL	5
T_REC_ALL	595
T_NUM_TAP	390
T_NUM_BRK	75
T_NUM_HLD	81
T_NUM_SLD	49
T_NUM_ALL	595
T_JUDGE_TAP	458
T_JUDGE_HLD	265
T_JUDGE_SLD	54
T_JUDGE_ALL	777
TTM_EACHPAIRS	137
TTM_SCR_TAP	195000
TTM_SCR_BRK	195000
TTM_SCR_HLD	81000
TTM_SCR_SLD	73500
TTM_SCR_ALL	544500
TTM_SCR_S	520900
TTM_SCR_SS	537000
TTM_RAT_ACV	10139

