VERSION	0.00.00	1.04.00
FES_MODE	0
BPM_DEF	185.000	185.000	185.000	185.000
MET_DEF	4	4
RESOLUTION	384
CLK_DEF	384
COMPATIBLE_CODE	MA2

BPM	0	0	185.000
MET	0	0	4	4

NMHLD	2	0	2	192
NMTAP	2	192	3
NMHLD	3	0	5	192
NMTAP	3	192	4
NMHLD	4	0	2	192
NMTAP	4	192	3
NMHLD	5	0	5	192
NMTAP	5	192	4
NMHLD	6	0	6	192
NMTAP	6	192	7
NMHLD	7	0	1	192
NMTAP	7	192	0
NMHLD	8	0	6	192
NMTAP	8	192	7
NMHLD	9	0	1	192
NMTAP	9	192	0
NMTAP	10	0	1
NMTAP	10	96	1
NMTAP	10	192	1
NMTAP	11	0	2
NMTAP	11	96	2
NMTAP	11	192	2
NMTAP	12	0	3
NMTAP	12	96	3
NMTAP	12	192	3
NMTAP	13	0	4
NMTAP	13	0	5
NMTAP	14	0	6
NMTAP	14	96	6
NMTAP	14	192	6
NMTAP	15	0	5
NMTAP	15	96	5
NMTAP	15	192	5
NMTAP	16	0	4
NMTAP	16	96	4
NMTAP	16	192	4
BRTAP	17	0	3
BRTAP	17	0	4
NMTTP	18	0	1	B	0	L1
NMTTP	18	96	2	B	0	L1
NMTTP	18	192	3	B	0	L1
NMTTP	19	0	6	B	0	L1
NMTTP	19	96	5	B	0	L1
NMTTP	19	192	4	B	0	L1
NMTTP	20	0	1	B	0	L1
NMTTP	20	96	2	B	0	L1
NMTTP	20	192	3	B	0	L1
NMTTP	20	288	4	B	0	L1
NMTTP	21	0	5	B	0	L1
NMTTP	21	96	6	B	0	L1
NMTTP	21	192	0	B	0	L1
NMTTP	21	192	7	B	0	L1
NMTTP	22	0	3	B	0	L1
NMTTP	22	96	2	B	0	L1
NMTTP	22	192	1	B	0	L1
NMTTP	23	0	4	B	0	L1
NMTTP	23	96	5	B	0	L1
NMTTP	23	192	6	B	0	L1
NMTTP	24	0	2	B	0	L1
NMTTP	24	96	1	B	0	L1
NMTTP	24	192	0	B	0	L1
NMTTP	24	288	7	B	0	L1
NMTTP	25	0	6	B	0	L1
NMTTP	25	96	5	B	0	L1
NMTTP	25	192	3	B	0	L1
NMTTP	25	192	4	B	0	L1
NMHLD	26	0	1	192
NMTAP	26	192	0
NMHLD	27	0	1	192
NMTAP	27	192	0
NMTAP	28	0	2
NMTAP	28	96	2
NMTAP	28	192	2
NMTAP	28	192	3
NMTAP	29	0	4
NMTAP	29	0	5
NMTAP	29	96	4
NMTAP	29	96	5
NMTAP	29	192	4
NMTAP	29	192	5
NMHLD	30	0	6	192
NMTAP	30	192	7
NMHLD	31	0	6	192
NMTAP	31	192	7
NMTAP	32	0	5
NMTAP	32	96	5
NMTAP	32	192	4
NMTAP	32	192	5
EXTAP	33	0	2
EXTAP	33	0	3
EXTAP	33	96	2
EXTAP	33	96	3
EXTAP	33	192	2
EXTAP	33	192	3
NMTAP	34	0	2
NMTAP	34	96	2
NMTAP	34	192	1
NMTAP	34	288	1
NMTAP	35	0	0
NMTAP	35	96	0
NMTAP	35	192	6
NMTAP	35	192	7
NMTAP	36	0	5
NMTAP	36	96	5
NMTAP	36	192	6
NMTAP	36	288	6
NMTAP	37	0	7
NMTAP	37	96	7
NMTAP	37	192	0
NMTAP	37	192	1
NMTAP	38	0	1
NMTAP	38	96	1
NMTAP	38	192	2
NMTAP	38	288	2
NMTAP	39	0	3
NMTAP	39	96	3
NMTAP	39	192	4
NMTAP	39	192	5
NMTAP	40	0	6
NMTAP	40	96	6
NMTAP	40	192	5
NMTAP	40	288	5
BRTAP	41	0	3
BRTAP	41	0	4
NMSTR	42	0	1
NMSSR	42	0	1	96	288	5
NMSTR	44	0	6
NMSSL	44	0	6	96	288	2
NMSTR	46	0	1
NMSUR	46	0	1	96	480	4
NMSTR	48	0	6
NMSUL	48	0	6	96	480	3
NMTAP	50	0	2
NMTAP	50	96	2
NMTAP	50	192	2
NMTAP	50	288	2
NMTAP	51	0	1
NMTAP	51	96	1
NMTAP	51	192	1
NMTAP	51	288	1
NMTAP	52	0	0
NMTAP	52	96	0
NMTAP	52	192	0
NMTAP	52	288	0
NMTAP	53	0	6
NMTAP	53	0	7
NMTAP	53	96	6
NMTAP	53	96	7
NMTAP	53	192	6
NMTAP	53	192	7
NMTAP	54	0	5
NMTAP	54	96	5
NMTAP	54	192	5
NMTAP	54	288	5
NMTAP	55	0	6
NMTAP	55	96	6
NMTAP	55	192	6
NMTAP	55	288	6
NMTAP	56	0	7
NMTAP	56	96	7
NMTAP	56	192	7
NMTAP	56	288	7
NMTAP	57	0	0
NMTAP	57	0	1
NMTAP	57	96	0
NMTAP	57	96	1
NMTAP	57	192	0
NMTAP	57	192	1
NMHLD	58	0	2	192
NMHLD	58	192	3	192
NMHLD	59	0	4	192
NMTAP	59	192	5
NMHLD	60	0	5	192
NMHLD	60	192	4	192
NMHLD	61	0	3	192
NMTAP	61	192	2
NMHLD	62	0	1	192
NMHLD	62	192	2	192
NMHLD	63	0	3	192
NMTAP	63	192	4
NMHLD	64	0	6	192
NMHLD	64	192	5	192
NMHLD	65	0	4	192
NMTAP	65	192	3
NMTAP	66	0	2
NMTAP	66	96	2
NMTAP	66	192	2
NMTAP	66	192	3
NMTAP	67	0	1
NMTAP	67	96	1
NMTAP	67	192	0
NMTAP	67	192	1
NMTAP	68	0	7
NMTAP	68	96	7
NMTAP	68	192	6
NMTAP	68	192	7
NMTAP	69	0	4
NMTAP	69	0	5
NMTAP	69	96	4
NMTAP	69	96	5
NMTAP	69	192	3
NMTAP	69	192	6
NMTAP	70	0	5
NMTAP	70	96	5
NMTAP	70	192	4
NMTAP	70	192	5
NMTAP	71	0	6
NMTAP	71	96	6
NMTAP	71	192	6
NMTAP	71	192	7
NMTAP	72	0	0
NMTAP	72	96	0
NMTAP	72	192	0
NMTAP	72	192	1
NMTAP	73	0	2
NMTAP	73	0	3
NMTAP	73	96	2
NMTAP	73	96	3
BRTAP	73	192	1
BRTAP	73	192	4
NMTAP	74	0	2
NMTAP	74	96	2
NMTAP	74	192	0
NMTAP	74	192	1
NMTAP	74	288	0
NMTAP	74	288	1
NMTAP	75	0	7
NMTAP	75	96	7
NMTAP	75	192	6
NMTAP	75	192	7
NMTAP	76	0	5
NMTAP	76	96	5
NMTAP	76	192	6
NMTAP	76	192	7
NMTAP	76	288	6
NMTAP	76	288	7
NMTAP	77	0	0
NMTAP	77	96	0
NMTAP	77	192	0
NMTAP	77	192	1
NMTAP	78	0	1
NMTAP	78	96	1
NMTAP	78	192	2
NMTAP	78	192	3
NMTAP	78	288	2
NMTAP	78	288	3
NMTAP	79	0	4
NMTAP	79	96	4
NMTAP	79	192	4
NMTAP	79	192	5
NMTAP	80	0	6
NMTAP	80	96	6
NMTAP	80	192	4
NMTAP	80	192	5
NMTAP	80	288	4
NMTAP	80	288	5
NMTAP	81	0	3
NMTAP	81	96	3
NMTAP	81	192	2
NMTAP	81	192	3
NMTAP	82	0	2
NMTAP	82	96	2
NMTAP	82	192	0
NMTAP	82	192	1
NMTAP	82	288	0
NMTAP	82	288	1
NMTAP	83	0	7
NMTAP	83	96	6
NMTAP	83	192	4
NMTAP	83	192	5
NMTAP	83	288	4
NMTAP	83	288	5
NMTAP	84	0	6
NMTAP	84	96	7
NMTAP	84	192	0
NMTAP	84	192	1
NMTAP	84	288	0
NMTAP	84	288	1
NMTAP	85	0	2
NMTAP	85	96	2
NMTAP	85	192	3
NMTAP	85	192	4
NMTAP	86	0	5
NMTAP	86	96	5
NMTAP	86	192	6
NMTAP	86	192	7
NMTAP	86	288	6
NMTAP	86	288	7
NMTAP	87	0	0
NMTAP	87	96	1
NMTAP	87	192	2
NMTAP	87	192	3
NMTAP	87	288	2
NMTAP	87	288	3
NMTAP	88	0	1
NMTAP	88	96	0
NMTAP	88	192	6
NMTAP	88	192	7
NMTAP	88	288	6
NMTAP	88	288	7
NMTAP	89	0	5
NMTAP	89	96	5
NMTAP	89	192	3
NMTAP	89	192	4
NMTAP	90	0	2
NMTAP	90	96	2
NMTAP	90	192	2
NMTAP	90	192	3
NMTAP	90	288	2
NMTAP	90	288	3
NMTAP	91	0	1
NMTAP	91	96	1
NMTAP	91	192	0
NMTAP	91	192	1
NMTAP	91	288	0
NMTAP	91	288	1
NMTAP	92	0	7
NMTAP	92	96	7
NMTAP	92	192	6
NMTAP	92	192	7
NMTAP	92	288	6
NMTAP	92	288	7
NMTAP	93	0	4
NMTAP	93	0	5
NMTAP	93	96	4
NMTAP	93	96	5
NMTAP	93	192	3
NMTAP	93	192	6
NMTAP	94	0	5
NMTAP	94	96	5
NMTAP	94	192	4
NMTAP	94	192	5
NMTAP	94	288	4
NMTAP	94	288	5
NMTAP	95	0	6
NMTAP	95	96	6
NMTAP	95	192	6
NMTAP	95	192	7
NMTAP	95	288	6
NMTAP	95	288	7
NMTAP	96	0	0
NMTAP	96	96	0
NMTAP	96	192	0
NMTAP	96	192	1
NMTAP	96	288	0
NMTAP	96	288	1
NMTAP	97	0	2
NMTAP	97	0	3
NMTAP	97	96	2
NMTAP	97	96	3
NMTAP	97	192	1
NMTAP	97	192	4
NMTAP	98	0	2
NMTAP	98	0	3
NMTAP	98	96	2
NMTAP	98	96	3
NMTAP	98	192	2
NMTAP	98	192	3
NMTAP	99	0	0
NMTAP	99	0	1
NMTAP	99	96	0
NMTAP	99	96	1
NMTAP	99	192	0
NMTAP	99	192	1
NMTAP	100	0	6
NMTAP	100	0	7
NMTAP	100	96	6
NMTAP	100	96	7
NMTAP	100	192	6
NMTAP	100	192	7
NMTAP	101	0	4
NMTAP	101	0	5
NMTAP	101	96	4
NMTAP	101	96	5
NMTAP	101	192	4
NMTAP	101	192	5
NMTAP	102	0	4
NMTAP	102	96	5
NMTAP	102	192	6
NMTAP	102	288	7
NMTAP	103	0	0
NMTAP	103	96	1
NMTAP	103	192	2
NMTAP	103	288	3
NMTAP	104	0	4
NMTAP	104	96	5
NMTAP	104	192	6
NMTAP	104	288	7
NMTAP	105	0	0
NMTAP	105	96	1
NMTAP	105	192	2
BRTAP	105	288	3
BRTAP	105	288	4

T_REC_TAP	319
T_REC_BRK	8
T_REC_XTP	6
T_REC_BXX	0
T_REC_HLD	24
T_REC_XHO	0
T_REC_BHO	0
T_REC_BXH	0
T_REC_STR	4
T_REC_BST	0
T_REC_XST	0
T_REC_XBS	0
T_REC_TTP	28
T_REC_THO	0
T_REC_SLD	4
T_REC_BSL	0
T_REC_ALL	393
T_NUM_TAP	357
T_NUM_BRK	8
T_NUM_HLD	24
T_NUM_SLD	4
T_NUM_ALL	393
T_JUDGE_TAP	365
T_JUDGE_HLD	96
T_JUDGE_SLD	4
T_JUDGE_ALL	465
TTM_EACHPAIRS	89
TTM_SCR_TAP	178500
TTM_SCR_BRK	20800
TTM_SCR_HLD	24000
TTM_SCR_SLD	6000
TTM_SCR_ALL	229300
TTM_SCR_S	221650
TTM_SCR_SS	228500
TTM_RAT_ACV	10035

