VERSION	0.00.00	1.04.00
FES_MODE	0
BPM_DEF	200.000	200.000	200.000	150.000
MET_DEF	4	4
RESOLUTION	384
CLK_DEF	384
COMPATIBLE_CODE	MA2

BPM	0	0	200.000
BPM	68	0	150.000
BPM	81	0	200.000
MET	0	0	4	4

NMSTR	2	0	2
NMSI_	2	0	2	96	48	6
NMHLD	2	0	7	1344
CNSI_	2	144	6	0	48	0
CNSCR	2	192	0	0	480	4
NMTTP	4	0	5	E	0	M1
NMTTP	4	96	6	E	0	M1
NMTTP	4	192	7	E	0	M1
NMTTP	4	288	0	E	0	M1
NMTTP	5	0	1	E	0	M1
NMTTP	5	96	0	C	0	M1
NMTTP	5	192	5	E	0	M1
NMSTR	5	288	7
NMSI_	5	288	7	96	48	3
NMTTP	6	0	2	D	0	M1
NMTTP	6	12	1	A	0	M1
NMTTP	6	24	1	D	0	M1
NMTAP	6	144	4
NMTAP	6	240	3
NMTAP	6	288	3
NMTAP	6	336	3
NMTAP	7	48	6
NMTAP	7	96	4
NMTAP	7	144	5
NMTAP	7	192	3
NMTAP	7	240	4
NMTAP	7	288	2
NMTAP	8	0	1
NMTAP	8	0	4
NMTAP	8	144	3
NMTAP	8	240	4
NMTAP	8	288	4
NMTAP	8	336	4
NMTAP	9	48	1
NMTAP	9	96	3
NMTAP	9	144	2
NMTAP	9	192	4
NMTAP	9	240	3
NMTAP	9	288	5
NMTAP	10	0	3
NMTAP	10	0	6
NMTAP	10	96	5
NMTAP	10	144	4
NMTAP	10	144	5
NMTAP	10	240	2
NMTAP	10	288	2
NMTAP	10	336	2
NMTAP	10	336	3
NMTAP	11	48	4
NMTAP	11	96	4
NMTAP	11	144	3
NMTAP	11	192	5
NMTAP	11	240	4
NMTAP	11	288	3
NMTAP	12	0	1
NMTAP	12	0	4
NMTAP	12	96	2
NMTAP	12	144	2
NMTAP	12	144	3
NMTAP	12	240	5
NMTAP	12	288	5
NMTAP	12	336	4
NMTAP	12	336	5
NMTAP	13	48	3
NMTAP	13	96	3
NMTAP	13	144	4
NMTAP	13	192	2
NMTAP	13	240	3
NMTAP	13	288	4
NMTAP	14	0	4
NMTAP	14	0	5
NMTAP	14	48	6
NMTAP	14	96	6
NMTAP	14	144	6
NMTAP	14	192	0
NMTAP	14	192	7
NMTAP	14	240	1
NMTAP	14	288	1
NMTAP	14	336	1
NMTAP	15	0	2
NMTAP	15	0	3
NMTAP	15	48	4
NMTAP	15	96	4
NMTAP	15	144	4
NMTAP	15	192	5
NMTAP	15	192	6
NMTAP	15	240	7
NMHLD	15	288	7	96
NMTAP	16	0	0
NMTAP	16	24	6
NMTAP	16	48	0
NMTAP	16	72	6
NMTAP	16	96	1
NMTAP	16	120	5
NMTAP	16	144	1
NMTAP	16	168	5
NMTAP	16	192	2
NMTAP	16	216	4
NMTAP	16	240	2
NMTAP	16	264	4
NMTAP	16	288	2
NMTAP	16	312	4
NMTAP	16	336	2
NMTAP	16	360	4
NMHLD	17	0	2	96
NMSTR	17	96	0
NMSSL	17	96	0	96	96	4
NMTAP	17	144	7
NMSTR	17	192	6
NMSI_	17	192	6	96	48	2
EXTAP	18	0	0
NMTAP	18	96	1
NMTAP	18	96	3
NMTAP	18	144	3
NMTAP	18	192	0
NMTAP	18	192	3
NMTAP	18	240	3
NMTAP	18	288	3
NMTAP	18	288	7
NMTAP	18	336	3
NMTAP	19	0	0
NMTAP	19	0	3
NMTAP	19	48	3
NMTAP	19	96	1
NMTAP	19	96	3
NMTAP	19	144	3
NMTAP	19	192	2
NMTAP	19	192	3
NMTAP	19	240	3
EXTAP	19	288	1
EXTAP	19	288	3
EXHLD	19	336	1	432
EXTAP	19	336	3
NMTAP	20	96	4
NMTAP	20	144	4
NMTAP	20	192	5
NMTAP	20	240	5
NMTAP	20	288	6
NMTAP	20	336	6
EXTAP	21	0	7
NMTAP	21	24	6
NMTAP	21	48	5
NMTAP	21	72	4
EXTAP	21	96	0
NMTAP	21	120	1
NMTAP	21	144	2
NMTAP	21	168	3
EXTAP	21	192	0
EXTAP	21	192	4
EXTAP	21	240	0
EXTAP	21	240	4
EXTAP	21	288	1
EXTAP	21	288	6
NMTTP	22	0	0	C	0	M1
EXTAP	22	96	0
EXTAP	22	96	7
NMTAP	22	144	0
NMTAP	22	192	1
NMTAP	22	192	6
NMTAP	22	240	6
NMTAP	22	288	2
NMTAP	22	288	5
NMTAP	22	336	2
EXTAP	23	0	3
EXTAP	23	0	4
EXTAP	23	96	1
EXTAP	23	96	2
NMTAP	23	192	5
NMTAP	23	192	6
EXTAP	23	240	4
EXTAP	23	240	7
EXTAP	23	288	4
EXTAP	23	288	7
NMTAP	24	0	3
NMTAP	24	32	3
NMTAP	24	64	6
NMTAP	24	96	2
NMTAP	24	128	2
NMTAP	24	160	5
NMTAP	24	192	1
NMTAP	24	224	1
NMTAP	24	256	4
NMTAP	24	288	0
NMTAP	24	320	0
NMTAP	24	352	3
NMTAP	25	0	7
NMTAP	25	32	0
NMTAP	25	64	1
NMTAP	25	96	2
NMTAP	25	128	3
NMTAP	25	160	4
NMSTR	25	192	5
NMSF_	25	192	5	96	48	1
EXTAP	26	0	3
EXTAP	26	0	7
NMTAP	26	96	2
NMTAP	26	144	2
NMTAP	26	240	4
NMTAP	26	288	5
NMTAP	26	336	6
NMTAP	27	0	2
NMTAP	27	0	7
NMTAP	27	48	2
NMTAP	27	48	7
NMTAP	27	96	1
NMTAP	27	120	0
NMTAP	27	144	1
NMTAP	27	168	0
NMSTR	27	192	2
NMSI_	27	192	2	96	48	5
NMTAP	27	240	7
NMTAP	27	288	7
NMTAP	28	0	6
NMTAP	28	96	5
NMTAP	28	144	4
NMTAP	28	240	2
NMTAP	28	240	3
NMTAP	28	288	2
NMTAP	28	288	3
EXSTR	29	0	2
NMSI_	29	0	2	96	48	4
EXHLD	29	0	7	96
NMTAP	29	96	2
NMTAP	29	192	7
NMTAP	29	240	6
NMTAP	29	288	5
NMTAP	29	336	4
NMSTR	30	0	3
NMSI_	30	0	3	96	48	7
NMTAP	30	96	2
EXTAP	30	96	3
NMTAP	30	144	2
NMTAP	30	240	6
NMTAP	30	288	5
NMTAP	30	336	4
EXTAP	31	0	0
EXTAP	31	0	3
EXTAP	31	96	1
EXTAP	31	96	6
NMSTR	31	192	4
NMSI_	31	192	4	96	48	0
NMSTR	31	192	5
NMSI_	31	192	5	96	48	0
NMTAP	32	0	1
NMHLD	32	0	7	96
NMTAP	32	64	3
NMTAP	32	96	3
NMHLD	32	192	0	96
NMTAP	32	192	6
NMTAP	32	256	4
NMTAP	32	288	4
EXTAP	33	0	1
NMTAP	33	32	7
NMTAP	33	64	2
EXTAP	33	96	6
NMTAP	33	128	0
NMTAP	33	160	4
EXTAP	33	192	1
NMTAP	33	224	7
NMTAP	33	256	2
EXTAP	33	288	6
NMTAP	33	320	3
NMTAP	33	352	5
NMTAP	34	0	4
NMTAP	34	0	5
NMTAP	34	48	6
NMTAP	34	72	7
NMTAP	34	96	6
NMTAP	34	120	7
NMTAP	34	144	6
NMTAP	34	168	7
NMTAP	34	192	6
NMTAP	34	240	1
NMTAP	34	264	0
NMTAP	34	288	1
NMTAP	34	312	0
NMTAP	34	336	1
NMTAP	34	360	0
NMTAP	35	0	1
EXTAP	35	96	1
EXTAP	35	96	6
NMTAP	35	192	5
NMTAP	35	216	4
NMTAP	35	240	5
BRTAP	35	288	0
BRTAP	35	288	6
EXTAP	36	0	1
EXTAP	36	0	4
NMTAP	36	48	2
NMTAP	36	72	3
NMTAP	36	96	2
NMTAP	36	144	1
NMTAP	36	144	4
NMTAP	36	192	2
NMTAP	36	216	3
NMTAP	36	240	2
NMTAP	36	288	1
NMTAP	36	288	4
NMTAP	36	336	0
NMTAP	37	0	6
NMTAP	37	0	7
NMTAP	37	48	6
NMTAP	37	48	7
NMTAP	37	96	5
NMTAP	37	120	4
NMTAP	37	144	5
NMTAP	37	192	2
NMTAP	37	216	3
NMTAP	37	240	2
NMTAP	37	288	4
NMTAP	37	336	5
EXTAP	38	0	3
EXTAP	38	0	6
NMTAP	38	48	5
NMTAP	38	72	4
NMTAP	38	96	5
NMTAP	38	144	3
NMTAP	38	144	6
NMTAP	38	192	5
NMTAP	38	216	4
NMTAP	38	240	5
NMTAP	38	288	3
NMTAP	38	288	6
NMTAP	38	336	2
NMTAP	39	0	1
NMTAP	39	0	6
NMTAP	39	48	7
NMTAP	39	72	0
NMTAP	39	96	7
NMTAP	39	120	0
NMTAP	39	144	7
NMTAP	39	192	1
NMTAP	39	216	0
NMTAP	39	240	1
NMTAP	39	288	2
NMTAP	39	288	7
NMTAP	39	336	6
EXTAP	40	0	4
EXTAP	40	0	5
NMTAP	40	48	2
NMTAP	40	72	3
NMTAP	40	96	2
NMTAP	40	144	1
NMTAP	40	144	4
NMTAP	40	192	2
NMTAP	40	216	3
NMTAP	40	240	2
NMTAP	40	288	4
NMTAP	40	336	5
NMTTP	41	0	0	B	0	M1
NMTTP	41	0	0	E	0	M1
EXTAP	41	0	6
NMTTP	41	0	7	B	0	M1
EXTAP	41	96	1
NMTTP	41	96	3	B	0	M1
NMTTP	41	96	4	B	0	M1
NMTTP	41	96	4	E	0	M1
EXTAP	41	192	6
NMTAP	41	240	1
NMTAP	41	288	0
NMTAP	41	288	7
NMTAP	41	336	0
NMTAP	41	336	7
NMHLD	42	0	4	48
NMHLD	42	0	6	48
NMHLD	42	72	4	48
NMHLD	42	72	6	48
NMHLD	42	144	1	48
NMHLD	42	144	3	48
NMHLD	42	216	1	48
NMHLD	42	216	3	48
NMHLD	42	288	2	48
NMHLD	42	288	7	48
NMHLD	42	360	2	48
NMHLD	42	360	7	48
NMHLD	43	48	0	48
NMHLD	43	48	5	48
NMHLD	43	120	0	48
NMHLD	43	120	5	48
EXTAP	43	192	4
EXTAP	43	192	5
EXTAP	43	264	2
EXTAP	43	264	3
EXTAP	43	336	3
EXTAP	43	336	4
NMHLD	44	0	4	48
NMHLD	44	0	6	48
NMHLD	44	72	1	48
NMHLD	44	72	3	48
NMHLD	44	144	2	48
NMHLD	44	144	7	48
NMHLD	44	216	0	48
NMHLD	44	216	5	48
NMTAP	44	288	4
NMSTR	44	288	7
NMSI_	44	288	7	96	48	3
EXHLD	45	0	2	192
NMTAP	45	96	1
NMTAP	45	144	1
EXSTR	45	192	0
NMSI_	45	192	0	96	48	4
EXTAP	45	204	7
EXTAP	45	216	6
EXTAP	45	228	5
EXTAP	45	240	4
EXTAP	45	288	0
NMTTP	46	0	7	E	0	M1
NMTTP	46	96	6	E	0	M1
NMTTP	46	192	5	E	0	M1
NMTTP	46	288	4	E	0	M1
NMTTP	47	0	2	B	0	M1
NMTTP	47	0	2	E	0	M1
NMTTP	47	0	3	B	0	M1
NMTTP	47	0	3	E	0	M1
NMTTP	47	96	4	B	0	M1
NMTTP	47	96	5	B	0	M1
NMTTP	47	96	5	E	0	M1
NMTTP	47	96	6	E	0	M1
BRTAP	47	192	0
BRTAP	47	192	2
EXHLD	48	0	2	288
EXHLD	48	0	3	96
NMTTP	48	192	1	A	0	M1
NMTTP	48	200	0	B	0	M1
NMTTP	48	200	0	A	0	M1
NMTTP	48	200	1	E	0	M1
NMTTP	48	200	1	D	0	M1
NMTTP	48	208	0	E	0	M1
NMTTP	48	208	0	D	0	M1
NMTTP	48	208	7	B	0	M1
NMTTP	48	208	7	A	0	M1
NMTTP	48	216	6	B	0	M1
NMTTP	48	216	6	A	0	M1
NMTTP	48	216	7	E	0	M1
NMTTP	48	216	7	D	0	M1
NMTTP	48	224	5	B	0	M1
NMTTP	48	224	5	A	0	M1
NMTTP	48	224	6	E	0	M1
NMTTP	48	224	6	D	0	M1
EXHLD	49	0	3	96
EXHLD	49	0	4	288
NMTTP	49	192	5	A	0	M1
NMTTP	49	200	6	B	0	M1
NMTTP	49	200	6	E	0	M1
NMTTP	49	200	6	A	0	M1
NMTTP	49	200	6	D	0	M1
NMTTP	49	208	7	B	0	M1
NMTTP	49	208	7	E	0	M1
NMTTP	49	208	7	A	0	M1
NMTTP	49	208	7	D	0	M1
NMTTP	49	216	0	B	0	M1
NMTTP	49	216	0	E	0	M1
NMTTP	49	216	0	A	0	M1
NMTTP	49	216	0	D	0	M1
NMTTP	49	224	1	B	0	M1
NMTTP	49	224	1	E	0	M1
NMTTP	49	224	1	A	0	M1
NMTTP	49	224	1	D	0	M1
EXSTR	49	336	3
NMSV_	49	336	3	96	48	2
CNSI_	50	96	2	0	96	0
NMTAP	50	192	6
NMTAP	50	224	7
NMTAP	50	256	5
NMTAP	50	288	0
NMTAP	50	320	4
NMTAP	50	352	1
NMTTP	51	0	5	E	0	M1
NMTTP	51	32	2	E	0	M1
NMTTP	51	64	6	E	0	M1
NMTTP	51	96	3	E	0	M1
NMTTP	51	128	7	E	0	M1
NMTTP	51	160	4	E	0	M1
BRTAP	51	192	0
NMTAP	52	0	7
NMTAP	52	48	7
NMTAP	52	96	7
NMTAP	52	144	7
EXHLD	52	192	0	0
EXTAP	52	192	5
NMTTP	52	200	0	B	0	M1
NMTTP	52	208	0	C	0	M1
NMTAP	53	0	1
NMTAP	53	48	1
NMTAP	53	96	1
NMTAP	53	144	1
EXHLD	53	192	0	0
EXTAP	53	192	2
NMTTP	53	200	0	B	0	M1
NMTTP	53	208	0	C	0	M1
BRTAP	53	336	6
BRHLD	53	336	7	144
NMTAP	54	96	5
NMTAP	54	144	4
BRTAP	54	192	2
BRTAP	54	192	3
NMHLD	54	240	2	96
NMTAP	54	240	3
BRTAP	54	336	0
NMTAP	55	0	0
NMTAP	55	48	7
NMTAP	55	96	6
NMTAP	55	144	5
NMTAP	55	192	4
NMTAP	55	240	3
NMTAP	55	288	2
NMTAP	55	336	1
NMHLD	56	0	0	672
NMSTR	56	0	6
NMSUR	56	0	6	96	384	7
CNSCR	57	96	7	0	192	4
NMSTR	58	0	1
NMSUL	58	0	1	96	384	0
NMHLD	58	0	5	672
CNSCL	59	96	0	0	192	3
NMHLD	60	0	2	672
NMSTR	60	0	4
NMSXL	60	0	4	96	384	0
CNSCL	61	96	0	0	192	3
NMSTR	62	0	1
NMSCR	62	0	1	96	96	0
NMHLD	62	0	4	672
CNSXR	62	192	0	0	480	3
NMTAP	64	0	5
NMTAP	64	48	5
NMTAP	64	96	5
NMTAP	64	144	5
NMTAP	64	192	4
NMTAP	64	192	6
NMTAP	64	240	4
NMTAP	64	240	6
NMTAP	64	288	4
NMTAP	64	288	6
NMTAP	64	336	4
NMTAP	64	336	6
NMTAP	65	0	3
NMTAP	65	0	7
NMTAP	65	48	3
NMTAP	65	48	7
NMTAP	65	96	3
NMTAP	65	96	7
NMTAP	65	144	3
NMTAP	65	144	7
NMTAP	65	192	0
NMTAP	65	192	2
NMTAP	65	240	0
NMTAP	65	240	2
NMTAP	65	288	0
NMTAP	65	288	2
NMTAP	66	0	1
NMTAP	66	64	2
NMTAP	66	64	3
NMTAP	66	96	2
NMTAP	66	96	3
NMTAP	66	160	4
NMTAP	66	160	5
NMTAP	66	192	4
NMTAP	66	192	5
NMTAP	66	256	0
NMTAP	66	288	1
NMTAP	66	320	2
NMTAP	66	352	3
NMTAP	67	0	6
NMTAP	67	32	4
NMTAP	67	64	5
NMTAP	67	96	1
NMTAP	67	128	3
NMTAP	67	160	2
NMSTR	67	192	2
NMSI_	67	192	2	96	48	7
NMSTR	67	192	6
NMSI_	67	192	6	96	48	3
BRSTR	68	0	0
NMSI_	68	0	0	96	48	2
EXHLD	68	0	5	48
NMSTR	68	96	0
NMSI_	68	96	0	96	48	4
NMHLD	68	96	3	48
NMSTR	68	192	0
NMSCR	68	192	0	96	48	2
NMHLD	68	192	5	48
NMSTR	68	288	0
NMSXL	68	288	0	96	144	4
NMHLD	68	288	7	48
NMTAP	69	0	0
NMHLD	69	0	3	48
NMHLD	69	96	7	48
NMTAP	69	192	6
NMTAP	69	216	4
NMTAP	69	240	6
NMTAP	69	264	4
NMSTR	69	288	5
NMSXL	69	288	5	96	144	3
NMTAP	69	312	3
NMTAP	69	336	5
NMTAP	69	360	3
NMTAP	70	0	5
NMSTR	70	96	1
NMSI_	70	96	1	96	48	3
NMTAP	70	144	0
NMTAP	70	192	1
NMSTR	70	192	4
NMSI_	70	192	4	96	48	0
NMTAP	70	240	5
NMTAP	70	288	3
NMTAP	70	288	4
NMTAP	70	336	2
NMTAP	71	0	0
NMTAP	71	0	1
NMTAP	71	48	7
NMTAP	71	72	7
NMTAP	71	96	3
NMTAP	71	120	3
NMTAP	71	144	5
NMTAP	71	168	5
NMHLD	71	192	1	48
NMHLD	71	240	3	48
NMHLD	71	288	4	48
NMHLD	71	336	6	48
BRSTR	72	0	7
NMSI_	72	0	7	96	48	3
NMSTR	72	96	5
NMSI_	72	96	5	96	48	1
NMTAP	72	96	7
NMTAP	72	144	4
NMSTR	72	192	3
NMSI_	72	192	3	96	48	7
NMTAP	72	192	5
NMTAP	72	240	2
NMSTR	72	288	1
NMSXR	72	288	1	96	144	4
NMTAP	72	288	3
NMTAP	72	336	0
NMTAP	73	0	1
NMHLD	73	0	7	48
NMHLD	73	96	5	48
NMTAP	73	192	5
NMTAP	73	216	4
NMTAP	73	240	6
NMTAP	73	264	4
NMSTR	73	288	7
NMSXR	73	288	7	96	144	4
NMTAP	73	312	4
NMTAP	73	336	7
NMTAP	73	360	4
NMTAP	74	0	7
NMSTR	74	96	1
NMSI_	74	96	1	96	48	3
NMTAP	74	144	0
NMTAP	74	192	1
NMSTR	74	192	6
NMSI_	74	192	6	96	48	4
NMTAP	74	240	7
NMSTR	74	288	1
NMSI_	74	288	1	96	48	3
NMTAP	74	288	6
NMTAP	74	336	0
NMTAP	75	0	1
NMTAP	75	0	5
NMTAP	75	48	6
NMSTR	75	96	7
NMSI_	75	96	7	96	48	5
NMSTR	75	144	7
NMSI_	75	144	7	96	48	1
EXSTR	75	192	7
NMSI_	75	192	7	96	48	4
EXSTR	75	240	7
NMSI_	75	240	7	96	48	2
EXSTR	75	288	7
NMSI_	75	288	7	96	48	3
EXTAP	75	336	7
BXTAP	76	0	7
NMTAP	76	96	0
NMTAP	76	96	6
NMTAP	76	144	0
NMTAP	76	144	6
NMTAP	76	192	1
NMTAP	76	192	5
NMTAP	76	240	1
NMTAP	76	240	5
NMTAP	76	288	2
NMTAP	76	288	4
NMTAP	76	336	2
NMTAP	76	336	4
NMTAP	77	0	3
NMTAP	77	32	5
NMTAP	77	64	1
NMTAP	77	96	7
NMTAP	77	128	3
NMTAP	77	160	5
NMSTR	77	192	7
NMSF_	77	192	7	96	48	3
NMTAP	77	224	7
NMTAP	77	256	7
BRTAP	77	288	7
NMTAP	78	0	6
NMTAP	78	24	6
NMTAP	78	48	3
NMTAP	78	72	3
NMTAP	78	96	0
NMTAP	78	120	0
NMTAP	78	144	4
NMTAP	78	168	4
NMTAP	78	192	7
NMTAP	78	216	7
NMTAP	78	240	3
NMTAP	78	264	3
NMTAP	78	288	5
NMTAP	78	312	5
NMTAP	78	336	2
NMTAP	78	360	2
EXHLD	79	0	1	32
EXHLD	79	0	3	32
EXHLD	79	64	1	32
EXHLD	79	64	7	32
EXHLD	79	128	4	32
EXHLD	79	128	5	32
BRTAP	79	192	6
BRTAP	79	192	7
NMTAP	79	224	5
BRTAP	79	256	6
BRTAP	79	256	7
NMTAP	79	288	0
BRTAP	79	320	6
BRTAP	79	320	7
NMTAP	79	352	5
BRSTR	80	0	3
NMSXR	80	0	3	96	192	0
BRSTR	80	0	4
NMSUR	80	0	4	96	192	7
EXTAP	81	0	1
EXTAP	81	0	4
NMTAP	81	48	2
NMTAP	81	72	3
NMTAP	81	96	2
NMTAP	81	144	1
NMTAP	81	144	4
NMTAP	81	192	2
NMTAP	81	216	3
NMTAP	81	240	2
NMTAP	81	288	1
NMTAP	81	288	4
NMTAP	81	336	0
NMTAP	82	0	5
NMTAP	82	0	7
NMTAP	82	48	4
NMTAP	82	96	2
NMTAP	82	120	3
NMTAP	82	144	1
NMTAP	82	192	5
NMTAP	82	216	4
NMTAP	82	240	6
NMTAP	82	288	7
NMTAP	82	336	0
EXTAP	83	0	1
EXTAP	83	0	4
NMTAP	83	48	2
NMTAP	83	72	3
NMTAP	83	96	2
NMTAP	83	144	1
NMTAP	83	144	4
NMTAP	83	192	2
NMTAP	83	216	3
NMTAP	83	240	2
NMTAP	83	288	1
NMTAP	83	288	4
NMTAP	83	336	0
NMTAP	84	0	6
NMTAP	84	24	7
NMTAP	84	48	5
NMTAP	84	96	1
NMTAP	84	120	0
NMTAP	84	144	2
NMSTR	84	192	6
NMSI_	84	192	6	96	48	2
NMTAP	84	216	7
NMTAP	84	240	5
NMTAP	84	288	6
EXSTR	85	0	0
NMSI_	85	0	0	96	48	2
EXSTR	85	0	3
NMSI_	85	0	3	96	48	7
NMSTR	85	192	0
NMSI_	85	192	0	96	48	6
NMHLD	85	192	3	96
NMSTR	86	0	0
NMSI_	86	0	0	96	48	5
NMHLD	86	0	2	96
NMSTR	86	192	0
NMSI_	86	192	0	96	48	4
NMHLD	86	192	1	96
EXTAP	87	0	1
EXSTR	87	0	5
NMSI_	87	0	5	96	48	2
NMTAP	87	96	5
NMSTR	87	96	7
NMSI_	87	96	7	96	48	4
NMSTR	87	192	1
NMSI_	87	192	1	96	48	4
NMSI_	87	192	1	96	48	6
NMTAP	87	192	7
NMTAP	87	288	1
NMTAP	88	0	5
NMTAP	88	32	4
NMTAP	88	64	3
NMTAP	88	96	2
NMTAP	88	128	1
NMTAP	88	160	0
NMSTR	88	192	7
BRSF_	88	192	7	96	48	3
BRTAP	88	288	7
EXTAP	89	0	0
NMTAP	89	48	0
NMTAP	89	96	0
NMTAP	89	144	0
NMTAP	89	168	1
NMHLD	89	192	2	96
NMTAP	89	192	4
NMTAP	89	240	4
NMTAP	89	288	4
NMTAP	89	336	4
NMTAP	89	360	5
NMTAP	90	0	0
NMHLD	90	0	6	96
NMTAP	90	48	0
NMTAP	90	96	0
NMTAP	90	144	0
NMTAP	90	168	1
NMHLD	90	192	2	96
NMTAP	90	192	4
NMSTR	90	288	7
NMSI_	90	288	7	96	48	1
NMSI_	90	288	7	96	48	5
NMTAP	91	0	7
NMTAP	91	96	0
NMTAP	91	144	7
NMTAP	91	192	3
NMTAP	91	192	6
NMTAP	91	240	5
NMTAP	91	288	1
NMTAP	91	288	4
NMTAP	91	336	2
NMTAP	92	0	4
NMTAP	92	0	7
NMTAP	92	48	5
NMTAP	92	96	0
NMTAP	92	96	3
NMTAP	92	144	2
NMTAP	92	192	4
NMTAP	92	192	7
NMTAP	92	240	5
NMSTR	92	288	0
NMSI_	92	288	0	96	48	5
NMTAP	92	288	6
NMTAP	92	312	1
NMTAP	92	336	2
NMTAP	92	360	3
EXTAP	93	0	0
EXTAP	93	0	4
NMTAP	93	96	6
NMTAP	93	120	4
NMTAP	93	144	6
NMTAP	93	168	4
NMHLD	93	192	5	96
NMSTR	93	240	7
NMSCL	93	240	7	96	96	3
NMTAP	93	288	1
NMHLD	93	336	1	96
NMTAP	94	96	1
NMTAP	94	120	3
NMTAP	94	144	2
NMTAP	94	168	3
NMTAP	94	192	1
NMTAP	94	240	1
NMTAP	94	240	3
NMTAP	94	288	6
NMTAP	94	312	4
NMTAP	94	336	5
NMTAP	94	360	4
BRSTR	95	0	6
NMSI_	95	0	6	96	48	2
NMTAP	95	96	6
NMTAP	95	96	7
BRSTR	95	144	1
NMSI_	95	144	1	96	48	5
NMTAP	95	240	0
NMTAP	95	240	1
BRTAP	95	288	6
NMTAP	96	0	4
NMSTR	96	96	4
BRSI_	96	96	4	96	48	0
NMSTR	96	96	5
BRSI_	96	96	5	96	48	1
BXTAP	96	192	4
BXTAP	96	192	5
NMTTP	96	198	5	E	1	M1
EXTAP	97	0	3
NMTAP	97	24	6
NMTAP	97	48	2
NMTAP	97	72	7
NMTAP	97	96	1
NMTAP	97	120	0
EXTAP	97	144	2
NMTAP	97	168	3
NMTAP	97	192	1
NMTAP	97	216	4
NMTAP	97	240	0
NMTAP	97	264	5
NMTAP	97	288	7
NMTAP	97	312	6
NMTAP	97	336	7
NMTAP	97	360	6
NMTAP	98	0	0
NMTAP	98	24	1
NMTAP	98	48	2
NMTAP	98	72	3
NMTAP	98	96	7
NMTAP	98	120	6
NMTAP	98	144	5
NMTAP	98	168	4
EXHLD	98	192	2	48
EXHLD	98	192	3	48
EXHLD	98	264	4	48
EXHLD	98	264	5	48
EXTAP	98	336	0
EXTAP	98	336	7
EXTAP	99	0	6
NMTAP	99	24	3
NMTAP	99	48	6
NMTAP	99	72	3
NMTAP	99	96	5
NMTAP	99	120	4
NMTAP	99	144	5
NMTAP	99	168	4
NMTAP	99	192	7
NMTAP	99	216	2
NMTAP	99	240	0
NMTAP	99	264	1
NMTAP	99	288	7
NMTAP	99	312	2
NMTAP	99	336	0
NMTAP	99	360	1
NMTAP	100	0	7
NMTAP	100	24	6
NMTAP	100	48	5
NMTAP	100	72	4
NMTAP	100	96	0
NMTAP	100	120	1
NMTAP	100	144	2
NMTAP	100	168	3
BRTAP	100	192	6
BRTAP	100	224	6
BRTAP	100	256	6
BRTAP	100	288	3
BRTAP	100	320	3
BRTAP	100	352	3
NMTAP	101	0	5
NMTAP	101	24	4
NMTAP	101	48	6
NMTAP	101	72	3
NMTAP	101	96	7
NMTAP	101	120	2
NMTAP	101	144	4
NMTAP	101	168	3
NMTAP	101	192	5
NMTAP	101	216	2
NMTAP	101	240	6
NMTAP	101	264	1
NMTAP	101	288	3
NMTAP	101	312	2
NMTAP	101	336	4
NMTAP	101	360	1
NMTAP	102	0	5
NMTAP	102	24	0
NMTAP	102	48	5
NMTAP	102	72	0
NMTAP	102	96	6
NMTAP	102	120	1
NMTAP	102	144	6
NMTAP	102	168	1
BRTAP	102	192	7
NMTAP	102	204	6
NMTAP	102	216	5
NMTAP	102	228	4
NMTAP	102	240	3
NMTAP	102	252	2
NMTAP	102	264	1
NMTAP	102	276	0
NMTAP	102	288	7
NMTAP	102	300	6
NMTAP	102	312	5
NMTAP	102	324	4
NMTAP	102	336	3
NMTAP	102	348	2
NMTAP	102	360	1
NMTAP	102	372	0
EXTAP	103	0	3
BRTAP	103	0	7
NMTAP	103	48	3
EXTAP	103	96	3
BRTAP	103	96	5
NMTAP	103	144	3
BRTAP	103	192	1
EXTAP	103	192	3
NMTAP	103	240	3
EXTAP	103	288	3
BRTAP	103	288	7
NMTAP	103	336	3
EXTAP	104	0	5
NMTAP	104	24	2
EXTAP	104	48	6
NMTAP	104	72	0
EXTAP	104	96	5
NMTAP	104	120	2
EXTAP	104	144	6
NMTAP	104	168	1
BRTAP	104	192	5
NMTAP	104	216	1
BRTAP	104	240	4
NMTAP	104	264	1
BRTAP	104	288	3
NMTAP	104	312	1
BRTAP	104	336	2
NMTAP	104	360	1
BRSTR	105	0	7
NMSSR	105	0	7	96	1512	3
NMTAP	108	0	7
NMTAP	108	48	7
NMTAP	108	144	1
NMTAP	108	192	0
NMSTR	108	240	7
BRSI_	108	240	7	96	48	3
NMTAP	108	288	6
EXTAP	108	336	7
NMTTP	108	348	7	B	0	M1
NMTTP	108	360	0	C	1	M1
NMTTP	108	372	3	B	0	M1

T_REC_TAP	639
T_REC_BRK	33
T_REC_XTP	80
T_REC_BXX	3
T_REC_HLD	53
T_REC_XHO	20
T_REC_BHO	1
T_REC_BXH	0
T_REC_STR	45
T_REC_BST	7
T_REC_XST	9
T_REC_XBS	0
T_REC_TTP	77
T_REC_THO	0
T_REC_SLD	59
T_REC_BSL	4
T_REC_ALL	1030
T_NUM_TAP	850
T_NUM_BRK	48
T_NUM_HLD	73
T_NUM_SLD	59
T_NUM_ALL	1030
T_JUDGE_TAP	893
T_JUDGE_HLD	192
T_JUDGE_SLD	63
T_JUDGE_ALL	1148
TTM_EACHPAIRS	168
TTM_SCR_TAP	425000
TTM_SCR_BRK	124800
TTM_SCR_HLD	73000
TTM_SCR_SLD	88500
TTM_SCR_ALL	711300
TTM_SCR_S	685350
TTM_SCR_SS	706500
TTM_RAT_ACV	10067

