VERSION	0.00.00	1.04.00
FES_MODE	0
BPM_DEF	200.000	200.000	200.000	150.000
MET_DEF	4	4
RESOLUTION	384
CLK_DEF	384
COMPATIBLE_CODE	MA2

BPM	0	0	200.000
BPM	68	0	150.000
BPM	81	0	200.000
MET	0	0	4	4

NMSTR	2	0	3
NMSCL	2	0	3	96	1056	4
NMHLD	6	0	4	576
NMTAP	6	0	5
NMTAP	6	144	6
NMTAP	6	240	7
NMTAP	6	288	7
NMTAP	7	48	6
NMTAP	7	96	6
NMTAP	7	192	5
NMTAP	7	288	3
NMTAP	7	288	4
NMTAP	8	0	2
NMHLD	8	0	3	576
NMTAP	8	144	1
NMTAP	8	240	0
NMTAP	8	288	0
NMTAP	9	48	1
NMTAP	9	96	1
NMTAP	9	192	2
NMTAP	9	288	3
NMTAP	9	288	4
NMHLD	10	0	4	576
NMTAP	10	0	5
NMTAP	10	144	6
NMTAP	10	240	7
NMTAP	10	288	7
NMTAP	11	48	6
NMTAP	11	96	6
NMTAP	11	192	5
NMTAP	11	288	3
NMTAP	11	288	4
NMTAP	12	0	2
NMHLD	12	0	3	576
NMTAP	12	144	1
NMTAP	12	240	0
NMTAP	12	288	0
NMTAP	13	48	1
NMTAP	13	96	1
NMTAP	13	192	2
NMTAP	13	288	1
NMTAP	13	288	4
NMTAP	14	0	5
NMTAP	14	48	5
NMTAP	14	96	3
NMTAP	14	144	3
NMTAP	14	192	6
NMTAP	14	240	6
NMTAP	14	288	0
NMTAP	14	336	0
NMTAP	15	0	3
NMTAP	15	48	3
NMTAP	15	96	2
NMTAP	15	144	2
NMTAP	15	192	6
NMTAP	15	240	6
NMSTR	15	288	4
NMSUL	15	288	4	96	192	3
CNSCL	16	192	3	0	192	5
NMTHO	17	0	0	192	C	1	M1
NMHLD	18	0	0	48
NMHLD	18	0	7	48
NMHLD	18	96	0	48
NMHLD	18	96	7	48
NMHLD	18	192	1	48
NMHLD	18	192	3	48
NMHLD	18	288	1	48
NMHLD	18	288	3	48
NMHLD	19	0	4	48
NMHLD	19	0	6	48
NMHLD	19	96	4	48
NMHLD	19	96	6	48
NMTAP	19	192	0
NMTAP	19	192	7
EXTAP	19	288	1
EXTAP	19	336	1
NMHLD	20	0	2	48
NMHLD	20	0	3	48
NMHLD	20	96	2	48
NMHLD	20	96	3	48
NMHLD	20	192	0	48
NMHLD	20	192	1	48
NMHLD	20	288	0	48
NMHLD	20	288	1	48
NMSTR	21	0	7
NMSI_	21	0	7	96	48	3
NMSTR	21	96	0
NMSI_	21	96	0	96	48	2
NMSTR	21	192	4
NMSI_	21	192	4	96	48	6
EXTAP	21	288	0
NMHLD	22	0	1	48
NMHLD	22	0	7	48
NMHLD	22	96	2	48
NMHLD	22	96	6	48
NMHLD	22	192	1	48
NMHLD	22	192	5	48
NMHLD	22	288	2	48
NMHLD	22	288	4	48
NMSTR	23	0	1
NMSI_	23	0	1	96	48	5
NMSTR	23	96	6
NMSI_	23	96	6	96	48	2
NMSTR	23	192	0
NMSI_	23	192	0	96	48	4
NMTAP	23	288	7
NMHLD	24	0	7	96
NMHLD	24	96	6	96
NMHLD	24	192	5	96
NMHLD	24	288	4	96
NMHLD	25	0	3	96
NMHLD	25	96	2	96
NMHLD	25	192	1	96
BRTAP	25	288	0
NMTAP	26	0	2
NMTAP	26	0	4
NMTAP	26	96	4
NMTAP	26	144	3
NMTAP	26	192	5
NMTAP	26	240	4
NMTAP	26	288	3
NMTAP	26	336	2
NMSTR	27	0	1
NMSI_	27	0	1	96	96	4
CNSI_	27	192	4	0	48	0
NMTAP	28	0	3
NMTAP	28	0	5
NMTAP	28	96	3
NMTAP	28	144	4
NMTAP	28	192	2
NMTAP	28	240	3
NMTAP	28	288	4
NMTAP	28	336	5
NMSTR	29	0	6
NMSUL	29	0	6	96	192	4
NMTAP	30	0	2
NMTAP	30	0	4
NMTAP	30	96	4
NMTAP	30	144	3
NMTAP	30	192	5
NMTAP	30	240	4
NMTAP	30	288	3
NMTAP	30	336	2
NMSTR	31	0	1
NMSI_	31	0	1	96	48	4
NMSTR	31	96	5
NMSI_	31	96	5	96	48	0
NMTAP	31	192	2
NMTAP	31	288	2
NMTAP	32	0	3
NMHLD	32	0	5	96
NMTAP	32	96	4
NMHLD	32	192	2	96
NMTAP	32	192	4
NMSTR	32	288	3
NMSUR	32	288	3	96	192	5
BRHLD	34	0	2	96
NMHLD	34	0	3	96
BRHLD	34	192	1	96
NMHLD	34	192	3	96
BRTAP	35	0	0
NMTAP	35	0	3
BRSTR	35	96	0
NMSI_	35	96	0	96	48	3
NMSI_	35	96	0	96	48	4
NMTAP	35	96	3
NMTAP	36	0	5
NMTAP	36	48	5
NMTAP	36	96	4
NMTAP	36	144	6
NMTAP	36	192	2
NMTAP	36	240	2
NMTAP	36	288	3
NMTAP	36	336	1
NMTAP	37	0	6
NMTAP	37	48	6
NMTAP	37	96	4
NMTAP	37	144	4
NMTAP	37	192	4
NMTAP	37	192	5
NMTAP	37	288	3
NMTAP	37	288	4
NMTAP	38	0	2
NMTAP	38	48	2
NMTAP	38	96	3
NMTAP	38	144	1
NMTAP	38	192	5
NMTAP	38	240	5
NMTAP	38	288	4
NMTAP	38	336	6
NMTAP	39	0	1
NMTAP	39	48	1
NMTAP	39	96	3
NMTAP	39	144	3
NMTAP	39	192	2
NMTAP	39	192	3
NMTAP	39	288	3
NMTAP	39	288	4
NMTAP	40	0	5
NMTAP	40	48	5
NMTAP	40	96	7
NMTAP	40	144	6
NMTAP	40	192	2
NMTAP	40	240	2
NMTAP	40	288	0
NMTAP	40	336	1
NMTAP	41	0	5
NMTAP	41	48	5
NMTAP	41	96	7
NMTAP	41	144	6
NMTAP	41	192	0
NMTAP	41	288	2
NMTAP	41	288	3
EXHLD	42	0	1	48
EXHLD	42	0	3	48
EXHLD	42	72	1	48
EXHLD	42	72	3	48
EXHLD	42	144	2	48
EXHLD	42	144	4	48
EXHLD	42	216	2	48
EXHLD	42	216	4	48
EXHLD	42	288	3	48
EXHLD	42	288	5	48
EXHLD	42	360	3	48
EXHLD	42	360	5	48
EXHLD	43	48	4	48
EXHLD	43	48	6	48
EXHLD	43	120	4	48
EXHLD	43	120	6	48
EXTAP	43	192	4
EXTAP	43	192	6
EXHLD	44	0	4	48
EXHLD	44	0	6	48
EXHLD	44	72	4	48
EXHLD	44	72	6	48
EXHLD	44	144	3	48
EXHLD	44	144	5	48
EXHLD	44	216	3	48
EXHLD	44	216	5	48
EXHLD	44	288	2	48
EXHLD	44	288	4	48
EXSTR	44	360	1
NMSCR	44	360	1	96	96	4
EXSTR	44	360	5
NMSCR	44	360	5	96	96	0
NMTTP	46	0	5	B	0	M1
NMTTP	46	0	5	E	0	M1
NMTTP	46	0	6	B	0	M1
NMTTP	46	96	1	B	0	M1
NMTTP	46	96	2	B	0	M1
NMTTP	46	96	3	E	0	M1
BXHLD	46	192	7	96
NMTAP	46	288	4
NMTAP	47	0	4
NMTAP	47	0	6
NMTAP	47	96	1
NMTAP	47	96	3
NMTAP	47	192	0
NMTAP	47	192	7
NMSTR	47	288	6
NMSI_	47	288	6	96	96	4
CNSV_	48	96	4	0	96	2
NMTAP	48	192	0
NMSTR	48	288	1
NMSI_	48	288	1	96	96	3
CNSV_	49	96	3	0	96	5
NMTAP	49	192	7
NMTAP	49	288	4
NMTAP	49	288	6
NMHLD	49	336	4	96
NMHLD	49	336	6	96
NMTAP	50	96	3
NMTAP	50	96	5
NMHLD	50	192	2	192
NMTAP	50	288	0
NMHLD	51	0	5	192
NMTAP	51	96	7
NMTAP	51	192	3
NMSTR	51	288	2
NMSI_	51	288	2	96	96	0
CNSV_	52	96	0	0	96	6
NMTAP	52	192	4
NMSTR	52	288	5
NMSI_	52	288	5	96	96	7
CNSV_	53	96	7	0	96	1
NMTAP	53	192	3
NMTAP	53	288	0
NMTAP	53	288	2
NMHLD	53	336	0	96
NMHLD	53	336	2	96
NMTAP	54	96	0
NMTAP	54	96	7
NMHLD	54	192	5	96
NMHLD	54	192	7	96
NMTAP	54	336	6
NMTAP	55	0	6
NMTAP	55	48	7
NMTAP	55	96	0
NMTAP	55	144	1
NMTAP	55	192	6
NMTAP	55	240	7
NMTAP	55	288	0
NMTAP	55	336	1
BRSTR	56	0	2
NMSCL	56	0	2	96	480	5
NMHLD	58	0	1	384
NMTAP	58	192	3
NMHLD	59	0	6	384
NMTAP	59	192	4
NMHLD	60	0	2	384
NMTAP	60	192	0
NMHLD	61	0	5	384
NMTAP	61	192	7
NMHLD	62	0	1	192
NMHLD	62	192	3	192
NMHLD	63	0	4	192
NMHLD	63	192	6	192
NMTAP	64	0	0
NMTAP	64	96	0
NMTAP	64	192	1
NMTAP	64	288	1
NMTAP	65	0	2
NMTAP	65	96	2
NMTAP	65	192	3
NMTAP	65	288	3
NMHLD	66	0	4	96
NMHLD	66	0	5	96
NMHLD	66	192	6	96
NMHLD	66	192	7	96
NMSTR	67	0	0
BRSCR	67	0	0	96	192	6
EXSTR	68	0	6
NMSI_	68	0	6	96	48	2
EXSTR	68	0	7
NMSI_	68	0	7	96	48	3
NMTAP	68	192	1
NMTAP	68	240	1
NMSTR	68	288	0
NMSUR	68	288	0	96	72	4
NMHLD	68	288	3	96
CNSI_	69	72	4	0	72	7
EXTAP	69	288	6
EXTAP	69	288	7
NMSTR	70	0	0
NMSI_	70	0	0	96	48	4
NMSTR	70	0	1
NMSI_	70	0	1	96	48	5
NMTAP	70	192	6
NMTAP	70	288	2
NMTAP	70	288	4
NMTTP	71	0	1	D	0	M1
NMTTP	71	48	0	D	0	M1
NMTTP	71	96	7	D	0	M1
NMTTP	71	144	6	D	0	M1
NMTTP	71	192	5	D	0	M1
NMTTP	71	240	4	D	0	M1
NMTTP	71	288	3	D	0	M1
EXSTR	72	0	0
NMSI_	72	0	0	96	48	4
EXSTR	72	0	1
NMSI_	72	0	1	96	48	5
NMTAP	72	192	6
NMTAP	72	240	6
NMHLD	72	288	4	96
NMSTR	72	288	7
NMSUL	72	288	7	96	72	3
CNSI_	73	72	3	0	72	0
EXTAP	73	288	0
EXTAP	73	288	1
NMSTR	74	0	6
NMSI_	74	0	6	96	48	2
NMSTR	74	0	7
NMSI_	74	0	7	96	48	3
NMTAP	74	192	1
NMTAP	74	288	3
NMTAP	74	288	5
NMTTP	75	0	7	D	0	M1
NMTTP	75	48	0	D	0	M1
NMTTP	75	96	1	D	0	M1
NMTTP	75	144	2	D	0	M1
NMTTP	75	192	3	D	0	M1
NMTTP	75	240	4	D	0	M1
NMTTP	75	288	5	D	0	M1
NMTAP	76	0	6
NMTAP	76	48	6
NMTAP	76	96	4
NMTAP	76	144	4
NMTAP	76	192	7
NMTAP	76	240	7
NMTAP	76	288	0
NMTAP	76	336	0
NMHLD	77	0	1	32
NMHLD	77	0	3	32
NMHLD	77	96	4	32
NMHLD	77	96	6	32
NMHLD	77	192	1	32
NMHLD	77	192	3	32
BRTAP	77	288	2
BRTAP	77	288	4
NMTAP	78	0	1
NMTAP	78	48	1
NMTAP	78	96	3
NMTAP	78	144	3
NMTAP	78	192	0
NMTAP	78	240	0
NMTAP	78	288	7
NMTAP	78	336	7
NMTAP	79	0	4
NMTAP	79	0	6
NMTAP	79	64	3
NMTAP	79	64	5
NMTAP	79	128	2
NMTAP	79	128	4
NMTAP	79	192	1
NMTAP	79	192	3
NMTAP	79	256	2
NMTAP	79	256	4
NMTAP	79	320	3
NMTAP	79	320	5
NMSTR	80	0	4
NMSUL	80	0	4	96	192	3
NMHLD	80	0	6	96
NMTAP	81	0	1
NMHLD	81	48	1	96
NMTAP	81	144	3
NMHLD	81	192	3	96
NMTAP	81	288	4
NMTAP	82	0	5
NMTAP	82	48	5
NMTAP	82	96	4
NMTAP	82	96	5
NMTAP	82	192	6
NMTAP	82	192	7
NMTAP	82	288	0
NMTAP	82	288	5
NMTAP	83	0	6
NMHLD	83	48	6	96
NMTAP	83	144	4
NMHLD	83	192	4	96
NMTAP	83	288	3
NMTAP	84	0	2
NMTAP	84	48	2
NMTAP	84	96	2
NMTAP	84	96	3
NMTAP	84	192	0
NMTAP	84	192	1
NMTAP	84	288	2
NMSTR	84	288	7
NMSCL	84	288	7	96	192	1
NMTTP	85	0	0	C	1	M1
EXTAP	85	192	0
EXTAP	85	288	0
NMTAP	86	0	2
NMTAP	86	0	4
NMTAP	86	96	2
NMTAP	86	96	4
NMTAP	86	192	3
NMTAP	86	192	5
NMTAP	86	288	3
NMTAP	86	288	5
NMHLD	87	0	6	288
NMTTP	87	96	5	E	1	M1
NMTTP	87	192	0	C	1	M1
NMTTP	87	288	3	E	1	M1
EXSTR	88	0	0
NMSSL	88	0	0	96	192	4
NMSTR	89	0	6
NMSCL	89	0	6	96	48	3
NMSTR	89	0	7
NMSCR	89	0	7	96	48	2
NMSTR	89	192	0
NMSCL	89	192	0	96	48	5
NMSTR	89	192	1
NMSCR	89	192	1	96	48	4
NMSTR	90	0	6
NMSCL	90	0	6	96	48	3
NMSTR	90	0	7
NMSCR	90	0	7	96	48	2
NMTAP	90	192	0
NMTAP	90	192	1
NMTAP	90	288	0
NMTAP	90	288	1
NMTAP	91	0	2
NMTAP	91	0	3
NMTAP	91	96	4
NMTAP	91	144	5
NMHLD	91	192	6	96
NMTAP	91	288	4
NMTAP	91	336	3
NMHLD	92	0	2	96
NMSTR	92	96	3
NMSXL	92	96	3	96	192	7
NMTAP	92	192	1
NMHLD	93	0	0	96
NMTAP	93	96	3
NMTAP	93	144	3
NMTAP	93	192	1
NMTAP	93	240	1
NMTAP	93	288	5
NMTAP	93	336	6
NMHLD	94	0	6	96
NMTAP	94	96	3
NMTAP	94	144	3
NMTAP	94	192	5
NMTAP	94	240	5
NMTAP	94	288	1
NMTAP	94	336	0
NMHLD	95	0	0	96
NMTAP	95	96	3
NMTAP	95	144	3
NMTAP	95	240	4
NMTAP	95	240	7
NMTAP	95	288	4
NMTAP	95	288	7
NMSTR	96	0	6
NMSI_	96	0	6	96	48	4
NMSTR	96	0	7
NMSI_	96	0	7	96	48	3
NMHLD	96	192	0	96
NMHLD	96	192	1	96
NMTAP	97	0	7
NMTAP	97	48	0
NMTAP	97	96	1
NMTAP	97	144	7
NMTAP	97	192	0
NMTAP	97	240	1
NMTAP	97	288	2
NMTAP	97	336	3
NMTAP	98	0	4
NMTAP	98	48	5
NMTAP	98	96	6
NMTAP	98	144	6
NMTAP	98	192	4
NMTAP	98	264	3
NMTAP	98	264	4
NMTAP	98	336	1
NMTAP	98	336	3
NMTAP	99	0	0
NMTAP	99	48	7
NMTAP	99	96	6
NMTAP	99	144	0
NMTAP	99	192	7
NMTAP	99	240	6
NMTAP	99	288	5
NMTAP	99	336	4
NMTAP	100	0	3
NMTAP	100	48	2
NMTAP	100	96	1
NMTAP	100	144	1
EXHLD	100	192	2	24
EXHLD	100	192	3	24
EXHLD	100	288	4	24
EXHLD	100	288	5	24
NMTAP	101	0	3
NMTAP	101	48	4
NMTAP	101	96	5
NMTAP	101	144	3
NMTAP	101	192	4
NMTAP	101	240	5
NMTAP	101	288	6
NMTAP	101	336	7
NMTAP	102	0	0
NMTAP	102	48	1
NMTAP	102	96	2
NMTAP	102	144	3
NMTHO	102	192	0	96	C	1	M1
NMTTP	103	0	0	E	0	M1
NMTTP	103	48	7	E	0	M1
NMTTP	103	96	6	E	0	M1
NMTTP	103	144	5	E	0	M1
NMTTP	103	192	4	E	0	M1
NMTTP	103	240	3	E	0	M1
NMTTP	103	288	2	E	0	M1
NMTTP	103	336	1	E	0	M1
NMTAP	104	0	7
NMTAP	104	48	6
NMTAP	104	96	5
NMTAP	104	144	4
NMTAP	104	192	3
NMTAP	104	240	2
NMTAP	104	288	1
NMTAP	104	336	0
BXHLD	105	0	7	1392
NMTAP	108	0	4
NMTAP	108	48	4
NMTAP	108	144	2
NMSTR	108	240	0
NMSI_	108	240	0	96	48	4
BRTAP	108	336	5

T_REC_TAP	322
T_REC_BRK	5
T_REC_XTP	11
T_REC_BXX	0
T_REC_HLD	84
T_REC_XHO	30
T_REC_BHO	2
T_REC_BXH	2
T_REC_STR	36
T_REC_BST	2
T_REC_XST	7
T_REC_XBS	0
T_REC_TTP	32
T_REC_THO	2
T_REC_SLD	45
T_REC_BSL	1
T_REC_ALL	581
T_NUM_TAP	408
T_NUM_BRK	12
T_NUM_HLD	116
T_NUM_SLD	45
T_NUM_ALL	581
T_JUDGE_TAP	415
T_JUDGE_HLD	285
T_JUDGE_SLD	46
T_JUDGE_ALL	746
TTM_EACHPAIRS	109
TTM_SCR_TAP	204000
TTM_SCR_BRK	31200
TTM_SCR_HLD	116000
TTM_SCR_SLD	67500
TTM_SCR_ALL	418700
TTM_SCR_S	405000
TTM_SCR_SS	417500
TTM_RAT_ACV	10028

