VERSION	0.00.00	1.04.00
FES_MODE	0
BPM_DEF	200.000	200.000	200.000	150.000
MET_DEF	4	4
RESOLUTION	384
CLK_DEF	384
COMPATIBLE_CODE	MA2

BPM	0	0	200.000
BPM	68	0	150.000
BPM	81	0	200.000
MET	0	0	4	4

NMTAP	2	0	2
NMTAP	2	192	2
NMTAP	3	0	2
NMTAP	3	0	3
NMTAP	3	192	2
NMTAP	3	192	3
NMTAP	4	0	5
NMTAP	4	192	5
NMTAP	5	0	4
NMTAP	5	0	5
NMTAP	5	192	4
NMTAP	5	192	5
NMHLD	6	0	2	192
NMHLD	6	192	3	192
NMHLD	7	0	4	192
NMTAP	7	192	5
NMHLD	8	0	5	192
NMHLD	8	192	4	192
NMHLD	9	0	3	192
NMTAP	9	192	2
NMHLD	10	0	1	192
NMHLD	10	192	2	192
NMHLD	11	0	3	192
NMTAP	11	192	4
NMHLD	12	0	6	192
NMHLD	12	192	5	192
NMHLD	13	0	4	192
NMTAP	13	192	3
NMTAP	14	0	2
NMTAP	14	192	1
NMTAP	15	0	0
NMTAP	15	192	7
NMTAP	16	0	6
NMTAP	16	192	5
BRTAP	17	0	3
BRTAP	17	0	4
NMTAP	18	0	5
NMTAP	18	96	5
NMTAP	18	192	5
NMTAP	19	0	6
NMTAP	19	96	6
NMTAP	19	192	6
NMTAP	20	0	7
NMTAP	20	96	7
NMTAP	20	192	7
NMTAP	21	0	0
NMTAP	21	0	1
NMTAP	21	192	0
NMTAP	21	192	1
NMTAP	22	0	2
NMTAP	22	96	2
NMTAP	22	192	2
NMTAP	23	0	1
NMTAP	23	96	1
NMTAP	23	192	1
NMTAP	24	0	0
NMTAP	24	96	0
NMTAP	24	192	0
NMTAP	25	0	6
NMTAP	25	0	7
NMTAP	25	192	6
NMTAP	25	192	7
NMTAP	26	0	5
NMTAP	26	96	5
NMTAP	26	192	4
NMTAP	26	192	5
NMTAP	27	0	6
NMTAP	27	96	6
NMTAP	27	192	6
NMTAP	27	192	7
NMTAP	28	0	0
NMTAP	28	96	0
NMTAP	28	192	0
NMTAP	28	192	1
NMTAP	29	0	2
NMTAP	29	0	3
NMTAP	29	192	2
NMTAP	29	192	3
NMTAP	30	0	2
NMTAP	30	96	2
NMTAP	30	192	2
NMTAP	30	192	3
NMTAP	31	0	1
NMTAP	31	96	1
NMTAP	31	192	0
NMTAP	31	192	1
NMTAP	32	0	7
NMTAP	32	96	7
NMTAP	32	192	6
NMTAP	32	192	7
NMTAP	33	0	4
NMTAP	33	0	5
NMTAP	33	192	4
NMTAP	33	192	5
NMTAP	34	0	3
NMTAP	34	0	4
NMTAP	34	192	2
NMTAP	34	192	5
NMTAP	35	0	3
NMTAP	35	96	4
NMTAP	35	192	3
NMTTP	36	0	5	B	0	L1
NMTTP	36	96	6	B	0	L1
NMTTP	36	192	7	B	0	L1
NMTTP	37	0	2	B	0	L1
NMTTP	37	96	1	B	0	L1
NMTTP	37	192	0	B	0	L1
NMTTP	38	0	5	B	0	L1
NMTTP	38	96	6	B	0	L1
NMTTP	38	192	7	B	0	L1
NMTTP	38	288	0	B	0	L1
NMTTP	39	0	1	B	0	L1
NMTTP	39	96	2	B	0	L1
NMTTP	39	192	3	B	0	L1
NMTTP	39	192	4	B	0	L1
NMTAP	40	0	1
NMTAP	40	96	1
NMTAP	40	192	2
NMTAP	40	288	2
NMTAP	41	0	3
NMTAP	41	96	3
NMTAP	41	192	4
NMTAP	41	192	5
NMTAP	42	0	6
NMTAP	42	96	6
NMTAP	42	192	5
NMTAP	42	288	5
NMTAP	43	0	4
NMTAP	43	96	4
NMTAP	43	192	2
NMTAP	43	192	3
NMTAP	44	0	2
NMTAP	44	96	2
NMTAP	44	192	1
NMTAP	44	288	1
NMTAP	45	0	0
NMTAP	45	96	0
NMTAP	45	192	6
NMTAP	45	192	7
NMTAP	46	0	5
NMTAP	46	96	5
NMTAP	46	192	6
NMTAP	46	288	6
NMTAP	47	0	7
NMTAP	47	96	7
NMTAP	47	192	0
NMTAP	47	192	1
NMHLD	48	0	2	192
NMTAP	48	192	3
NMHLD	49	0	5	192
NMTAP	49	192	4
NMHLD	50	0	2	192
NMTAP	50	192	3
NMHLD	51	0	5	192
NMTAP	51	192	4
NMHLD	52	0	6	192
NMTAP	52	192	7
NMHLD	53	0	1	192
NMTAP	53	192	0
NMHLD	54	0	6	192
NMTAP	54	192	7
NMHLD	55	0	1	192
NMTAP	55	192	0
NMTAP	56	0	1
NMTAP	56	96	1
NMTAP	56	192	1
NMTAP	56	288	1
NMTAP	57	0	2
NMTAP	57	96	2
NMTAP	57	192	2
NMTAP	57	288	2
NMTAP	58	0	3
NMTAP	58	96	3
NMTAP	58	192	3
NMTAP	58	288	3
NMTAP	59	0	4
NMTAP	59	0	5
NMTAP	60	0	6
NMTAP	60	96	6
NMTAP	60	192	6
NMTAP	60	288	6
NMTAP	61	0	5
NMTAP	61	96	5
NMTAP	61	192	5
NMTAP	61	288	5
NMTAP	62	0	4
NMTAP	62	96	4
NMTAP	62	192	4
NMTAP	62	288	4
NMTAP	63	0	2
NMTAP	63	0	3
NMTAP	64	0	0
NMTAP	64	0	1
NMTAP	64	96	0
NMTAP	64	96	1
NMTAP	64	192	0
NMTAP	64	192	1
NMTAP	65	0	6
NMTAP	65	0	7
NMTAP	65	96	6
NMTAP	65	96	7
NMTAP	65	192	6
NMTAP	65	192	7
NMTAP	66	0	0
NMTAP	66	96	0
NMTAP	66	192	7
NMTAP	66	288	7
BRTAP	67	0	1
BRTAP	67	0	6
NMSTR	68	0	0
NMSCR	68	0	0	96	192	3
NMSTR	69	0	4
NMSCR	69	0	4	96	192	7
NMSTR	70	0	0
NMSI_	70	0	0	96	192	4
NMTAP	71	0	5
NMTAP	71	96	6
NMTAP	71	192	0
NMTAP	71	192	7
NMSTR	72	0	7
NMSCL	72	0	7	96	192	4
NMSTR	73	0	3
NMSCL	73	0	3	96	192	0
NMSTR	74	0	7
NMSI_	74	0	7	96	192	3
NMTAP	75	0	2
NMTAP	75	96	1
NMTAP	75	192	0
NMTAP	75	192	7
NMTAP	76	0	0
NMTAP	76	96	1
NMTAP	76	192	2
NMTAP	76	288	3
NMTAP	77	0	4
NMTAP	77	96	5
NMTAP	77	192	6
NMTAP	77	192	7
NMTAP	78	0	7
NMTAP	78	96	6
NMTAP	78	192	5
NMTAP	78	288	4
NMTAP	79	0	3
NMTAP	79	96	2
NMTAP	79	192	0
NMTAP	79	192	1
EXHLD	80	0	0	192
EXHLD	80	0	7	192
NMTAP	81	0	1
NMTAP	81	96	1
NMTAP	81	192	1
NMTAP	81	288	0
NMTAP	81	288	1
NMTAP	82	0	2
NMTAP	82	96	2
NMTAP	82	192	2
NMTAP	82	288	2
NMTAP	82	288	3
NMTAP	83	0	4
NMTAP	83	96	4
NMTAP	83	192	4
NMTAP	83	288	4
NMTAP	83	288	5
NMTAP	84	0	6
NMTAP	84	0	7
NMTAP	84	96	6
NMTAP	84	96	7
NMTAP	84	192	6
NMTAP	84	192	7
NMTAP	85	0	6
NMTAP	85	96	6
NMTAP	85	192	6
NMTAP	85	288	6
NMTAP	85	288	7
NMTAP	86	0	5
NMTAP	86	96	5
NMTAP	86	192	5
NMTAP	86	288	4
NMTAP	86	288	5
NMTAP	87	0	3
NMTAP	87	96	3
NMTAP	87	192	3
NMTAP	87	288	2
NMTAP	87	288	3
NMTAP	88	0	0
NMTAP	88	0	1
NMTAP	88	96	0
NMTAP	88	96	1
NMTAP	88	192	0
NMTAP	88	192	1
NMTAP	89	0	2
NMTAP	89	96	2
NMTAP	89	192	0
NMTAP	89	192	1
NMTAP	89	288	0
NMTAP	89	288	1
NMTAP	90	0	7
NMTAP	90	96	7
NMTAP	90	192	6
NMTAP	90	192	7
NMTAP	91	0	5
NMTAP	91	96	5
NMTAP	91	192	6
NMTAP	91	192	7
NMTAP	91	288	6
NMTAP	91	288	7
NMTAP	92	0	0
NMTAP	92	96	0
NMTAP	92	192	0
NMTAP	92	192	1
NMTAP	93	0	1
NMTAP	93	96	1
NMTAP	93	192	2
NMTAP	93	192	3
NMTAP	93	288	2
NMTAP	93	288	3
NMTAP	94	0	4
NMTAP	94	96	4
NMTAP	94	192	4
NMTAP	94	192	5
NMTAP	95	0	6
NMTAP	95	96	6
NMTAP	95	192	4
NMTAP	95	192	5
NMTAP	95	288	4
NMTAP	95	288	5
NMTAP	96	0	3
NMTAP	96	96	3
NMTAP	96	192	2
NMTAP	96	192	3
NMTAP	97	0	2
NMTAP	97	96	2
NMTAP	97	192	0
NMTAP	97	192	1
NMTAP	97	288	0
NMTAP	97	288	1
NMTAP	98	0	7
NMTAP	98	96	6
NMTAP	98	192	4
NMTAP	98	192	5
NMTAP	98	288	4
NMTAP	98	288	5
NMTAP	99	0	6
NMTAP	99	96	7
NMTAP	99	192	0
NMTAP	99	192	1
NMTAP	99	288	0
NMTAP	99	288	1
NMTAP	100	0	2
NMTAP	100	96	2
NMTAP	100	192	3
NMTAP	100	192	4
NMTAP	101	0	5
NMTAP	101	96	5
NMTAP	101	192	6
NMTAP	101	192	7
NMTAP	101	288	6
NMTAP	101	288	7
NMTAP	102	0	0
NMTAP	102	96	1
NMTAP	102	192	2
NMTAP	102	192	3
NMTAP	102	288	2
NMTAP	102	288	3
NMTAP	103	0	1
NMTAP	103	96	0
NMTAP	103	192	6
NMTAP	103	192	7
NMTAP	103	288	6
NMTAP	103	288	7
NMTAP	104	0	5
NMTAP	104	96	5
NMTAP	104	192	3
NMTAP	104	192	4
NMSTR	105	0	1
NMSUR	105	0	1	96	480	4
NMSTR	107	0	6
NMSUL	107	0	6	96	480	3

T_REC_TAP	321
T_REC_BRK	4
T_REC_XTP	0
T_REC_BXX	0
T_REC_HLD	20
T_REC_XHO	2
T_REC_BHO	0
T_REC_BXH	0
T_REC_STR	8
T_REC_BST	0
T_REC_XST	0
T_REC_XBS	0
T_REC_TTP	14
T_REC_THO	0
T_REC_SLD	8
T_REC_BSL	0
T_REC_ALL	377
T_NUM_TAP	343
T_NUM_BRK	4
T_NUM_HLD	22
T_NUM_SLD	8
T_NUM_ALL	377
T_JUDGE_TAP	347
T_JUDGE_HLD	88
T_JUDGE_SLD	8
T_JUDGE_ALL	443
TTM_EACHPAIRS	77
TTM_SCR_TAP	171500
TTM_SCR_BRK	10400
TTM_SCR_HLD	22000
TTM_SCR_SLD	12000
TTM_SCR_ALL	215900
TTM_SCR_S	209050
TTM_SCR_SS	215500
TTM_RAT_ACV	10018

