VERSION	0.00.00	1.04.00
FES_MODE	0
BPM_DEF	180.000	180.000	180.000	180.000
MET_DEF	4	4
RESOLUTION	384
CLK_DEF	384
COMPATIBLE_CODE	MA2

BPM	0	0	180.000
MET	0	0	4	4

NMHLD	1	0	2	576
NMHLD	1	288	4	384
NMHLD	3	0	5	528
NMHLD	3	288	3	240
NMSTR	4	192	3
NMSSR	4	192	3	96	48	7
NMSTR	4	192	5
NMSI_	4	192	5	96	48	1
EXHLD	5	0	0	192
NMSTR	5	192	2
NMSCL	5	192	2	96	288	3
NMTTP	6	192	0	C	0	M1
NMTAP	7	0	1
NMTAP	7	0	3
NMTAP	7	96	5
NMTAP	7	144	4
NMTAP	7	144	6
NMTAP	7	240	2
NMSTR	7	288	0
NMSCR	7	288	0	96	144	3
NMSTR	7	288	4
NMSCR	7	288	4	96	144	7
NMTAP	8	192	3
NMTAP	8	216	7
NMTAP	8	240	2
NMTAP	8	264	6
NMTAP	8	288	1
NMTAP	8	312	5
NMTAP	8	336	0
NMTAP	8	360	4
NMTAP	9	0	1
NMTAP	9	48	1
NMTAP	9	96	5
NMTAP	9	144	3
NMTAP	9	192	3
NMTAP	9	192	5
NMTAP	9	288	2
NMTAP	9	288	5
NMTAP	9	336	2
NMTAP	10	0	5
NMTAP	10	48	4
NMSTR	10	96	4
NMSI_	10	96	4	96	48	0
NMTAP	10	96	5
NMTAP	10	192	5
NMTAP	10	288	1
NMTAP	10	288	7
NMTAP	11	0	2
NMTAP	11	0	6
NMTAP	11	48	6
NMTAP	11	96	2
NMTAP	11	144	4
NMTAP	11	192	2
NMTAP	11	192	4
NMTAP	11	288	2
NMTAP	11	288	5
NMTAP	11	336	5
NMTAP	12	0	2
NMTAP	12	48	3
NMTAP	12	96	2
NMSTR	12	96	3
NMSI_	12	96	3	96	48	7
NMTAP	12	192	2
NMTAP	12	288	0
NMTAP	12	288	6
NMTAP	13	0	1
NMTAP	13	0	5
NMTAP	13	48	2
NMTAP	13	96	3
NMTAP	13	96	4
NMTAP	13	144	5
NMTAP	13	192	3
NMTAP	13	192	6
NMTAP	13	240	5
NMTAP	13	288	2
NMTAP	13	288	4
NMTAP	13	336	1
NMTAP	14	0	0
NMTAP	14	0	3
NMTAP	14	48	1
NMTAP	14	96	2
NMTAP	14	96	4
NMTAP	14	144	3
NMTAP	14	192	4
NMTAP	14	192	5
NMTAP	14	240	6
NMTAP	14	288	4
NMTAP	14	288	7
NMTAP	14	336	6
NMTAP	15	0	3
NMTAP	15	24	4
NMTAP	15	48	3
NMTAP	15	72	4
NMTAP	15	96	2
NMTAP	15	120	5
NMTAP	15	144	2
NMTAP	15	168	5
NMTAP	15	192	1
NMTAP	15	216	6
NMTAP	15	240	1
NMTAP	15	264	6
NMTAP	15	288	0
NMTAP	15	312	7
NMTAP	15	336	0
NMTAP	15	360	7
EXTAP	16	0	1
EXTAP	16	0	6
NMTAP	16	96	4
NMTAP	16	96	5
NMTAP	16	144	2
NMTAP	16	168	3
NMTAP	16	192	1
NMTAP	16	240	6
NMTAP	16	240	7
NMTAP	16	288	0
NMSTR	16	288	5
NMSXL	16	288	5	96	120	4
BRHLD	17	0	2	96
NMTAP	17	192	1
NMTAP	17	192	3
NMTAP	17	240	2
NMHLD	17	288	5	48
NMHLD	17	336	4	48
NMTAP	18	0	6
NMTAP	18	48	3
NMHLD	18	96	1	48
NMHLD	18	144	3	48
NMTAP	18	192	2
NMTAP	18	240	4
NMTAP	18	288	3
NMTAP	18	288	5
NMTAP	18	336	3
NMTAP	18	336	5
NMSTR	19	0	2
NMSI_	19	0	2	96	48	5
NMTAP	19	0	6
CNSI_	19	144	5	0	24	3
NMTAP	19	192	7
NMTAP	19	240	7
NMHLD	19	288	6	48
NMHLD	19	336	4	48
NMTAP	20	0	5
NMTAP	20	48	3
NMHLD	20	96	2	48
NMHLD	20	144	3	48
NMTAP	20	192	1
NMTAP	20	240	4
NMHLD	20	288	3	48
NMHLD	20	288	5	48
NMSTR	21	0	1
NMSV_	21	0	1	96	48	4
NMSTR	21	0	7
NMSV_	21	0	7	96	48	4
BRSTR	21	96	1
NMSI_	21	96	1	96	32	3
BRSTR	21	96	7
NMSI_	21	96	7	96	32	5
NMTAP	21	192	1
NMTAP	21	192	7
NMTAP	21	288	0
NMTAP	21	336	0
NMHLD	22	0	1	48
NMHLD	22	48	3	48
NMTAP	22	96	2
NMTAP	22	144	4
NMHLD	22	192	5	48
NMHLD	22	240	4	48
NMTAP	22	288	6
NMTAP	22	336	3
NMHLD	23	0	2	96
NMHLD	23	0	4	96
NMTAP	23	144	2
NMTAP	23	144	4
NMSTR	23	192	1
NMSLR	23	192	1	96	96	6
NMTAP	23	192	5
NMSTR	23	288	6
NMSLL	23	288	6	96	96	1
NMTAP	24	0	1
NMSTR	24	96	7
NMSCL	24	96	7	96	48	4
NMTAP	24	144	7
NMSTR	24	192	0
NMSCR	24	192	0	96	48	3
NMTAP	24	288	0
NMTAP	24	288	7
BRSTR	25	0	2
NMSXL	25	0	2	96	216	5
BRSTR	25	0	6
NMSXL	25	0	6	96	216	1
NMTAP	26	0	0
NMTAP	26	0	4
NMTAP	26	48	3
NMTAP	26	48	7
NMTAP	26	96	2
NMTAP	26	96	6
NMTAP	26	144	1
NMTAP	26	144	5
NMSTR	26	192	0
NMSUR	26	192	0	96	48	4
NMSTR	26	192	4
NMSUR	26	192	4	96	48	0
EXTAP	27	0	2
EXHLD	27	0	6	96
NMTAP	27	96	4
NMTAP	27	144	3
NMSTR	27	192	2
NMSV_	27	192	2	96	48	5
NMHLD	27	192	4	96
NMSTR	28	0	2
NMSV_	28	0	2	96	48	7
NMHLD	28	0	6	96
NMSTR	28	192	2
NMSI_	28	192	2	96	48	6
NMHLD	28	192	4	96
NMSTR	29	0	5
NMSI_	29	0	5	96	48	7
NMSTR	29	0	7
NMSI_	29	0	7	96	48	3
EXTAP	29	96	5
EXTAP	29	96	7
NMTAP	29	192	0
NMTAP	29	192	2
NMTAP	29	240	7
NMTAP	29	288	4
NMTAP	29	288	6
NMTAP	29	336	3
NMHLD	30	0	2	192
NMTAP	30	0	4
NMTAP	30	48	5
NMTAP	30	96	6
NMTAP	30	144	7
NMSTR	30	192	0
NMSI_	30	192	0	96	48	4
NMHLD	31	0	3	96
NMHLD	31	0	5	96
NMTAP	31	144	3
NMTAP	31	144	5
NMTAP	31	192	2
NMSTR	31	192	6
NMSLL	31	192	6	96	96	1
NMSTR	31	288	1
NMSLR	31	288	1	96	96	6
NMTAP	32	0	6
NMTAP	32	96	0
NMTAP	32	144	7
NMSTR	32	192	1
NMSCR	32	192	1	96	96	3
NMTAP	32	192	6
NMSTR	32	288	3
NMSCR	32	288	3	96	96	5
NMSTR	33	0	5
NMSCR	33	0	5	96	96	7
NMSTR	33	96	7
NMSCR	33	96	7	96	96	1
NMSTR	33	192	1
NMSCR	33	192	1	96	96	4
NMSTR	33	288	4
NMSCR	33	288	4	96	96	7
NMSTR	34	0	7
NMSCR	34	0	7	96	96	2
NMSTR	34	96	2
NMSCR	34	96	2	96	96	5
NMSTR	34	192	5
NMSCR	34	192	5	96	96	0
NMSTR	34	288	0
NMSCR	34	288	0	96	96	3
NMSTR	35	0	3
NMSCR	35	0	3	96	96	7
NMSTR	35	96	7
NMSCR	35	96	7	96	96	3
NMSTR	35	192	3
NMSI_	35	192	3	96	48	7
NMTAP	35	288	7
NMTAP	36	0	6
NMTAP	36	48	4
NMTAP	36	96	1
NMTAP	36	144	3
NMHLD	36	192	2	72
NMHLD	36	192	6	72
NMSTR	36	288	1
NMSI_	36	288	1	96	48	4
NMSTR	36	288	5
NMSI_	36	288	5	96	48	0
BRTAP	37	0	1
BRTAP	37	0	5
NMHLD	37	192	2	48
NMHLD	37	192	6	48
NMHLD	37	264	2	48
NMHLD	37	264	6	48
NMTAP	37	336	2
NMTAP	37	336	6
NMTAP	38	48	1
NMTAP	38	48	5
NMHLD	38	96	0	96
NMSTR	38	96	6
NMSI_	38	96	6	96	48	2
NMTAP	38	192	6
NMTAP	38	288	1
NMTAP	38	312	3
NMTAP	38	336	1
NMTAP	38	360	3
NMSTR	39	0	2
NMSI_	39	0	2	96	48	7
NMSTR	39	96	6
NMSI_	39	96	6	96	48	3
NMHLD	39	192	0	48
NMHLD	39	264	0	48
NMTAP	39	336	1
NMTAP	39	336	7
NMTAP	40	48	3
NMTAP	40	48	5
NMSTR	40	96	2
NMSI_	40	96	2	96	48	6
NMSTR	40	96	6
NMSI_	40	96	6	96	48	2
NMSTR	40	192	2
NMSCL	40	192	2	96	48	0
NMSTR	40	192	6
NMSCL	40	192	6	96	48	4
NMSTR	41	0	3
NMSUR	41	0	3	96	48	7
NMSTR	41	0	7
NMSUR	41	0	7	96	48	3
NMHLD	41	192	1	48
NMHLD	41	192	5	48
NMHLD	41	264	1	48
NMHLD	41	264	5	48
NMTAP	41	336	1
NMTAP	41	336	5
NMTAP	42	48	2
NMTAP	42	48	6
NMTAP	42	96	2
NMSTR	42	96	6
NMSCL	42	96	6	96	48	3
NMHLD	42	192	1	72
NMHLD	42	264	2	72
NMTAP	42	336	3
NMSTR	43	0	1
NMSCR	43	0	1	96	48	4
NMTAP	43	48	1
NMTAP	43	96	0
NMHLD	43	192	6	72
NMHLD	43	264	5	72
NMTAP	43	336	4
NMTAP	44	0	3
NMTAP	44	0	5
NMTAP	44	48	1
NMTAP	44	96	2
NMTAP	44	96	4
NMTAP	44	144	6
NMTAP	44	192	3
EXTAP	44	192	7
EXTAP	44	240	3
NMTAP	44	240	7
NMTAP	44	288	3
EXTAP	44	288	7
EXTAP	44	336	3
NMTAP	44	336	7
NMSTR	45	0	0
NMSI_	45	0	0	96	48	5
NMSTR	45	0	4
NMSI_	45	0	4	96	48	1
NMSTR	45	192	0
NMSI_	45	192	0	96	48	2
NMSTR	45	192	4
NMSI_	45	192	4	96	48	6
NMTAP	45	288	0
NMTAP	45	288	4
NMTAP	46	0	3
NMTAP	46	0	7
NMTAP	46	48	2
NMTAP	46	96	1
NMTAP	46	96	5
NMTAP	46	144	4
NMHLD	46	192	2	96
NMTAP	46	192	3
NMTAP	46	288	4
NMTAP	46	312	2
NMTAP	46	336	4
NMTAP	46	360	2
NMSTR	47	0	5
NMSCL	47	0	5	96	48	2
NMSTR	47	96	1
NMSI_	47	96	1	96	48	4
NMHLD	47	192	7	48
NMHLD	47	264	7	48
NMTAP	47	336	0
NMTAP	47	336	6
NMTAP	48	48	1
NMTAP	48	48	5
NMSTR	48	96	1
NMSI_	48	96	1	96	48	3
NMSTR	48	96	5
NMSI_	48	96	5	96	48	7
NMSTR	48	192	1
NMSI_	48	192	1	96	48	5
NMSTR	49	0	7
NMSCL	49	0	7	96	48	4
NMSTR	49	144	2
NMSCL	49	144	2	96	48	7
NMSTR	49	288	5
NMSCL	49	288	5	96	48	2
NMSTR	50	48	0
NMSCL	50	48	0	96	48	5
NMHLD	50	192	3	96
NMTAP	50	288	4
NMTAP	50	336	3
NMSTR	51	0	2
NMSLR	51	0	2	96	72	6
NMSTR	51	144	7
NMSLR	51	144	7	96	72	3
NMSTR	51	288	4
NMSLR	51	288	4	96	72	0
NMSTR	52	48	1
NMSLR	52	48	1	96	72	5
NMSTR	52	192	7
NMSI_	52	192	7	96	1632	3
NMTTP	55	0	0	A	0	M1
NMTTP	55	144	1	A	0	M1
NMTTP	55	288	2	A	0	M1
NMSTR	57	0	1
NMSXR	57	0	1	96	1440	2
NMTTP	59	0	4	D	0	M1
NMTTP	59	144	6	D	0	M1
NMTTP	59	288	5	D	0	M1
NMSTR	61	0	5
NMSUL	61	0	5	96	1056	3
NMTTP	63	0	3	D	0	M1
NMTTP	63	144	2	D	0	M1
NMTTP	63	288	1	D	0	M1
NMTAP	64	144	1
NMTAP	64	144	3
NMTAP	64	192	4
NMSTR	64	192	6
NMSSL	64	192	6	96	48	2
NMTAP	65	0	0
NMTAP	65	48	0
NMTAP	65	96	1
NMHLD	65	96	3	96
NMHLD	65	192	4	96
NMSTR	65	288	6
NMSI_	65	288	6	96	48	2
NMHLD	66	0	1	96
NMTAP	66	96	3
NMTAP	66	144	4
NMTAP	66	192	5
NMTAP	66	240	6
NMHLD	66	288	7	96
NMTAP	67	0	0
NMTAP	67	96	2
NMTAP	67	96	3
NMTAP	67	144	1
NMTAP	67	144	4
NMTAP	67	240	4
NMTAP	67	240	5
NMSTR	67	288	3
NMSCL	67	288	3	96	144	0
NMSTR	67	288	7
NMSCL	67	288	7	96	144	4
NMTAP	68	192	0
NMTAP	68	216	4
NMTAP	68	240	1
NMTAP	68	264	5
NMTAP	68	288	2
NMTAP	68	312	6
NMTAP	68	336	3
NMTAP	68	360	7
NMHLD	69	0	4	672
NMTTP	69	96	6	E	0	M1
NMTTP	69	192	5	E	0	M1
NMTTP	69	288	0	C	0	M1
NMTTP	70	0	3	E	0	M1
NMTTP	70	96	2	E	0	M1
NMTTP	70	192	1	E	0	M1
NMTTP	70	288	0	E	0	M1
NMHLD	71	0	3	672
NMTTP	71	96	2	E	0	M1
NMTTP	71	192	3	E	0	M1
NMTTP	71	288	0	C	0	M1
NMTTP	72	0	5	E	0	M1
NMTTP	72	96	6	E	0	M1
NMTTP	72	192	7	E	0	M1
NMTTP	72	288	0	E	0	M1
NMTAP	73	0	2
NMTAP	73	48	2
NMTAP	73	96	1
NMTAP	73	96	3
NMTAP	73	144	4
NMTAP	73	192	5
NMTAP	73	240	5
NMTAP	73	288	4
NMTAP	73	288	6
NMTAP	73	336	3
NMTAP	74	0	2
NMTAP	74	48	2
NMTAP	74	96	4
NMTAP	74	144	3
NMTAP	74	192	6
NMTAP	74	240	6
NMSTR	74	288	4
NMSCR	74	288	4	96	384	3
NMTAP	74	336	5
EXHLD	76	0	5	96
NMTAP	76	96	2
NMTAP	76	144	1
NMSTR	76	192	0
NMSI_	76	192	0	96	24	3
NMSTR	76	192	4
NMSV_	76	192	4	96	24	7
NMTAP	76	240	3
NMTAP	76	240	7
NMTTP	76	288	0	C	1	M1
BRTAP	77	0	2
BRTAP	77	0	6
NMTAP	77	48	1
NMTAP	77	96	7
NMTAP	77	144	0
NMTAP	77	144	6
NMTAP	77	192	5
NMTAP	77	240	1
NMTAP	77	288	0
NMTAP	77	288	6
NMTAP	77	336	5
NMTAP	78	0	3
NMSTR	78	48	1
NMSCR	78	48	1	96	48	4
NMTAP	78	48	7
NMTAP	78	96	6
NMTAP	78	144	5
NMTAP	78	240	6
NMTAP	78	264	4
NMTAP	78	288	5
NMTAP	78	336	0
NMTAP	79	0	1
NMTAP	79	0	7
NMTAP	79	48	6
NMTAP	79	96	5
NMTAP	79	144	2
NMTAP	79	144	4
NMTAP	79	192	1
NMTAP	79	240	0
NMTAP	79	288	6
NMTAP	79	288	7
NMTAP	79	336	5
NMTAP	80	0	4
NMHLD	80	48	2	96
NMTAP	80	48	3
NMTAP	80	144	0
NMTAP	80	192	1
NMTAP	80	192	7
NMTAP	80	216	2
NMTAP	80	240	3
NMTAP	80	264	4
NMTAP	80	288	5
NMTAP	80	312	6
NMTAP	80	336	7
NMSTR	81	0	4
NMSCR	81	0	4	96	48	7
NMTAP	81	48	3
NMSTR	81	144	1
NMSCR	81	144	1	96	48	4
NMTAP	81	192	0
NMSTR	81	288	6
NMSCR	81	288	6	96	48	1
NMTAP	81	336	5
NMSTR	82	48	3
NMSCR	82	48	3	96	48	6
NMTAP	82	96	2
NMTAP	82	144	1
NMTAP	82	240	0
NMTAP	82	264	7
NMTAP	82	288	0
NMTAP	82	336	1
NMTAP	82	336	6
NMHLD	83	0	5	96
NMTAP	83	96	4
NMHLD	83	144	2	96
NMTAP	83	240	3
NMTAP	83	288	1
NMSTR	83	288	4
NMSI_	83	288	4	96	48	7
NMSTR	84	0	0
NMSI_	84	0	0	96	48	3
EXTAP	84	0	4
EXTAP	84	96	0
NMTAP	84	96	6
NMTAP	84	192	7
NMTAP	84	216	6
NMTAP	84	240	5
NMTAP	84	264	4
NMTAP	84	288	2
NMTAP	84	312	1
EXTAP	84	336	0
NMSTR	85	0	6
NMSI_	85	0	6	96	48	3
NMTAP	85	48	7
NMTAP	85	96	6
NMSTR	85	144	1
NMSCR	85	144	1	96	48	4
NMTAP	85	192	0
NMTAP	85	240	1
NMSTR	85	288	6
NMSUL	85	288	6	96	48	2
NMTAP	85	336	7
NMTAP	86	0	6
NMSTR	86	48	0
NMSI_	86	48	0	96	48	4
NMTAP	86	96	7
NMTAP	86	144	0
NMTAP	86	240	6
NMTAP	86	264	7
NMTAP	86	288	6
NMTAP	86	336	0
NMTAP	86	336	5
NMSTR	87	0	4
NMSCR	87	0	4	96	48	7
NMTAP	87	48	3
NMTAP	87	96	2
NMSTR	87	144	1
NMSCR	87	144	1	96	48	4
NMTAP	87	192	0
NMTAP	87	240	7
NMSTR	87	288	6
NMSCR	87	288	6	96	48	1
NMTAP	87	336	5
NMTAP	88	0	4
NMSTR	88	48	3
NMSI_	88	48	3	96	48	7
NMTAP	88	144	3
NMTAP	88	192	1
NMTAP	88	240	0
NMTAP	88	240	1
NMTAP	88	288	6
NMTAP	88	336	6
NMTAP	88	336	7
NMSTR	89	0	1
NMSI_	89	0	1	96	48	4
NMTAP	89	48	0
NMTAP	89	96	1
NMSTR	89	144	6
NMSCL	89	144	6	96	48	3
NMTAP	89	192	7
NMTAP	89	240	6
NMSTR	89	288	1
NMSUR	89	288	1	96	48	5
NMTAP	89	336	0
NMTAP	90	0	1
NMSTR	90	48	7
NMSI_	90	48	7	96	48	3
NMTAP	90	96	0
NMTAP	90	144	7
NMTAP	90	240	1
NMTAP	90	264	0
NMTAP	90	288	1
NMTAP	90	336	2
NMTAP	90	336	7
NMHLD	91	0	3	96
NMHLD	91	0	6	96
NMTAP	91	144	1
NMTAP	91	144	4
NMSTR	91	192	1
NMSI_	91	192	1	96	48	4
NMTAP	91	192	4
EXTAP	91	288	1
NMSTR	91	288	7
NMSI_	91	288	7	96	48	2
NMSTR	92	0	5
NMSI_	92	0	5	96	48	0
EXTAP	92	0	7
NMSTR	92	96	3
NMSI_	92	96	3	96	48	6
EXTAP	92	96	5
BRTAP	92	192	1
EXTAP	92	192	3
NMSTR	92	288	0
NMSI_	92	288	0	96	96	2
NMSTR	92	288	7
NMSI_	92	288	7	96	96	5
CNSV_	93	96	2	0	96	1
CNSV_	93	96	5	0	96	6
CNSI_	93	192	1	0	96	3
CNSI_	93	192	6	0	96	4
CNSSR	93	288	3	0	288	7
CNSSL	93	288	4	0	288	0
BRTAP	94	240	0
BRTAP	94	240	7
EXTAP	94	256	1
EXTAP	94	256	6
EXTAP	94	272	2
EXTAP	94	272	5
BXTAP	94	288	3
BXTAP	94	288	4
NMSTR	95	0	6
NMSI_	95	0	6	96	48	2
NMTAP	95	48	7
NMSTR	95	96	0
NMSCR	95	96	0	96	48	3
NMSTR	95	192	0
NMSCL	95	192	0	96	48	5
NMSTR	95	288	0
NMSI_	95	288	0	96	48	4
NMTAP	96	0	0
NMTAP	96	96	3
NMTAP	96	96	5
NMTAP	96	144	6
NMTAP	96	192	0
NMTAP	96	192	7
NMTAP	96	240	1
NMSTR	96	288	2
NMSI_	96	288	2	96	48	7
NMTAP	96	288	4
NMSTR	97	0	6
NMSI_	97	0	6	96	48	3
NMTAP	97	48	5
NMSTR	97	96	0
NMSI_	97	96	0	96	48	4
NMSTR	97	192	4
NMSF_	97	192	4	96	48	0
EXTAP	98	0	3
EXTAP	98	0	5
NMHLD	98	96	1	48
NMHLD	98	144	3	48
NMHLD	98	192	4	48
NMHLD	98	240	6	48
NMSTR	98	288	1
NMSCR	98	288	1	96	48	4
NMHLD	99	0	7	96
NMTAP	99	96	0
NMTAP	99	144	7
NMSTR	99	192	6
NMSCL	99	192	6	96	48	3
NMHLD	99	288	0	96
NMTAP	100	0	7
NMHLD	100	96	6	48
NMHLD	100	144	4	48
NMHLD	100	192	3	48
NMHLD	100	240	1	48
NMTTP	100	288	0	C	0	M1
NMSTR	101	0	0
NMSUR	101	0	0	96	48	4
NMTAP	101	0	7
NMSTR	101	96	4
NMSCL	101	96	4	96	48	1
NMTAP	101	192	5
NMTAP	101	288	0
NMSTR	101	288	6
NMSCL	101	288	6	96	48	3
NMSTR	102	0	3
NMSUR	102	0	3	96	48	7
NMTAP	102	96	2
NMTAP	102	144	1
NMTAP	102	192	0
NMTAP	102	240	7
NMTAP	102	288	2
NMTAP	102	288	6
NMSTR	103	0	1
NMSI_	103	0	1	96	48	5
NMTAP	103	48	0
NMSTR	103	96	7
NMSCL	103	96	7	96	48	4
NMSTR	103	192	7
NMSCR	103	192	7	96	48	2
NMSTR	103	288	7
NMSI_	103	288	7	96	48	3
NMTAP	104	0	7
NMTAP	104	96	2
NMTAP	104	96	4
NMTAP	104	144	1
NMTAP	104	192	0
NMTAP	104	192	7
NMTAP	104	240	6
NMHLD	104	288	3	48
NMHLD	104	288	5	48
NMTAP	105	0	2
NMTAP	105	24	3
NMTAP	105	48	2
NMTAP	105	96	1
NMTAP	105	96	4
NMTAP	105	144	1
NMTAP	105	144	4
NMTAP	105	192	0
NMTAP	105	192	5
NMTAP	105	240	0
NMTAP	105	240	5
NMTAP	105	288	6
NMTAP	105	288	7
NMTAP	105	336	6
NMTAP	105	336	7
NMTAP	106	0	5
NMTAP	106	24	4
NMTAP	106	48	5
NMTAP	106	96	3
NMTAP	106	96	6
NMTAP	106	144	3
NMTAP	106	144	6
NMTAP	106	192	2
NMTAP	106	192	7
NMTAP	106	240	2
NMTAP	106	240	7
NMHLD	106	288	0	48
NMHLD	106	288	1	48
NMTAP	107	0	2
NMTAP	107	24	3
NMTAP	107	48	2
NMTAP	107	72	3
NMTAP	107	96	0
NMTAP	107	120	7
NMTAP	107	144	0
NMTAP	107	168	7
NMTAP	107	192	4
NMTAP	107	216	5
NMTAP	107	240	4
NMTAP	107	264	5
NMTAP	107	288	3
NMTAP	107	312	4
NMTAP	107	336	2
NMTAP	107	360	3
NMTAP	108	0	1
NMTAP	108	24	0
NMTAP	108	48	2
NMTAP	108	72	7
NMTAP	108	96	3
NMTAP	108	120	6
NMTAP	108	144	4
NMTAP	108	168	5
NMTAP	108	192	3
NMTAP	108	216	4
NMTAP	108	240	2
NMTAP	108	264	3
NMSTR	108	288	1
NMSCL	108	288	1	96	576	2
NMTTP	109	0	0	C	1	M1

T_REC_TAP	440
T_REC_BRK	7
T_REC_XTP	22
T_REC_BXX	2
T_REC_HLD	72
T_REC_XHO	3
T_REC_BHO	1
T_REC_BXH	0
T_REC_STR	122
T_REC_BST	4
T_REC_XST	0
T_REC_XBS	0
T_REC_TTP	27
T_REC_THO	0
T_REC_SLD	126
T_REC_BSL	0
T_REC_ALL	826
T_NUM_TAP	611
T_NUM_BRK	14
T_NUM_HLD	75
T_NUM_SLD	126
T_NUM_ALL	826
T_JUDGE_TAP	624
T_JUDGE_HLD	170
T_JUDGE_SLD	126
T_JUDGE_ALL	920
TTM_EACHPAIRS	150
TTM_SCR_TAP	305500
TTM_SCR_BRK	36400
TTM_SCR_HLD	75000
TTM_SCR_SLD	189000
TTM_SCR_ALL	605900
TTM_SCR_S	586400
TTM_SCR_SS	604500
TTM_RAT_ACV	10023

