VERSION	0.00.00	1.04.00
FES_MODE	0
BPM_DEF	180.000	180.000	180.000	180.000
MET_DEF	4	4
RESOLUTION	384
CLK_DEF	384
COMPATIBLE_CODE	MA2

BPM	0	0	180.000
MET	0	0	4	4

NMTAP	1	0	3
NMTAP	1	0	5
NMTAP	1	192	4
NMTAP	1	288	3
NMTAP	1	288	5
NMTAP	2	96	3
NMTAP	2	96	5
NMTAP	2	192	4
NMTAP	3	0	2
NMTAP	3	0	4
NMTAP	3	192	3
NMTAP	3	288	2
NMTAP	3	288	4
NMTAP	4	96	2
NMTAP	4	96	4
NMTAP	4	192	3
NMTAP	4	288	2
NMTAP	5	0	1
NMTAP	5	0	3
NMTAP	5	192	2
NMTAP	5	288	1
NMTAP	5	288	3
NMTAP	6	96	2
NMTAP	6	192	2
NMTAP	6	192	3
NMHLD	7	0	2	96
NMHLD	7	0	4	96
NMHLD	7	144	3	96
NMHLD	7	144	5	96
NMTAP	7	288	4
NMTAP	8	0	1
NMTAP	8	0	6
NMTAP	8	48	1
NMTAP	8	48	6
NMTAP	8	288	3
NMTAP	8	288	4
NMHLD	9	0	5	576
NMTTP	9	96	5	E	0	M1
NMTTP	9	192	6	E	0	M1
NMTTP	9	288	7	E	0	M1
NMTTP	10	0	0	E	0	M1
NMTTP	10	96	1	E	0	M1
NMTTP	10	192	2	E	0	M1
NMHLD	11	0	2	576
NMTTP	11	96	3	E	0	M1
NMTTP	11	192	2	E	0	M1
NMTTP	11	288	1	E	0	M1
NMTTP	12	0	0	E	0	M1
NMTTP	12	96	7	E	0	M1
NMTTP	12	192	6	E	0	M1
NMTAP	13	0	5
NMTAP	13	48	5
NMTAP	13	96	4
NMTAP	13	192	2
NMTAP	13	240	2
NMTAP	13	288	3
NMTAP	14	0	6
NMTAP	14	48	6
NMTAP	14	96	4
NMTAP	14	192	1
NMTAP	14	240	1
NMTAP	14	288	3
NMTAP	15	0	2
NMTAP	15	48	2
NMTAP	15	96	1
NMTAP	15	144	1
NMTAP	15	192	0
NMTAP	15	240	0
NMTAP	15	288	7
BXTAP	16	0	1
BXTAP	16	0	6
NMTAP	16	288	1
NMTAP	16	288	4
NMTAP	17	0	2
NMSTR	17	0	5
NMSI_	17	0	5	96	48	3
NMTAP	17	192	2
NMSTR	17	192	6
NMSI_	17	192	6	96	48	3
NMTAP	18	0	2
NMSTR	18	0	3
NMSI_	18	0	3	96	48	7
NMTAP	18	192	0
NMTAP	18	192	6
NMTAP	18	288	0
NMTAP	18	288	6
NMSTR	19	0	2
NMSI_	19	0	2	96	48	4
NMTAP	19	0	5
NMSTR	19	192	1
NMSI_	19	192	1	96	48	4
NMTAP	19	192	5
NMSTR	20	0	4
NMSI_	20	0	4	96	48	0
NMTAP	20	0	5
NMTAP	20	192	7
NMTAP	20	240	7
NMTAP	20	288	0
NMSTR	21	0	0
NMSCR	21	0	0	96	48	2
NMSTR	21	0	5
NMSCR	21	0	5	96	48	7
NMTAP	21	192	0
NMTAP	21	240	0
NMTAP	21	288	1
NMTAP	22	0	0
NMSTR	22	0	1
NMSI_	22	0	1	96	48	3
NMTAP	22	192	0
NMSTR	22	192	1
NMSI_	22	192	1	96	48	4
EXTAP	23	0	5
EXTAP	23	144	3
EXTAP	23	192	4
NMHLD	23	288	2	288
NMSTR	23	288	3
NMSCL	23	288	3	96	192	4
NMTAP	24	288	2
NMTAP	24	288	4
NMSTR	25	0	2
NMSI_	25	0	2	96	48	4
NMHLD	25	0	3	192
NMSTR	25	192	5
NMSI_	25	192	5	96	48	1
NMTAP	26	0	7
NMTAP	26	48	7
NMTAP	26	96	0
NMTAP	26	144	0
BRTAP	26	192	6
NMSTR	27	0	0
NMSI_	27	0	0	96	48	6
NMHLD	27	0	7	192
NMSTR	27	192	5
NMSI_	27	192	5	96	48	1
NMTAP	28	0	7
NMTAP	28	48	7
NMTAP	28	96	0
NMTAP	28	144	0
BRTAP	28	192	6
NMSTR	29	0	1
NMSI_	29	0	1	96	48	4
NMSTR	29	0	5
NMSI_	29	0	5	96	48	0
NMSTR	29	192	0
NMSCL	29	192	0	96	48	5
NMSTR	29	192	4
NMSCL	29	192	4	96	48	1
NMTAP	30	0	1
NMTAP	30	0	5
NMTAP	30	48	1
NMTAP	30	48	5
NMTAP	30	96	1
NMTAP	30	96	5
NMTAP	30	144	1
NMTAP	30	144	5
BRTAP	30	192	2
BRTAP	30	192	6
EXTAP	31	0	4
EXTAP	31	0	5
EXTAP	31	144	6
EXTAP	31	144	7
EXTAP	31	192	6
EXTAP	31	192	7
EXTAP	31	288	2
EXTAP	31	288	3
BXTAP	32	0	1
BXTAP	32	0	4
NMTAP	32	96	2
NMTAP	32	192	3
NMTAP	32	288	4
NMHLD	33	0	3	192
NMHLD	33	0	5	192
NMHLD	34	0	2	192
NMHLD	34	0	4	192
NMHLD	35	0	5	96
NMHLD	35	96	4	96
NMHLD	35	192	3	96
NMHLD	35	288	2	96
NMHLD	36	0	1	96
NMHLD	36	96	0	96
NMHLD	36	192	7	96
BRTAP	36	288	0
NMTAP	37	0	3
NMTAP	37	0	5
EXTAP	37	192	3
EXTAP	37	192	5
EXTAP	37	264	2
EXTAP	37	264	3
EXTAP	37	336	0
EXTAP	37	336	1
NMTAP	38	48	6
NMTAP	38	96	0
BRTAP	38	192	1
BRTAP	38	192	5
NMTAP	39	0	2
NMTAP	39	0	4
NMTAP	39	96	2
NMTAP	39	96	4
EXTAP	39	192	4
EXTAP	39	192	5
EXTAP	39	264	6
EXTAP	39	264	7
EXTAP	39	336	0
EXTAP	39	336	1
NMTAP	40	48	7
NMTAP	40	96	1
BRTAP	40	192	2
BRTAP	40	192	6
NMTAP	41	0	3
NMTAP	41	0	5
NMTAP	41	96	3
NMTAP	41	96	5
EXTAP	41	192	2
EXTAP	41	192	3
EXTAP	41	264	0
EXTAP	41	264	1
EXTAP	41	336	6
EXTAP	41	336	7
NMTAP	42	48	5
NMTAP	42	96	5
EXTAP	42	192	4
EXTAP	42	192	6
EXTAP	42	264	3
EXTAP	42	264	5
EXTAP	42	336	2
EXTAP	42	336	4
NMTAP	43	0	1
NMTAP	43	48	1
NMTAP	43	96	3
EXTAP	43	192	2
EXTAP	43	192	4
EXTAP	43	264	3
EXTAP	43	264	5
EXTAP	43	336	4
EXTAP	43	336	6
NMTAP	44	0	3
NMTAP	44	48	3
NMTAP	44	96	5
NMHLD	44	144	5	96
BXTAP	44	192	7
BXTAP	44	240	7
BXTAP	44	288	7
BXTAP	44	336	7
NMTAP	45	0	6
NMTAP	45	192	1
NMTAP	45	192	4
NMTAP	46	0	2
NMTAP	46	48	2
NMTAP	46	96	4
NMTAP	46	144	4
BRTAP	46	192	3
NMTAP	47	0	5
NMTAP	47	96	4
EXTAP	47	192	2
EXTAP	47	192	3
EXTAP	47	264	0
EXTAP	47	264	1
EXTAP	47	336	6
EXTAP	47	336	7
NMTAP	48	48	0
NMTAP	48	96	0
BRTAP	48	192	1
BRTAP	48	192	7
NMTAP	49	0	4
NMTAP	49	0	5
NMTAP	49	144	1
NMTAP	49	144	2
NMTAP	49	288	6
NMTAP	49	288	7
NMTAP	50	48	2
NMTAP	50	48	3
NMTAP	50	192	1
NMTAP	50	192	4
NMTAP	50	288	2
NMTAP	50	336	2
NMTAP	51	0	1
NMTAP	51	0	3
NMTAP	51	144	5
NMTAP	51	144	6
NMTAP	51	288	0
NMTAP	51	288	1
NMTAP	52	48	4
NMTAP	52	48	5
BRSTR	52	192	2
NMSCL	52	192	2	96	768	4
BRSTR	52	192	5
NMSCR	52	192	5	96	768	3
NMTTP	55	0	6	E	0	M1
NMTTP	55	144	4	E	0	M1
NMTTP	55	288	2	E	0	M1
BRSTR	56	96	4
BRSXL	56	96	4	96	864	7
NMSTR	56	192	3
NMSXR	56	192	3	96	768	0
NMTTP	59	0	2	E	0	M1
NMTTP	59	144	0	C	0	M1
NMTTP	59	288	6	E	0	M1
BRSTR	60	96	5
BRSXR	60	96	5	96	864	2
NMSTR	60	192	1
NMSXR	60	192	1	96	768	6
NMTTP	63	0	6	B	0	M1
NMTTP	63	0	7	B	0	M1
NMTTP	63	0	7	E	0	M1
NMTTP	63	144	0	B	0	M1
NMTTP	63	144	1	B	0	M1
NMTTP	63	144	1	E	0	M1
NMTTP	63	288	3	B	0	M1
NMTTP	63	288	4	B	0	M1
NMTTP	63	288	4	E	0	M1
NMTTP	64	192	0	C	1	M1
NMTTP	64	192	1	B	0	M1
NMTTP	64	192	2	B	0	M1
NMTTP	64	192	3	B	0	M1
NMTTP	64	192	4	B	0	M1
NMTTP	64	192	5	B	0	M1
NMTAP	65	0	0
NMTAP	65	0	6
NMTAP	65	192	7
NMTAP	65	288	0
NMTAP	65	288	6
NMTAP	66	96	7
NMTAP	66	192	0
NMTAP	66	192	6
NMTAP	66	288	1
NMTAP	66	288	7
NMTAP	67	0	2
NMTAP	67	0	3
NMTAP	67	96	4
NMTAP	67	96	6
NMTAP	67	144	4
NMTAP	67	144	6
NMTAP	67	240	1
NMTAP	67	240	3
NMTAP	67	288	1
NMTAP	67	288	3
BRTAP	68	0	2
BRTAP	68	0	5
NMHLD	69	0	6	576
NMTTP	69	96	0	B	0	M1
NMTTP	69	192	2	E	0	M1
NMTTP	69	288	4	E	0	M1
NMTTP	70	0	5	E	0	M1
NMTTP	70	96	0	C	0	M1
NMTTP	70	192	0	E	0	M1
NMHLD	71	0	1	576
NMTTP	71	96	7	B	0	M1
NMTTP	71	192	6	E	0	M1
NMTTP	71	288	4	E	0	M1
NMTTP	72	0	3	E	0	M1
NMTTP	72	96	0	C	0	M1
NMTTP	72	192	0	E	0	M1
NMTAP	73	0	4
NMTAP	73	0	5
NMHLD	73	48	4	96
NMHLD	73	48	5	96
NMTAP	73	192	2
NMTAP	73	192	3
NMHLD	73	240	2	96
NMHLD	73	240	3	96
NMTAP	74	0	4
NMTAP	74	0	6
NMHLD	74	48	4	96
NMHLD	74	48	6	96
NMTAP	74	192	1
NMTAP	74	192	3
NMHLD	74	240	1	96
NMHLD	74	240	3	96
NMTHO	75	0	0	384	C	1	M1
NMTAP	76	96	0
NMTAP	76	96	6
NMTAP	76	192	1
NMTAP	76	192	7
BRTAP	76	288	3
BRTAP	76	288	5
NMTAP	77	0	6
NMTAP	77	0	7
NMTAP	77	96	2
NMTAP	77	96	3
NMTAP	77	192	0
NMTAP	77	192	1
NMTAP	77	288	3
NMTAP	77	288	5
NMTAP	78	0	6
NMTAP	78	0	7
NMTAP	78	96	1
NMTAP	78	96	4
NMTAP	78	192	2
NMTAP	78	240	2
NMTAP	78	288	1
NMTAP	78	288	3
NMTAP	79	0	0
NMTAP	79	0	1
NMTAP	79	96	4
NMTAP	79	96	5
NMTAP	79	192	6
NMTAP	79	192	7
NMTAP	79	288	2
NMTAP	79	288	4
NMTAP	80	0	0
NMTAP	80	0	1
NMTAP	80	96	3
NMTAP	80	96	5
NMHLD	80	192	3	72
NMHLD	80	264	2	72
NMTAP	80	336	1
NMTAP	81	0	0
NMTAP	81	0	1
NMTAP	81	96	4
NMTAP	81	96	5
NMTAP	81	192	6
NMTAP	81	192	7
NMTAP	81	288	2
NMTAP	81	288	4
NMTAP	82	0	0
NMTAP	82	0	1
NMTAP	82	96	3
NMTAP	82	96	6
NMTAP	82	192	5
NMTAP	82	240	5
NMTAP	82	288	4
NMTAP	82	288	6
NMTAP	83	0	6
NMTAP	83	0	7
NMTAP	83	96	2
NMTAP	83	96	3
NMTAP	83	192	0
NMTAP	83	192	1
NMTAP	83	288	3
NMTAP	83	288	5
NMTAP	84	0	6
NMTAP	84	0	7
NMTAP	84	96	2
NMTAP	84	96	4
EXTAP	84	192	2
EXTAP	84	216	3
EXTAP	84	240	2
BXTAP	84	288	1
BXTAP	84	288	4
NMTAP	85	0	6
NMTAP	85	0	7
NMTAP	85	96	0
NMTAP	85	96	5
NMTAP	85	192	0
NMTAP	85	192	1
NMTAP	85	288	2
NMTAP	85	288	7
NMTAP	86	0	6
NMTAP	86	0	7
NMTAP	86	96	0
NMTAP	86	96	5
NMSTR	86	192	6
NMSI_	86	192	6	96	48	3
NMSTR	86	192	7
NMSI_	86	192	7	96	48	2
NMTAP	87	0	0
NMTAP	87	0	1
NMTAP	87	96	2
NMTAP	87	96	7
NMTAP	87	192	6
NMTAP	87	192	7
NMTAP	87	288	0
NMTAP	87	288	5
NMTAP	88	0	0
NMTAP	88	0	1
NMTAP	88	96	2
NMTAP	88	96	7
NMSTR	88	192	0
NMSI_	88	192	0	96	48	5
NMSTR	88	192	1
NMSI_	88	192	1	96	48	4
NMTAP	89	0	6
NMTAP	89	0	7
NMTAP	89	96	2
NMTAP	89	96	3
NMTAP	89	192	0
NMTAP	89	192	1
NMTAP	89	288	4
NMTAP	89	288	5
NMSTR	90	0	3
NMSI_	90	0	3	96	48	0
NMSTR	90	0	5
NMSI_	90	0	5	96	48	0
NMTAP	90	192	1
NMTAP	90	192	7
NMTAP	90	288	1
NMTAP	90	288	7
EXTAP	91	0	2
EXTAP	91	0	6
EXTAP	91	144	2
EXTAP	91	144	3
NMSTR	91	192	2
NMSCR	91	192	2	96	192	1
NMHLD	91	192	3	192
NMSTR	92	192	3
NMSI_	92	192	3	96	48	0
NMSTR	92	192	4
NMSI_	92	192	4	96	48	7
NMHLD	93	0	1	480
NMHLD	93	0	6	480
NMSTR	94	192	0
NMSI_	94	192	0	96	48	4
NMSTR	94	192	1
NMSI_	94	192	1	96	48	4
NMTAP	95	0	3
NMTAP	95	0	5
NMTAP	95	96	3
NMTAP	95	96	5
NMTAP	95	192	2
NMTAP	95	192	3
NMTAP	95	288	0
NMTAP	95	288	1
NMSTR	96	0	6
NMSI_	96	0	6	96	48	3
NMSTR	96	0	7
NMSI_	96	0	7	96	48	3
NMSTR	96	192	0
NMSI_	96	192	0	96	48	4
NMSTR	96	192	1
NMSI_	96	192	1	96	48	4
NMTAP	97	0	5
NMTAP	97	48	4
NMTAP	97	96	5
NMTAP	97	192	3
NMTAP	97	192	6
NMTAP	97	288	3
NMTAP	97	288	6
NMSTR	98	0	0
NMSI_	98	0	0	96	48	4
NMSTR	98	0	1
NMSI_	98	0	1	96	48	4
NMSTR	98	192	6
NMSI_	98	192	6	96	48	3
NMSTR	98	192	7
NMSI_	98	192	7	96	48	3
NMHLD	99	0	2	48
NMHLD	99	0	4	48
EXTAP	99	144	0
EXTAP	99	144	1
EXTAP	99	192	0
EXTAP	99	192	1
EXTAP	99	288	6
EXTAP	99	288	7
EXTAP	100	0	2
EXTAP	100	0	3
BXTAP	100	96	2
BXTAP	100	96	3
NMTAP	100	192	4
NMTAP	100	192	5
NMTAP	100	288	6
NMTAP	100	288	7
NMTAP	101	0	1
NMTAP	101	48	0
NMTAP	101	96	1
NMTAP	101	192	6
NMTAP	101	192	7
NMTAP	101	288	0
NMTAP	101	288	5
NMSTR	102	0	1
NMSI_	102	0	1	96	48	4
NMSTR	102	0	5
NMSI_	102	0	5	96	48	0
NMSTR	102	192	0
NMSCL	102	192	0	96	48	5
NMSTR	102	192	4
NMSCL	102	192	4	96	48	1
NMTAP	103	0	1
NMTAP	103	96	0
NMTAP	103	96	1
NMTAP	103	192	4
NMTAP	103	192	5
NMTAP	103	288	4
NMTAP	103	288	5
NMSTR	104	0	6
NMSI_	104	0	6	96	48	3
NMSTR	104	0	7
NMSI_	104	0	7	96	48	3
NMSTR	104	192	0
NMSI_	104	192	0	96	48	4
NMSTR	104	192	1
NMSI_	104	192	1	96	48	4
NMTAP	105	0	3
NMTAP	105	0	5
NMTAP	105	96	2
NMTAP	105	96	4
NMTAP	105	192	4
NMTAP	105	192	6
NMTAP	105	288	1
NMTAP	105	288	3
NMTAP	106	0	2
NMTAP	106	0	3
BRTAP	106	96	6
BRTAP	106	96	7
NMTAP	106	192	4
NMTAP	106	192	5
BRTAP	106	288	0
BRTAP	106	288	1
NMTAP	107	0	3
NMTAP	107	48	3
NMTAP	107	96	2
NMTAP	107	144	2
NMTAP	107	192	1
NMTAP	107	240	1
BRTAP	107	288	0
NMTAP	108	0	7
NMTAP	108	24	0
NMTAP	108	48	7
NMTAP	108	72	0
NMTAP	108	96	7
NMTAP	108	120	0
NMTAP	108	144	7
NMTAP	108	168	0
BRTAP	108	192	7
BRSTR	108	288	0
NMSI_	108	288	0	96	48	4
BRSTR	108	288	7
NMSI_	108	288	7	96	48	3

T_REC_TAP	329
T_REC_BRK	22
T_REC_XTP	62
T_REC_BXX	12
T_REC_HLD	38
T_REC_XHO	0
T_REC_BHO	0
T_REC_BXH	0
T_REC_STR	48
T_REC_BST	6
T_REC_XST	0
T_REC_XBS	0
T_REC_TTP	45
T_REC_THO	1
T_REC_SLD	52
T_REC_BSL	2
T_REC_ALL	617
T_NUM_TAP	484
T_NUM_BRK	42
T_NUM_HLD	39
T_NUM_SLD	52
T_NUM_ALL	617
T_JUDGE_TAP	524
T_JUDGE_HLD	156
T_JUDGE_SLD	54
T_JUDGE_ALL	734
TTM_EACHPAIRS	193
TTM_SCR_TAP	242000
TTM_SCR_BRK	109200
TTM_SCR_HLD	39000
TTM_SCR_SLD	78000
TTM_SCR_ALL	468200
TTM_SCR_S	450100
TTM_SCR_SS	464000
TTM_RAT_ACV	10090

