VERSION	0.00.00	1.04.00
FES_MODE	0
BPM_DEF	190.000	190.000	190.000	190.000
MET_DEF	4	4
RESOLUTION	384
CLK_DEF	384
COMPATIBLE_CODE	MA2

BPM	0	0	190.000
MET	0	0	4	4

NMTAP	2	360	5
NMTAP	2	372	4
NMSTR	3	0	3
NMSLL	3	0	3	96	288	7
CNSI_	4	0	7	0	192	5
NMTTP	4	192	4	E	0	M1
NMTAP	5	0	2
NMSTR	5	0	4
NMSLR	5	0	4	96	288	0
NMTTP	5	192	2	B	0	M1
NMTTP	5	192	3	E	0	M1
CNSI_	6	0	0	0	192	2
NMTTP	6	192	5	B	0	M1
NMTTP	6	192	5	E	0	M1
NMSTR	7	0	3
NMSI_	7	0	3	96	128	1
NMTAP	7	0	4
NMTTP	7	192	0	B	0	M1
NMTTP	7	192	0	E	0	M1
NMTTP	7	192	7	B	0	M1
CNSCL	7	224	1	0	224	6
CNSI_	8	64	6	0	128	4
NMTTP	8	192	3	B	0	M1
NMTTP	8	192	4	B	0	M1
NMTTP	8	192	4	E	0	M1
BRTAP	9	0	0
BRTAP	9	0	6
NMTAP	9	48	1
NMTAP	9	72	7
NMTAP	9	96	2
NMTAP	9	120	6
NMTAP	9	144	3
NMTAP	9	168	5
NMTAP	9	192	2
NMTAP	9	216	4
NMTAP	9	240	1
NMTAP	9	264	5
NMSTR	9	288	0
NMSI_	9	288	0	96	48	4
NMSTR	9	336	6
NMSI_	9	336	6	96	48	2
BRTAP	10	0	0
BRTAP	10	48	6
BRTAP	10	144	3
BRTAP	10	144	5
NMTAP	10	240	1
NMTAP	10	240	6
NMSTR	10	288	1
NMSCR	10	288	1	96	48	4
NMTAP	10	288	6
NMTAP	11	0	1
NMSTR	11	48	7
NMSI_	11	48	7	96	48	3
NMTAP	11	96	1
NMTAP	11	144	7
NMSTR	11	192	0
NMSI_	11	192	0	96	48	4
NMTAP	11	240	7
NMTAP	11	288	0
NMSTR	11	336	6
NMSCL	11	336	6	96	48	3
NMTAP	12	0	0
NMTAP	12	48	6
NMSTR	12	96	0
NMSI_	12	96	0	96	48	4
NMTAP	12	144	6
NMTAP	12	192	0
NMTAP	12	240	5
NMTAP	12	264	3
NMSTR	12	288	6
NMSI_	12	288	6	96	48	3
NMTAP	12	312	2
NMTAP	12	336	7
NMTAP	12	360	1
NMTAP	13	0	6
NMSTR	13	48	0
NMSUR	13	48	0	96	48	4
NMTAP	13	96	6
NMTAP	13	144	0
NMSTR	13	192	7
NMSUL	13	192	7	96	48	3
NMTAP	13	240	0
NMTAP	13	288	7
NMSTR	13	336	1
NMSI_	13	336	1	96	48	4
NMTAP	14	0	7
NMTAP	14	48	1
NMSTR	14	96	7
NMSI_	14	96	7	96	48	3
NMTAP	14	144	1
NMTAP	14	192	7
NMTAP	14	240	1
NMTAP	14	264	4
NMSTR	14	288	2
NMSCL	14	288	2	96	48	7
NMTAP	14	312	5
NMTAP	14	336	3
NMTAP	14	360	6
NMTAP	15	0	2
NMSTR	15	48	4
NMSI_	15	48	4	96	48	0
NMTAP	15	96	2
NMTAP	15	144	4
NMSTR	15	192	3
NMSI_	15	192	3	96	48	7
NMTAP	15	240	4
NMTAP	15	288	3
NMSTR	15	336	5
NMSCR	15	336	5	96	48	0
NMTAP	16	0	3
NMTAP	16	48	5
NMSTR	16	96	3
NMSI_	16	96	3	96	48	7
NMTAP	16	144	5
NMTAP	16	192	3
NMTAP	16	240	6
NMTAP	16	264	0
NMSTR	16	288	5
NMSI_	16	288	5	96	48	0
NMTAP	16	312	1
NMTAP	16	336	4
NMTAP	16	360	2
NMTAP	17	0	5
NMSTR	17	48	3
NMSI_	17	48	3	96	48	6
NMTAP	17	96	7
NMTAP	17	144	3
NMSTR	17	192	0
NMSI_	17	192	0	96	48	5
NMTAP	17	240	1
NMTAP	17	288	0
NMSTR	17	336	2
NMSI_	17	336	2	96	48	7
NMTAP	18	0	3
NMTAP	18	48	2
NMSTR	18	96	4
NMSI_	18	96	4	96	48	0
NMTAP	18	144	0
NMTAP	18	192	4
NMTAP	18	240	1
NMSTR	18	288	7
NMSF_	18	288	7	96	48	3
BRSTR	19	0	7
NMSCL	19	0	7	96	480	0
NMTTP	21	0	7	A	0	M1
NMTTP	21	24	0	E	0	M1
NMTTP	21	48	1	E	0	M1
NMTTP	21	72	1	A	0	M1
NMTTP	21	96	7	E	0	M1
NMTTP	21	120	7	B	0	M1
NMTTP	21	144	1	B	0	M1
NMTTP	21	168	2	E	0	M1
NMTTP	21	192	6	E	0	M1
NMTTP	21	216	5	B	0	M1
NMTTP	21	240	3	B	0	M1
NMTTP	21	264	3	E	0	M1
NMTTP	21	288	5	A	0	M1
NMTTP	21	312	5	E	0	M1
NMTTP	21	336	4	E	0	M1
NMTTP	21	360	3	A	0	M1
NMTTP	22	0	7	D	0	M1
NMTTP	22	24	6	D	0	M1
NMTTP	22	48	5	D	0	M1
NMTTP	22	72	4	D	0	M1
NMTTP	22	96	3	D	0	M1
NMTTP	22	120	2	D	0	M1
NMTTP	22	144	1	D	0	M1
NMTTP	22	168	0	D	0	M1
NMTTP	22	192	2	B	0	M1
NMTTP	22	192	2	E	0	M1
NMTTP	22	216	6	B	0	M1
NMTTP	22	216	6	E	0	M1
NMTTP	22	240	0	B	0	M1
NMTTP	22	240	0	E	0	M1
NMTTP	22	264	4	B	0	M1
NMTTP	22	264	4	E	0	M1
NMTTP	22	288	1	E	0	M1
NMTTP	22	312	7	E	0	M1
NMTTP	22	336	3	E	0	M1
NMTTP	22	360	5	E	0	M1
NMTTP	23	0	0	C	1	M1
NMTAP	24	192	1
NMTAP	24	192	6
NMHLD	25	0	2	288
NMTAP	25	192	3
NMHLD	25	288	5	288
NMTAP	26	48	4
NMTAP	26	96	4
BRTAP	26	192	0
NMTAP	26	288	1
NMHLD	27	0	1	288
NMTAP	27	192	0
NMHLD	27	288	6	96
EXTAP	28	0	7
EXTAP	28	64	5
EXTAP	28	64	6
EXTAP	28	128	4
EXTAP	28	128	5
EXTAP	28	192	3
EXTAP	28	192	4
NMTAP	28	288	2
NMSTR	28	288	3
NMSF_	28	288	3	96	48	7
BRTAP	29	0	3
NMSTR	29	96	4
NMSF_	29	96	4	96	48	0
NMTAP	29	96	5
BRTAP	29	192	4
NMTAP	29	288	2
NMTAP	29	288	3
NMTAP	30	0	2
NMTAP	30	0	4
NMSTR	30	48	1
NMSI_	30	48	1	96	48	6
NMSTR	30	48	5
NMSI_	30	48	5	96	48	2
BRTAP	30	144	1
BRTAP	30	144	5
NMTAP	30	288	7
NMTAP	30	336	0
NMTAP	31	0	1
NMTAP	31	0	3
NMTAP	31	48	2
NMTAP	31	72	3
NMTAP	31	96	2
NMTAP	31	144	4
NMTAP	31	144	6
NMTAP	31	192	5
NMTAP	31	216	4
NMTAP	31	240	5
NMTAP	31	288	3
NMTAP	31	312	4
NMTAP	31	336	2
NMTAP	31	360	3
NMHLD	32	0	1	48
NMTAP	32	48	3
NMHLD	32	72	0	48
NMTAP	32	120	4
NMHLD	32	144	7	48
NMTAP	32	192	5
NMHLD	32	240	5	48
NMTAP	32	288	6
NMTAP	32	312	7
NMTAP	32	336	0
NMTAP	32	360	1
NMTAP	33	0	2
NMTAP	33	0	4
NMTAP	33	48	3
NMTAP	33	72	5
NMTAP	33	96	2
NMTAP	33	120	6
NMTAP	33	144	1
NMTAP	33	168	7
NMTAP	33	192	0
NMTAP	33	240	1
NMSTR	33	240	7
NMSI_	33	240	7	96	64	2
NMTAP	33	288	3
NMTAP	33	288	5
BRTAP	33	336	1
BRTAP	33	336	7
CNSI_	34	16	2	0	64	5
CNSI_	34	80	5	0	64	0
NMHLD	34	192	1	72
NMHLD	34	264	2	72
NMTAP	34	336	3
NMTAP	35	0	3
NMTAP	35	0	4
NMTAP	35	48	5
NMTAP	35	72	4
NMTAP	35	96	6
NMTAP	35	144	0
NMTAP	35	144	7
NMTAP	35	192	2
NMTAP	35	216	2
NMTAP	35	240	3
NMHLD	35	288	5	48
NMTAP	35	336	4
NMTAP	36	0	3
NMTAP	36	0	4
NMTAP	36	48	2
NMTAP	36	72	3
NMTAP	36	96	1
NMTAP	36	144	0
NMTAP	36	144	7
NMTAP	36	192	5
NMTAP	36	216	5
NMTAP	36	240	4
NMTAP	36	288	3
NMTAP	36	288	4
NMTAP	36	336	2
NMTAP	37	0	1
NMTAP	37	0	7
NMTAP	37	48	5
NMTAP	37	72	4
NMTAP	37	96	5
NMTAP	37	144	0
NMTAP	37	144	6
NMTAP	37	192	2
NMTAP	37	216	3
NMTAP	37	240	2
NMTAP	37	288	4
NMTAP	37	288	5
NMTAP	37	336	1
NMTAP	37	360	0
NMTAP	38	0	1
NMTAP	38	48	2
NMTAP	38	48	3
NMTAP	38	96	6
NMTAP	38	120	7
NMTAP	38	144	6
NMTAP	38	192	0
NMTAP	38	216	7
NMTAP	38	240	1
NMTAP	38	264	6
NMTAP	38	288	2
NMTAP	38	312	5
NMTAP	38	336	3
NMTAP	38	360	4
BRTAP	39	0	3
NMTAP	39	12	4
NMTAP	39	24	5
NMTAP	39	36	6
NMTAP	39	48	7
NMTAP	39	60	0
NMTAP	39	72	1
NMTAP	39	84	2
NMTAP	39	96	3
NMTAP	39	108	4
NMTAP	39	120	5
NMTAP	39	132	6
NMTAP	39	144	7
NMTAP	39	156	0
NMTAP	39	168	1
NMTAP	39	180	2
NMTAP	39	192	3
NMTAP	39	204	4
NMTAP	39	216	5
NMTAP	39	228	6
NMTAP	39	240	7
NMTAP	39	252	0
NMTAP	39	264	1
NMTAP	39	276	2
NMSTR	39	288	3
BRSI_	39	288	3	96	48	7
NMTAP	39	300	4
NMTAP	39	312	5
NMTAP	39	324	6
NMTAP	39	336	7
NMTAP	39	348	0
NMTAP	39	360	1
NMTAP	39	372	2
NMTAP	40	0	3
NMTTP	42	192	3	E	0	M1
NMTTP	42	192	5	E	0	M1
NMHLD	43	0	1	336
NMTTP	43	0	5	B	0	M1
NMTTP	43	12	4	B	0	M1
NMTTP	43	24	3	B	0	M1
NMTTP	43	36	3	E	0	M1
NMTTP	43	336	1	E	0	M1
NMTTP	43	336	1	D	0	M1
NMTTP	45	0	2	B	0	M1
NMHLD	45	0	6	336
NMTTP	45	12	3	B	0	M1
NMTTP	45	24	4	B	0	M1
NMTTP	45	36	5	E	0	M1
NMTTP	45	336	7	E	0	M1
NMTTP	45	336	7	D	0	M1
NMTAP	46	192	7
EXSTR	47	0	0
NMSCR	47	0	0	96	216	3
NMTAP	47	288	6
NMSTR	48	0	7
NMSCL	48	0	7	96	216	4
NMTAP	48	288	1
NMSTR	49	0	0
NMSSL	49	0	0	96	288	4
NMTAP	50	192	3
NMTAP	50	192	4
NMTAP	51	0	2
NMTAP	51	48	3
NMTAP	51	96	4
NMTAP	51	144	5
NMTAP	51	192	3
NMTAP	51	240	3
NMTAP	51	288	5
NMTAP	51	336	4
NMTAP	52	0	2
NMTAP	52	48	3
NMTAP	52	96	4
NMTAP	52	144	4
NMTAP	52	192	3
NMTAP	52	240	2
NMTAP	52	288	4
NMTAP	52	336	5
NMHLD	53	0	2	144
NMTAP	53	48	5
NMTAP	53	96	4
NMTAP	53	144	3
NMHLD	53	192	2	144
NMTAP	53	240	3
NMTAP	53	288	4
NMTAP	53	336	5
NMHLD	54	0	5	144
NMTAP	54	48	2
NMTAP	54	96	3
NMTAP	54	144	4
NMHLD	54	192	5	144
NMTAP	54	240	4
NMTAP	54	288	3
NMTAP	54	336	2
NMTAP	55	0	2
NMTAP	55	0	3
NMTAP	55	48	2
NMTAP	55	48	3
NMTAP	55	96	1
NMTAP	55	96	4
NMTAP	55	144	1
NMTAP	55	144	4
NMTAP	55	192	0
NMTAP	55	192	5
NMTAP	55	240	0
NMTAP	55	240	5
NMSTR	55	288	6
NMSI_	55	288	6	96	48	2
NMTAP	55	288	7
NMTAP	57	0	7
NMTAP	57	24	3
NMTAP	57	48	7
NMTAP	57	72	3
NMTAP	57	96	6
NMTAP	57	120	2
NMTAP	57	144	6
NMTAP	57	168	2
NMTAP	57	192	5
NMTAP	57	216	1
NMTAP	57	240	5
NMTAP	57	264	1
NMTAP	57	288	4
NMTAP	57	312	0
NMTAP	57	336	4
NMTAP	57	360	0
NMTAP	58	0	5
NMTAP	58	16	6
NMTAP	58	32	7
NMTAP	58	48	0
NMTAP	58	64	1
NMTAP	58	80	2
NMTAP	58	96	5
NMTAP	58	112	6
NMTAP	58	128	7
NMTAP	58	144	0
NMTAP	58	160	1
NMTAP	58	176	2
NMTAP	58	192	5
NMTAP	58	208	6
NMTAP	58	224	7
NMTAP	58	240	0
NMTAP	58	256	1
NMTAP	58	272	2
NMTAP	58	288	5
NMTAP	58	304	6
NMTAP	58	320	7
NMTAP	58	336	0
NMTAP	58	352	1
NMTAP	58	368	2
NMTTP	59	0	0	C	1	M1
NMTAP	60	0	3
NMTAP	60	0	4
NMTAP	60	48	0
NMSTR	60	48	7
NMSF_	60	48	7	96	48	3
BRTAP	60	144	7
NMSTR	61	0	4
NMSCR	61	0	4	96	48	6
NMTAP	61	96	2
NMSTR	61	144	2
NMSCR	61	144	2	96	48	4
CNSI_	61	144	6	0	96	2
NMTAP	61	240	0
NMSTR	61	288	0
NMSCR	61	288	0	96	48	2
CNSI_	61	288	4	0	96	0
NMTAP	62	0	6
CNSI_	62	48	2	0	96	6
NMSTR	62	48	6
NMSUR	62	48	6	96	144	4
NMTAP	62	144	3
NMTAP	62	192	3
BRSTR	63	0	6
NMSI_	63	0	6	96	24	3
NMTAP	63	24	7
NMTAP	63	48	6
NMTAP	63	72	7
NMTAP	63	96	6
NMSTR	63	144	1
NMSI_	63	144	1	96	24	4
NMTAP	63	168	0
NMTAP	63	192	1
NMTAP	63	216	0
NMTAP	63	240	1
NMSTR	63	288	6
NMSCL	63	288	6	96	24	3
NMTAP	63	312	7
NMTAP	63	336	6
NMTAP	63	360	7
NMTAP	64	0	6
NMSTR	64	48	1
NMSI_	64	48	1	96	24	5
NMTAP	64	72	0
NMTAP	64	96	1
NMTAP	64	120	0
NMTAP	64	144	1
NMTAP	64	192	6
NMTAP	64	240	4
NMTAP	64	240	6
NMTAP	64	288	3
NMTAP	64	288	4
NMTAP	64	336	1
NMTAP	64	336	3
NMSTR	65	0	2
NMSI_	65	0	2	96	24	7
NMTAP	65	24	3
NMTAP	65	48	2
NMTAP	65	72	3
NMTAP	65	96	2
NMSTR	65	144	5
NMSI_	65	144	5	96	24	0
NMTAP	65	168	4
NMTAP	65	192	5
NMTAP	65	216	4
NMTAP	65	240	5
NMSTR	65	288	2
NMSCL	65	288	2	96	24	7
NMTAP	65	312	3
NMTAP	65	336	2
NMTAP	65	360	3
NMTAP	66	0	2
NMTAP	66	48	5
NMTAP	66	72	4
NMTAP	66	96	5
NMTAP	66	120	4
NMTAP	66	144	5
NMTAP	66	192	3
NMTAP	66	240	2
NMTAP	66	240	4
NMTAP	66	288	1
NMTAP	66	288	5
NMTAP	66	336	0
NMTAP	66	336	6
NMTAP	67	0	5
NMTAP	67	24	7
NMTAP	67	48	4
NMTAP	67	72	0
NMTAP	67	96	3
NMTAP	67	120	1
NMTAP	67	144	0
NMTAP	67	168	2
NMTAP	67	192	7
NMTAP	67	216	3
NMTAP	67	240	6
NMTAP	67	264	4
NMTAP	67	288	5
NMTAP	67	304	3
NMTAP	67	320	5
NMTAP	67	336	3
NMTAP	67	352	5
NMTAP	67	368	3
BXSTR	68	0	5
NMSI_	68	0	5	96	48	0
BXSTR	68	48	1
BRSXR	68	48	1	96	144	4
BXTAP	68	96	5
BXTAP	68	144	1
NMTTP	68	156	0	C	1	M1
NMTAP	69	0	3
NMTAP	69	0	7
BRSTR	69	144	1
NMSI_	69	144	1	96	24	4
NMTAP	69	168	7
NMTAP	69	192	1
NMTAP	69	216	7
NMTAP	69	240	1
NMSTR	69	288	6
NMSCL	69	288	6	96	24	3
NMTAP	69	312	0
NMTAP	69	336	6
NMTAP	69	360	0
NMTAP	70	0	6
NMSTR	70	48	1
NMSI_	70	48	1	96	24	5
NMTAP	70	72	7
NMTAP	70	96	1
NMTAP	70	120	7
NMTAP	70	144	1
NMTAP	70	192	6
NMTAP	70	240	4
NMTAP	70	240	6
NMTAP	70	288	0
NMTAP	70	288	7
NMTAP	70	336	1
NMTAP	70	336	3
NMSTR	71	0	2
NMSCL	71	0	2	96	24	7
NMTAP	71	24	4
NMTAP	71	48	2
NMTAP	71	72	4
NMTAP	71	96	2
NMSTR	71	144	5
NMSI_	71	144	5	96	24	0
NMTAP	71	168	3
NMTAP	71	192	5
NMTAP	71	216	3
NMTAP	71	240	5
NMSTR	71	288	2
NMSCL	71	288	2	96	24	7
NMTAP	71	312	4
NMTAP	71	336	2
NMTAP	71	360	4
NMTAP	72	0	2
NMSTR	72	48	5
NMSI_	72	48	5	96	24	1
NMTAP	72	72	3
NMTAP	72	96	5
NMTAP	72	120	3
NMTAP	72	144	5
NMTAP	72	192	2
NMTAP	72	240	0
NMTAP	72	240	2
NMTAP	72	288	3
NMTAP	72	288	4
NMTAP	72	336	5
NMTAP	72	336	7
NMSTR	73	0	6
NMSI_	73	0	6	96	24	3
NMTAP	73	24	7
NMTAP	73	48	5
NMTAP	73	72	7
NMTAP	73	96	6
NMSTR	73	144	1
NMSI_	73	144	1	96	24	4
NMTAP	73	168	0
NMTAP	73	192	2
NMTAP	73	216	0
NMTAP	73	240	1
NMSTR	73	288	6
NMSCL	73	288	6	96	24	3
NMTAP	73	312	7
NMTAP	73	336	5
NMTAP	73	360	7
NMTAP	74	0	6
NMTAP	74	48	1
NMTAP	74	72	0
NMTAP	74	96	2
NMTAP	74	120	0
NMTAP	74	144	1
NMTAP	74	192	7
NMTAP	74	240	0
NMTAP	74	240	6
NMTAP	74	288	1
NMTAP	74	288	5
NMTAP	74	336	2
NMTAP	74	336	4
NMTAP	75	0	3
NMTAP	75	24	5
NMTAP	75	48	4
NMTAP	75	72	5
NMTAP	75	96	4
NMTAP	75	120	5
NMTAP	75	144	2
NMTAP	75	168	4
NMTAP	75	192	3
NMTAP	75	216	4
NMTAP	75	240	3
NMTAP	75	264	4
NMSTR	75	288	0
NMSI_	75	288	0	96	24	5
NMTAP	75	300	1
NMTAP	75	312	2
NMTAP	75	324	3
NMSTR	75	336	7
NMSI_	75	336	7	96	24	3
NMTAP	75	348	6
NMTAP	75	360	5
NMTAP	75	372	4
BRSTR	76	0	0
NMSI_	76	0	0	96	24	2
BRSTR	76	48	7
BRSCL	76	48	7	96	144	0
BRTAP	76	96	0
BRTAP	76	144	7
EXTAP	76	288	3
NMTAP	77	0	3
NMTAP	77	0	6
NMTAP	77	48	7
NMTAP	77	96	0
NMTAP	77	144	1
NMTAP	77	144	4
NMTAP	77	192	2
NMTAP	77	240	3
NMTAP	77	288	0
NMTAP	77	288	4
NMTAP	77	336	5
NMTAP	78	0	6
NMTAP	78	48	0
NMTAP	78	48	7
NMTAP	78	96	1
NMTAP	78	144	2
NMTAP	78	192	3
NMTAP	78	192	4
NMTAP	78	240	3
NMTAP	78	240	4
NMTAP	78	288	2
NMTAP	78	288	5
NMTHO	79	0	0	336	C	1	M1
NMTTP	79	336	2	B	0	M1
NMTTP	79	336	2	E	0	M1
NMTTP	79	336	2	A	0	M1
NMTTP	79	336	2	D	0	M1
NMTTP	79	336	3	E	0	M1
NMTTP	79	336	3	D	0	M1
NMTTP	79	336	6	B	0	M1
NMTTP	79	336	6	E	0	M1
NMTTP	79	336	6	A	0	M1
NMTTP	79	336	6	D	0	M1
NMTTP	79	336	7	E	0	M1
NMTTP	79	336	7	D	0	M1
EXTAP	80	96	1
EXTAP	80	96	7
EXTAP	80	192	1
EXTAP	80	192	7
EXTAP	80	264	3
EXTAP	80	264	5
EXHLD	80	336	0	144
EXHLD	80	336	4	144
BXTAP	81	108	1
BXTAP	81	108	5
BXTAP	81	120	2
BXTAP	81	120	6
BXTAP	81	132	3
BXTAP	81	132	7
EXTAP	81	192	2
EXTAP	81	192	6
EXTAP	81	240	2
EXTAP	81	240	6
NMSTR	81	288	1
NMSI_	81	288	1	96	48	5
NMTAP	81	336	1
NMSTR	82	0	0
NMSI_	82	0	0	96	48	4
NMTAP	82	48	0
NMSTR	82	96	7
NMSI_	82	96	7	96	48	3
NMTAP	82	144	7
NMSTR	82	192	6
NMSI_	82	192	6	96	48	2
NMTAP	82	240	6
NMSTR	82	288	5
NMSI_	82	288	5	96	48	1
NMTAP	82	336	5
NMSTR	83	0	4
NMSI_	83	0	4	96	48	0
NMTAP	83	48	4
NMSTR	83	96	3
NMSI_	83	96	3	96	48	7
NMTAP	83	144	3
NMSTR	83	192	2
NMSI_	83	192	2	96	48	6
NMTAP	83	240	2
NMTAP	83	288	1
NMTAP	83	336	1
NMTAP	84	0	0
NMTAP	84	0	7
NMSTR	84	48	0
NMSI_	84	48	0	96	48	4
NMSTR	84	48	7
NMSI_	84	48	7	96	48	3
NMTAP	84	72	1
NMTAP	84	72	6
NMTAP	84	96	2
NMTAP	84	96	5
BRTAP	84	144	0
BRTAP	84	144	7
NMTAP	84	240	2
NMTAP	84	240	6
NMTAP	84	288	7
NMTAP	84	336	0
NMTAP	85	0	1
NMHLD	85	24	1	48
NMTAP	85	72	3
NMHLD	85	96	3	48
NMTAP	85	144	5
NMHLD	85	168	5	48
NMTAP	85	216	7
NMHLD	85	240	7	48
NMTAP	85	288	0
NMTAP	85	336	1
NMTAP	85	336	7
NMTAP	86	0	6
NMHLD	86	24	6	48
NMTAP	86	72	4
NMHLD	86	96	4	48
NMTAP	86	144	2
NMHLD	86	168	2	48
NMTAP	86	216	0
NMHLD	86	240	0	48
NMTAP	86	288	7
NMTAP	86	336	0
NMHLD	86	336	6	112
BRTAP	87	64	1
NMTTP	87	72	2	D	0	M1
NMTTP	87	80	2	A	0	M1
NMTTP	87	88	3	D	0	M1
NMTTP	87	96	3	A	0	M1
BRTAP	87	128	5
NMTTP	87	136	6	D	0	M1
NMTTP	87	144	6	A	0	M1
NMTTP	87	152	7	D	0	M1
NMTTP	87	160	7	A	0	M1
BRTAP	87	192	2
NMTTP	87	200	2	E	0	M1
NMTTP	87	208	1	B	0	M1
NMTTP	87	216	0	B	0	M1
NMTTP	87	224	0	E	0	M1
BRTAP	87	256	6
NMTTP	87	264	6	E	0	M1
NMTTP	87	272	5	B	0	M1
NMTTP	87	280	4	B	0	M1
NMTTP	87	288	4	E	0	M1
BRTAP	87	320	7
NMTTP	87	328	0	D	0	M1
NMTTP	87	336	0	A	0	M1
NMTTP	87	344	1	D	0	M1
NMTTP	87	352	1	A	0	M1
BRSTR	88	0	3
BRSCL	88	0	3	96	192	4
NMTAP	89	0	1
NMTAP	89	0	4
NMTAP	89	48	2
NMTAP	89	72	3
NMTAP	89	96	1
NMTAP	89	120	5
NMTAP	89	144	4
NMTAP	89	168	6
NMTAP	89	192	0
NMTAP	89	216	7
NMTAP	89	240	1
NMTAP	89	264	6
NMTAP	89	288	2
NMTAP	89	312	5
NMTAP	89	336	3
NMTAP	89	360	4
NMHLD	90	0	3	96
NMHLD	90	96	1	240
NMHLD	90	192	5	144
BRSTR	91	0	1
BRSXL	91	0	1	96	528	7
BRTAP	91	0	5
NMTAP	91	16	0
NMTAP	91	16	4
NMTAP	91	32	3
NMTAP	91	32	7
NMTAP	91	48	2
NMTAP	91	48	6
NMTAP	91	64	1
NMSTR	91	64	5
NMSXR	91	64	5	96	464	7
BRSTR	93	0	1
NMSLL	93	0	1	96	336	4
BRSTR	93	0	7
NMSLR	93	0	7	96	336	4
NMTAP	94	192	3
NMTAP	94	216	4
NMTAP	94	240	3
BRTAP	94	288	1
BRTAP	94	288	6
EXTAP	95	0	2
NMTAP	95	24	3
NMTAP	95	48	2
NMTAP	95	72	5
NMTAP	95	96	4
NMTAP	95	120	5
EXTAP	95	144	1
NMTAP	95	168	3
NMTAP	95	192	1
NMTAP	95	216	6
NMTAP	95	240	4
NMTAP	95	264	6
EXTAP	95	288	1
NMTAP	95	312	3
NMTAP	95	336	2
NMTAP	95	360	6
NMTAP	96	0	4
NMTAP	96	24	5
EXTAP	96	48	0
NMTAP	96	72	3
NMTAP	96	96	2
NMTAP	96	120	7
NMTAP	96	144	4
NMTAP	96	168	5
EXTAP	96	192	3
NMTAP	96	216	4
NMTAP	96	240	2
NMTAP	96	264	5
NMTAP	96	288	1
NMTAP	96	312	6
NMTAP	96	336	0
NMTAP	96	360	7
BRHLD	97	0	0	36
BRTAP	97	0	6
NMTAP	97	12	5
NMTAP	97	24	4
NMTAP	97	36	3
BRTAP	97	72	0
BRHLD	97	72	6	36
NMTAP	97	84	1
NMTAP	97	96	2
NMTAP	97	108	3
BRHLD	97	144	1	36
BRTAP	97	144	7
NMTAP	97	156	6
NMTAP	97	168	5
NMTAP	97	180	4
BRTAP	97	216	1
BRHLD	97	216	7	36
NMTAP	97	228	2
NMTAP	97	240	3
NMTAP	97	252	4
BRHLD	97	288	0	36
BRTAP	97	288	6
NMTAP	97	300	5
NMTAP	97	312	4
NMTAP	97	324	3
BRTAP	97	360	0
BRHLD	97	360	6	36
NMTAP	97	372	1
NMTAP	98	0	2
NMTAP	98	12	3
BRHLD	98	48	1	36
BRTAP	98	48	7
NMTAP	98	60	6
NMTAP	98	72	5
NMTAP	98	84	4
BRTAP	98	120	1
BRHLD	98	120	7	36
NMTAP	98	132	2
NMTAP	98	144	3
NMTAP	98	156	4
BRTAP	98	192	0
BRSTR	98	192	6
NMSI_	98	192	6	96	48	2
BRSTR	98	240	2
BRSF_	98	240	2	96	48	6
BRTAP	98	240	4
BRTAP	98	288	0
BRTAP	98	288	6
NMTTP	98	336	0	C	1	M1

T_REC_TAP	578
T_REC_BRK	39
T_REC_XTP	23
T_REC_BXX	8
T_REC_HLD	29
T_REC_XHO	2
T_REC_BHO	8
T_REC_BXH	0
T_REC_STR	68
T_REC_BST	11
T_REC_XST	1
T_REC_XBS	2
T_REC_TTP	97
T_REC_THO	1
T_REC_SLD	76
T_REC_BSL	6
T_REC_ALL	949
T_NUM_TAP	767
T_NUM_BRK	74
T_NUM_HLD	32
T_NUM_SLD	76
T_NUM_ALL	949
T_JUDGE_TAP	827
T_JUDGE_HLD	97
T_JUDGE_SLD	82
T_JUDGE_ALL	1006
TTM_EACHPAIRS	100
TTM_SCR_TAP	383500
TTM_SCR_BRK	192400
TTM_SCR_HLD	32000
TTM_SCR_SLD	114000
TTM_SCR_ALL	721900
TTM_SCR_S	693100
TTM_SCR_SS	714500
TTM_RAT_ACV	10103

