VERSION	0.00.00	1.04.00
FES_MODE	0
BPM_DEF	190.000	190.000	190.000	190.000
MET_DEF	4	4
RESOLUTION	384
CLK_DEF	384
COMPATIBLE_CODE	MA2

BPM	0	0	190.000
MET	0	0	4	4

NMSTR	3	0	3
NMSXR	3	0	3	96	480	4
NMTTP	3	192	5	E	0	M1
NMTTP	4	192	2	B	0	M1
NMSTR	5	0	5
NMSUL	5	0	5	96	480	3
NMTTP	5	192	3	E	0	M1
NMTTP	6	192	0	C	0	M1
NMSTR	7	0	1
NMSXR	7	0	1	96	480	4
NMTTP	7	192	5	E	0	M1
NMTTP	8	192	0	E	0	M1
BRTAP	9	0	2
BRTAP	9	0	5
NMTAP	9	96	0
NMTAP	9	120	7
NMTAP	9	144	0
NMTAP	9	168	7
NMTAP	9	192	0
NMTAP	9	216	7
NMTAP	9	240	0
NMTAP	9	264	7
NMTAP	9	288	0
NMSTR	10	0	1
NMSI_	10	0	1	96	48	5
NMTAP	10	0	6
NMTAP	10	96	7
NMSTR	10	144	7
NMSI_	10	144	7	96	48	2
NMSI_	10	144	7	96	48	4
EXTAP	11	0	1
EXTAP	11	0	5
NMTAP	11	96	4
NMTAP	11	96	6
NMTAP	11	144	7
NMTAP	11	240	0
NMTAP	11	240	1
NMTAP	11	288	2
NMTAP	11	288	7
NMTAP	12	0	1
NMTAP	12	0	3
NMTAP	12	48	0
NMTAP	12	144	6
NMTAP	12	144	7
NMTAP	12	192	0
NMTAP	12	192	5
NMTAP	12	288	2
NMTAP	12	336	3
NMTAP	13	0	1
NMTAP	13	0	4
NMTAP	13	96	6
NMTAP	13	96	7
NMTAP	13	144	0
NMTAP	13	144	5
NMTAP	13	240	4
NMTAP	13	240	6
NMTAP	13	288	7
NMTAP	14	0	0
NMTAP	14	0	1
NMTAP	14	48	2
NMTAP	14	48	7
NMTAP	14	144	1
NMTAP	14	144	3
NMTAP	14	192	0
NMTAP	14	288	5
NMTAP	14	336	4
NMTAP	15	0	3
NMTAP	15	0	6
NMTAP	15	96	0
NMTAP	15	96	1
NMSTR	15	144	2
NMSI_	15	144	2	96	48	5
NMTAP	15	240	6
NMTAP	15	288	6
NMTAP	16	0	6
NMTAP	16	0	7
NMSTR	16	48	5
NMSI_	16	48	5	96	48	2
NMTAP	16	144	0
NMTAP	16	192	0
NMTAP	16	288	1
NMTAP	16	336	1
NMTAP	17	0	2
NMTAP	17	0	3
NMTAP	17	96	6
NMTAP	17	96	7
NMSTR	17	144	5
NMSI_	17	144	5	96	48	0
NMTAP	17	240	3
NMTAP	17	288	3
NMTAP	18	0	0
NMTAP	18	0	1
NMSTR	18	48	2
NMSI_	18	48	2	96	48	7
NMTAP	18	144	4
NMTAP	18	192	4
NMTAP	18	288	6
NMTAP	18	336	6
NMTAP	19	0	4
NMSTR	19	0	5
NMSCR	19	0	5	96	48	0
NMSTR	19	144	2
NMSCR	19	144	2	96	48	5
NMSTR	19	288	7
NMSCR	19	288	7	96	48	2
NMSTR	20	48	4
NMSCR	20	48	4	96	48	7
NMTAP	20	192	0
NMTTP	21	0	7	A	0	M1
NMTTP	21	24	7	B	0	M1
NMTTP	21	48	0	C	0	M1
NMTTP	21	72	3	B	0	M1
NMTTP	21	96	3	A	0	M1
NMTTP	21	144	1	A	0	M1
NMTTP	21	168	1	B	0	M1
NMTTP	21	192	0	C	0	M1
NMTTP	21	216	5	B	0	M1
NMTTP	21	240	5	A	0	M1
NMTTP	21	288	6	A	0	M1
NMTTP	21	312	6	B	0	M1
NMTTP	21	336	0	C	0	M1
NMTTP	21	360	2	B	0	M1
NMTTP	22	0	2	A	0	M1
NMTTP	22	48	0	A	0	M1
NMTTP	22	72	0	B	0	M1
NMTTP	22	96	0	C	0	M1
NMTTP	22	120	4	B	0	M1
NMTTP	22	144	4	A	0	M1
EXTAP	22	192	7
EXTAP	22	216	6
EXTAP	22	240	5
EXTAP	22	264	4
EXTAP	22	288	0
EXTAP	22	312	1
EXTAP	22	336	2
EXTAP	22	360	3
BXTAP	23	0	7
NMTAP	23	336	5
NMTAP	23	360	4
NMHLD	24	0	5	96
NMHLD	24	96	4	96
NMHLD	24	192	3	96
NMHLD	24	288	2	96
NMTAP	25	0	3
NMTAP	25	96	1
NMHLD	25	144	1	144
NMSTR	25	288	3
NMSUR	25	288	3	96	192	4
EXTAP	26	192	0
NMTAP	26	288	5
NMTAP	26	336	5
NMTAP	27	0	4
NMTAP	27	96	6
NMTAP	27	144	6
NMTAP	27	240	2
NMTAP	27	264	3
NMHLD	27	288	2	144
NMTAP	28	48	3
NMTAP	28	192	2
NMTAP	28	192	3
NMTAP	28	264	3
NMTAP	28	264	4
NMTAP	28	336	4
NMTAP	28	336	5
NMSTR	29	0	4
NMSI_	29	0	4	96	48	0
NMSTR	29	0	5
NMSI_	29	0	5	96	48	7
NMSTR	29	192	2
NMSI_	29	192	2	96	48	0
NMSTR	29	192	3
NMSI_	29	192	3	96	48	7
NMTAP	30	0	4
NMTAP	30	0	5
NMSTR	30	48	6
NMSI_	30	48	6	96	48	2
EXHLD	30	144	0	144
BRTAP	31	0	1
BRTAP	31	0	7
NMTAP	31	96	4
NMTAP	31	96	5
NMTAP	31	144	3
NMTAP	31	192	2
NMTAP	31	240	3
NMTAP	31	288	1
NMTAP	31	288	4
NMTAP	32	0	0
NMTAP	32	0	6
NMTAP	32	96	2
NMTAP	32	96	3
NMTAP	32	144	4
NMTAP	32	192	5
NMTAP	32	240	4
NMTAP	32	288	3
NMTAP	32	288	6
NMTAP	33	0	0
NMTAP	33	0	7
NMTAP	33	96	2
NMTAP	33	96	5
NMTAP	33	192	0
NMSTR	33	240	0
NMSCR	33	240	0	96	144	3
NMTAP	33	288	6
NMTAP	33	336	6
CNSUR	34	96	3	0	192	5
NMTAP	35	0	7
NMTAP	35	48	7
NMTAP	35	96	0
NMTAP	35	144	0
NMTAP	35	192	6
NMTAP	35	240	7
NMTAP	35	288	0
NMTAP	35	288	5
NMTAP	36	0	1
NMTAP	36	48	1
NMTAP	36	96	3
NMHLD	36	144	2	96
NMTAP	36	240	4
NMTAP	36	288	3
NMTAP	36	288	5
EXTAP	37	0	0
EXHLD	37	0	6	96
NMTAP	37	48	0
NMTAP	37	96	0
EXTAP	37	144	1
EXHLD	37	144	5	96
NMTAP	37	192	1
NMTAP	37	240	1
EXTAP	37	288	2
EXHLD	37	288	4	96
NMTAP	37	336	2
NMTAP	38	0	2
EXTAP	38	48	3
NMTAP	38	96	3
NMTAP	38	144	3
NMSTR	38	192	7
NMSI_	38	192	7	96	48	3
NMSTR	38	288	2
NMSCL	38	288	2	96	384	4
NMHLD	42	192	3	192
NMTAP	43	0	4
NMTAP	43	96	2
NMTAP	43	144	2
NMSTR	43	240	1
NMSCR	43	240	1	96	192	4
NMTAP	44	240	5
NMTAP	44	288	4
NMTAP	44	336	3
NMTAP	45	0	2
NMTAP	45	96	5
NMTAP	45	144	5
NMSTR	45	240	6
NMSCL	45	240	6	96	192	3
NMHLD	46	192	1	192
NMHLD	47	0	3	288
NMTAP	47	288	2
NMHLD	48	0	4	96
NMTAP	48	96	3
NMHLD	48	192	5	96
NMTAP	48	288	4
NMSTR	49	0	6
NMSUL	49	0	6	96	192	1
NMHLD	49	336	0	240
NMHLD	49	336	7	336
NMTAP	51	0	2
NMTAP	51	96	2
NMTAP	51	192	1
NMTAP	51	192	3
NMTAP	51	288	4
NMTAP	52	0	5
NMTAP	52	96	5
NMTAP	52	192	4
NMTAP	52	192	6
NMTAP	52	288	3
NMTAP	53	0	2
NMTAP	53	96	2
NMTAP	53	192	1
NMTAP	53	192	3
NMTAP	53	288	0
NMTAP	54	0	5
NMTAP	54	96	5
NMTAP	54	192	4
NMTAP	54	192	6
NMTAP	54	288	7
NMTAP	55	0	0
NMTAP	55	96	0
NMTAP	55	192	1
NMTAP	55	192	7
NMTAP	55	288	2
NMTAP	55	288	6
NMTTP	56	0	1	A	0	M1
NMTTP	56	96	0	C	0	M1
NMTTP	56	192	5	A	0	M1
NMTAP	56	336	0
NMTAP	56	336	6
NMTAP	57	0	0
NMTAP	57	0	6
NMTAP	57	96	7
NMTAP	57	192	0
NMTAP	57	288	1
NMTAP	57	288	6
NMTAP	58	0	2
NMTAP	58	48	2
NMTAP	58	96	5
NMTAP	58	144	5
NMTAP	58	192	3
NMTAP	58	216	4
NMTAP	58	240	3
NMTAP	58	264	4
NMTAP	58	288	3
NMTAP	58	312	4
NMTAP	58	336	3
NMTAP	58	360	4
NMTTP	59	0	0	C	1	M1
NMTAP	59	240	0
NMTAP	59	288	0
NMTAP	59	336	7
BRSTR	60	0	1
BRSLR	60	0	1	96	120	7
BRSTR	60	0	6
BRSLL	60	0	6	96	120	0
EXHLD	61	0	1	96
EXTAP	61	0	7
NMTAP	61	48	7
NMTAP	61	96	7
EXHLD	61	144	2	96
EXTAP	61	144	6
NMTAP	61	192	6
NMTAP	61	240	6
EXHLD	61	288	3	96
EXTAP	61	288	5
NMTAP	61	336	5
NMTAP	62	0	5
EXTAP	62	48	4
NMTAP	62	96	4
NMTAP	62	144	4
NMSTR	62	192	0
NMSF_	62	192	0	96	48	4
BXTAP	63	0	2
BXTAP	63	0	6
NMTAP	63	96	4
NMTAP	63	144	4
NMTAP	63	192	2
NMTAP	63	240	2
NMTAP	63	288	6
NMTAP	63	336	6
NMTAP	64	0	0
NMTAP	64	48	0
NMTAP	64	96	3
NMTAP	64	144	3
NMSTR	64	192	1
NMSI_	64	192	1	96	48	5
NMTAP	64	288	7
NMTAP	65	0	0
NMTAP	65	0	6
NMTAP	65	96	2
NMTAP	65	96	3
NMTAP	65	144	1
NMTAP	65	144	4
NMTAP	65	240	6
NMTAP	65	240	7
NMTAP	65	288	0
NMTAP	65	288	5
NMTAP	66	0	0
NMTAP	66	0	1
NMTAP	66	48	2
NMTAP	66	48	7
NMTAP	66	144	4
NMTAP	66	144	5
NMTAP	66	192	3
NMSTR	66	192	6
NMSI_	66	192	6	96	48	2
NMTAP	66	288	0
NMTAP	67	0	1
NMTAP	67	48	1
NMTAP	67	96	3
NMTAP	67	144	3
NMTAP	67	192	4
NMTAP	67	240	4
NMTAP	67	288	6
NMTAP	67	336	6
NMTAP	68	0	0
NMTAP	68	48	1
NMTAP	68	48	7
NMTAP	68	96	2
NMTAP	68	96	6
NMTAP	68	144	3
NMTAP	68	144	5
NMTAP	68	240	1
NMSTR	68	288	3
NMSCL	68	288	3	96	120	5
NMTAP	68	336	5
BRTAP	69	144	0
NMTAP	69	288	2
NMTAP	69	288	7
NMSTR	70	0	5
NMSCL	70	0	5	96	48	2
NMTAP	70	96	0
NMSTR	70	192	1
NMSUR	70	192	1	96	48	5
NMTAP	70	288	7
EXTAP	71	0	6
NMTAP	71	48	6
NMTAP	71	96	6
EXTAP	71	144	4
NMTAP	71	192	4
NMTAP	71	240	4
EXTAP	71	288	3
NMTAP	71	336	3
NMTAP	72	0	3
EXTAP	72	48	1
NMTAP	72	96	1
NMTAP	72	144	1
NMSTR	72	192	7
NMSI_	72	192	7	96	48	3
NMTAP	72	288	0
EXTAP	73	0	1
NMTAP	73	48	1
NMTAP	73	96	1
EXTAP	73	144	3
NMTAP	73	192	3
NMTAP	73	240	3
EXTAP	73	288	4
NMTAP	73	336	4
NMTAP	74	0	4
EXTAP	74	48	6
NMTAP	74	96	6
NMHLD	74	144	6	96
NMTAP	74	240	0
NMTAP	74	288	0
NMTAP	74	336	7
NMSTR	75	0	1
NMSI_	75	0	1	96	48	7
NMSTR	75	96	5
NMSI_	75	96	5	96	48	3
NMSTR	75	192	1
NMSI_	75	192	1	96	48	5
NMTAP	76	0	0
NMTAP	76	0	7
NMTAP	76	48	1
NMTAP	76	48	6
NMTAP	76	96	2
NMTAP	76	96	5
NMSTR	76	144	3
BRSI_	76	144	3	96	48	0
NMSTR	76	144	4
BRSI_	76	144	4	96	48	7
BRSTR	77	0	1
NMSI_	77	0	1	96	48	4
NMTAP	77	96	5
BRSTR	77	144	5
NMSI_	77	144	5	96	48	0
NMTAP	77	240	2
BRSTR	77	288	2
NMSI_	77	288	2	96	48	7
NMTAP	78	0	6
BRSTR	78	48	6
NMSI_	78	48	6	96	48	3
NMTAP	78	144	0
BRSTR	78	192	0
NMSI_	78	192	0	96	48	4
NMSTR	78	288	5
NMSCR	78	288	5	96	288	3
BRTAP	79	336	0
BRTAP	79	336	7
NMTAP	80	192	1
NMTAP	80	192	3
NMTAP	80	264	4
NMTAP	80	264	6
NMHLD	80	336	0	96
NMHLD	80	336	7	96
NMTTP	81	60	1	D	0	M1
NMTTP	81	60	7	D	0	M1
NMTTP	81	72	2	D	0	M1
NMTTP	81	72	6	D	0	M1
NMTTP	81	84	3	D	0	M1
NMTTP	81	84	5	D	0	M1
NMTTP	81	96	4	D	1	M1
NMTAP	82	0	0
NMTAP	82	0	1
NMTAP	82	48	2
NMTAP	82	96	3
NMTAP	82	96	4
NMTAP	82	144	5
NMTAP	82	192	6
NMTAP	82	192	7
NMTAP	82	240	5
NMTAP	82	288	3
NMTAP	82	288	4
NMTAP	82	336	2
NMTAP	83	0	0
NMSTR	83	0	1
NMSI_	83	0	1	96	48	5
NMTAP	83	96	6
NMSTR	83	144	6
NMSI_	83	144	6	96	48	2
NMSTR	83	240	0
BRSSL	83	240	0	96	144	4
CNSCR	84	96	4	0	192	3
EXHLD	85	0	0	24
NMHLD	85	0	6	24
EXHLD	85	72	0	24
NMHLD	85	72	6	24
EXHLD	85	144	0	24
NMHLD	85	144	6	24
EXHLD	85	216	0	24
NMHLD	85	216	6	24
EXTAP	85	288	1
EXTAP	85	288	5
EXTAP	85	336	3
EXTAP	85	336	4
NMHLD	86	0	1	24
EXHLD	86	0	7	24
NMHLD	86	72	1	24
EXHLD	86	72	7	24
NMHLD	86	144	1	24
EXHLD	86	144	7	24
NMHLD	86	216	1	24
EXHLD	86	216	7	24
EXTAP	86	288	2
EXTAP	86	288	6
EXTAP	86	336	3
EXTAP	86	336	4
BRTAP	87	64	0
BRTAP	87	64	7
BRTAP	87	128	1
BRTAP	87	128	2
BRTAP	87	192	3
BRTAP	87	192	4
BRTAP	87	256	5
BRTAP	87	256	6
BRTAP	87	320	0
BRTAP	87	320	7
NMTTP	88	0	0	C	1	M1
NMTTP	88	0	1	B	0	M1
NMTTP	88	0	2	E	0	M1
NMTTP	88	0	5	B	0	M1
NMTTP	88	0	6	E	0	M1
NMTAP	89	0	0
NMTAP	89	24	7
NMTAP	89	48	0
NMTAP	89	72	7
NMTAP	89	96	0
NMTAP	89	120	7
NMTAP	89	144	0
NMTAP	89	168	7
NMTAP	89	192	0
NMTAP	89	216	7
NMTAP	89	240	0
NMTAP	89	264	7
NMTAP	89	288	0
NMTAP	89	312	7
NMTAP	89	336	0
NMTAP	89	360	7
BRHLD	90	0	0	384
NMSTR	91	0	7
NMSXR	91	0	7	96	576	4
NMSTR	93	0	3
NMSXR	93	0	3	96	576	0
NMTTP	95	0	7	A	0	M1
NMTTP	95	24	7	B	0	M1
NMTTP	95	48	0	C	0	M1
NMTTP	95	72	3	B	0	M1
NMTTP	95	96	3	A	0	M1
NMTTP	95	144	1	A	0	M1
NMTTP	95	168	1	B	0	M1
NMTTP	95	192	0	C	0	M1
NMTTP	95	216	5	B	0	M1
NMTTP	95	240	5	A	0	M1
NMTTP	95	288	6	A	0	M1
NMTTP	95	312	6	B	0	M1
NMTTP	95	336	0	C	0	M1
NMTTP	95	360	2	B	0	M1
NMTTP	96	0	2	A	0	M1
NMTTP	96	48	0	A	0	M1
NMTTP	96	72	0	B	0	M1
NMTTP	96	96	0	C	0	M1
NMTTP	96	120	4	B	0	M1
NMTTP	96	144	4	A	0	M1
EXTAP	96	192	7
NMTAP	96	216	6
NMTAP	96	240	5
NMTAP	96	264	4
EXTAP	96	288	0
NMTAP	96	312	1
NMTAP	96	336	2
NMTAP	96	360	3
EXHLD	97	0	7	48
NMHLD	97	72	0	48
NMHLD	97	72	6	48
EXHLD	97	144	2	48
NMHLD	97	216	1	48
NMHLD	97	216	3	48
EXHLD	97	288	5	48
NMHLD	97	360	4	48
NMHLD	97	360	6	48
EXHLD	98	48	0	48
EXHLD	98	48	7	48
NMHLD	98	120	1	48
NMHLD	98	120	6	48
BXTAP	98	192	3
BXTAP	98	192	4
BXTAP	98	240	3
BXTAP	98	240	4
BXTAP	98	288	3
BXTAP	98	288	4
BRTAP	98	336	1
BRTAP	98	336	6

T_REC_TAP	324
T_REC_BRK	19
T_REC_XTP	37
T_REC_BXX	9
T_REC_HLD	33
T_REC_XHO	20
T_REC_BHO	1
T_REC_BXH	0
T_REC_STR	43
T_REC_BST	7
T_REC_XST	0
T_REC_XBS	0
T_REC_TTP	62
T_REC_THO	0
T_REC_SLD	46
T_REC_BSL	5
T_REC_ALL	606
T_NUM_TAP	466
T_NUM_BRK	41
T_NUM_HLD	53
T_NUM_SLD	46
T_NUM_ALL	606
T_JUDGE_TAP	501
T_JUDGE_HLD	104
T_JUDGE_SLD	51
T_JUDGE_ALL	656
TTM_EACHPAIRS	109
TTM_SCR_TAP	233000
TTM_SCR_BRK	106600
TTM_SCR_HLD	53000
TTM_SCR_SLD	69000
TTM_SCR_ALL	461600
TTM_SCR_S	443800
TTM_SCR_SS	457500
TTM_RAT_ACV	10089

