VERSION	0.00.00	1.04.00
FES_MODE	0
BPM_DEF	120.000	120.000	235.000	120.000
MET_DEF	4	4
RESOLUTION	384
CLK_DEF	384
COMPATIBLE_CODE	MA2

BPM	0	0	120.000
BPM	22	0	120.000
BPM	23	0	125.000
BPM	24	0	130.000
BPM	25	0	135.000
BPM	26	0	140.000
BPM	27	0	145.000
BPM	28	0	150.000
BPM	29	0	155.000
BPM	30	0	160.000
BPM	32	0	161.000
BPM	34	0	162.000
BPM	36	0	163.000
BPM	38	0	164.000
BPM	40	0	165.000
BPM	42	0	166.000
BPM	44	0	167.000
BPM	46	0	168.000
BPM	52	0	170.000
BPM	70	0	180.000
BPM	70	192	182.000
BPM	71	0	184.000
BPM	71	192	186.000
BPM	72	0	190.000
BPM	74	0	195.000
BPM	76	0	200.000
BPM	78	0	205.000
BPM	80	0	210.000
BPM	82	0	215.000
BPM	84	0	220.000
BPM	86	0	225.000
BPM	88	0	230.000
BPM	90	0	235.000
MET	0	0	4	4

NMSTR	2	0	2
NMSUR	2	0	2	96	192	0
NMSTR	2	0	6
NMSUR	2	0	6	96	192	4
NMSTR	3	0	2
NMSUR	3	0	2	96	192	0
NMSTR	3	0	6
NMSUR	3	0	6	96	192	4
NMTAP	3	48	2
NMTAP	3	48	6
NMSTR	4	0	2
NMSXR	4	0	2	96	192	4
NMTAP	4	48	2
NMTAP	4	192	6
NMHLD	4	240	5	96
NMTAP	5	0	5
NMTAP	5	32	5
NMTAP	5	48	3
NMTAP	5	80	3
NMTAP	5	96	6
NMTAP	5	112	4
NMTAP	5	128	5
NMTAP	5	144	3
NMTAP	5	160	5
NMTAP	5	176	4
EXSTR	5	192	6
BRSI_	5	192	6	96	48	1
BRTAP	5	288	2
NMTAP	5	288	6
NMTAP	6	0	2
NMTAP	6	0	3
NMTAP	6	48	1
NMTAP	6	48	4
NMTAP	6	80	2
NMTAP	6	96	3
NMTAP	6	128	4
NMTAP	6	144	3
NMTAP	6	176	2
NMTAP	6	192	3
NMTAP	6	224	4
NMTAP	6	240	3
NMTAP	6	272	2
NMTAP	6	288	3
NMTAP	6	320	4
NMTAP	6	336	3
NMTAP	6	368	2
NMTAP	7	0	3
NMTAP	7	32	3
NMTAP	7	48	2
NMTAP	7	80	2
NMTAP	7	96	4
NMTAP	7	128	4
NMTAP	7	144	3
NMTAP	7	176	3
NMSTR	7	192	5
NMSI_	7	192	5	96	48	2
NMTAP	7	224	5
NMTAP	7	240	4
NMTAP	7	272	4
NMTAP	7	288	5
NMSTR	8	0	1
NMSI_	8	0	1	96	48	4
NMTAP	8	0	4
NMTAP	8	32	2
NMTAP	8	48	3
NMTAP	8	80	3
NMTAP	8	96	1
NMTAP	8	192	3
NMSTR	8	192	6
NMSI_	8	192	6	96	48	3
NMTAP	8	224	5
NMTAP	8	240	4
NMTAP	8	272	4
NMTAP	8	288	6
NMTAP	9	0	1
NMTAP	9	0	5
NMTAP	9	32	2
NMTAP	9	48	3
NMTAP	9	80	5
NMTAP	9	96	4
NMTAP	9	144	1
NMTAP	9	144	7
NMTAP	9	192	2
NMSTR	9	192	6
BRSI_	9	192	6	96	48	1
BRTAP	9	288	2
NMTAP	9	288	6
NMTAP	10	0	2
NMTAP	10	0	4
NMTAP	10	48	1
NMTAP	10	80	1
NMTAP	10	96	3
NMTAP	10	128	3
NMTAP	10	144	2
NMTAP	10	176	2
NMTAP	10	192	4
NMTAP	10	224	4
NMTAP	10	240	1
NMTAP	10	272	1
NMTAP	10	288	3
NMTAP	10	320	3
NMTAP	10	336	2
NMTAP	10	368	2
NMTAP	11	0	4
NMTAP	11	32	4
NMTAP	11	48	3
NMTAP	11	80	3
NMTAP	11	96	4
NMTAP	11	128	4
NMTAP	11	144	6
NMTAP	11	176	6
NMSTR	11	192	4
NMSI_	11	192	4	96	48	0
NMTAP	11	224	4
NMTAP	11	240	2
NMTAP	11	272	2
NMTAP	11	288	4
NMTAP	12	0	2
NMTAP	12	32	2
NMTAP	12	48	3
NMTAP	12	80	3
NMTAP	12	96	4
NMTAP	12	128	4
NMTAP	12	144	5
NMTAP	12	176	5
NMTAP	12	192	1
NMTAP	12	224	1
NMTAP	12	240	3
NMTAP	12	272	3
NMTAP	12	288	4
NMTAP	12	320	4
NMTAP	12	336	6
NMTAP	12	368	6
NMTAP	13	0	0
NMTAP	13	32	3
NMTAP	13	48	1
NMTAP	13	80	4
NMTAP	13	96	2
NMTAP	13	144	3
NMTAP	13	144	5
NMTAP	13	192	4
NMSTR	13	192	6
BRSI_	13	192	6	96	48	1
BRTAP	13	288	2
NMTAP	13	288	6
NMTAP	14	0	2
NMTAP	14	0	3
NMTAP	14	32	2
NMTAP	14	48	3
NMTAP	14	80	1
NMTAP	14	96	4
NMTAP	14	128	2
NMTAP	14	144	3
NMTAP	14	176	1
NMTAP	14	192	4
NMTAP	14	224	2
NMTAP	14	240	3
NMTAP	14	272	1
NMTAP	14	288	4
NMTAP	14	320	2
NMTAP	14	336	3
NMTAP	15	0	2
NMTAP	15	0	4
NMTAP	15	32	6
NMTAP	15	48	4
NMTAP	15	80	5
NMTAP	15	96	3
NMTAP	15	128	6
NMTAP	15	144	4
NMTAP	15	176	5
NMTAP	15	192	3
NMTAP	15	224	6
NMTAP	15	240	4
NMTAP	15	272	5
NMTAP	15	288	3
NMTAP	15	320	6
NMSTR	15	336	4
NMSCL	15	336	4	96	48	0
NMTAP	16	48	7
NMTAP	16	64	6
NMTAP	16	80	5
NMTAP	16	96	4
NMTAP	16	128	4
NMTAP	16	144	2
NMTAP	16	176	2
NMTAP	16	192	3
NMTAP	16	224	3
NMTAP	16	240	1
NMTAP	16	272	1
NMSTR	16	288	4
NMSCR	16	288	4	96	48	7
NMTAP	16	320	4
NMTAP	16	336	2
NMSTR	17	0	4
NMSCL	17	0	4	96	48	1
NMTAP	17	32	2
NMTAP	17	48	2
NMSTR	17	96	4
NMSCR	17	96	4	96	48	7
NMTAP	17	128	6
NMTAP	17	144	6
NMSTR	17	192	4
NMSI_	17	192	4	96	48	0
NMTAP	17	224	2
NMTAP	17	240	2
NMTAP	17	272	7
NMTAP	17	288	4
NMTAP	17	320	5
NMTAP	17	336	5
NMTAP	18	0	1
NMTAP	18	0	3
NMTAP	18	48	2
NMTAP	18	48	4
NMTAP	18	96	5
NMTAP	18	128	5
NMTAP	18	144	3
NMTAP	18	176	3
NMTAP	18	192	1
NMTAP	18	224	1
NMTAP	18	240	3
NMTAP	18	272	3
NMTAP	18	288	5
NMTAP	18	320	5
NMTAP	18	336	3
NMTAP	19	0	3
NMTAP	19	0	6
NMTAP	19	32	5
NMTAP	19	48	4
NMTAP	19	80	3
NMTAP	19	80	6
NMTAP	19	128	2
NMTAP	19	144	3
NMTAP	19	176	1
NMSTR	19	192	0
NMSCL	19	192	0	96	48	5
NMTAP	19	224	2
NMTAP	19	224	7
NMTAP	19	272	1
NMTAP	19	288	0
NMTAP	19	320	2
NMHLD	19	336	2	96
NMTAP	20	48	4
NMTAP	20	64	5
NMTAP	20	80	6
NMSTR	20	96	7
NMSI_	20	96	7	96	48	3
NMTAP	20	144	6
NMSTR	20	192	5
NMSI_	20	192	5	96	48	1
NMTAP	20	240	4
NMSTR	20	288	3
NMSI_	20	288	3	96	48	7
NMTAP	20	336	2
NMTAP	21	0	0
NMTAP	21	0	3
NMTAP	21	32	1
NMTAP	21	48	1
NMTAP	21	80	5
NMTAP	21	96	5
NMTAP	21	144	0
NMTAP	21	144	7
NMTAP	21	192	1
NMSTR	21	192	6
BRSI_	21	192	6	96	48	1
BRTAP	21	288	2
NMTAP	21	288	6
NMSTR	22	0	0
NMSCR	22	0	0	96	96	2
NMSTR	22	96	2
NMSCR	22	96	2	96	96	4
NMSTR	22	192	4
NMSCR	22	192	4	96	96	6
NMSTR	22	288	6
NMSCR	22	288	6	96	96	0
NMSTR	23	0	0
NMSCR	23	0	0	96	96	3
NMSTR	23	96	3
NMSCR	23	96	3	96	96	6
NMSTR	23	192	6
NMSCR	23	192	6	96	96	1
NMSTR	23	288	1
NMSCR	23	288	1	96	96	4
NMSTR	24	0	4
NMSLR	24	0	4	96	96	0
NMSTR	24	96	0
NMSLR	24	96	0	96	96	4
NMSTR	24	192	4
NMSLR	24	192	4	96	96	0
NMSTR	24	288	0
NMSLR	24	288	0	96	96	4
NMSTR	25	0	4
NMSCR	25	0	4	96	96	0
NMSTR	25	96	0
NMSCR	25	96	0	96	96	4
NMSTR	25	192	4
NMSI_	25	192	4	96	48	0
NMTAP	25	288	6
NMSTR	26	0	6
NMSSL	26	0	6	96	96	2
NMSTR	26	96	2
NMSSL	26	96	2	96	96	6
NMTAP	26	192	6
NMTAP	26	288	1
NMSTR	27	0	0
NMSLR	27	0	0	96	96	6
NMSTR	27	96	6
NMSLL	27	96	6	96	96	0
NMTAP	27	192	4
NMTAP	27	288	7
NMSTR	28	0	0
NMSI_	28	0	0	96	48	2
NMSTR	28	48	7
NMSI_	28	48	7	96	48	3
NMTAP	28	96	0
NMTAP	28	144	7
NMSTR	28	192	0
NMSI_	28	192	0	96	48	4
NMSTR	28	240	7
NMSI_	28	240	7	96	48	5
NMTAP	28	288	0
NMTAP	28	336	7
NMTAP	29	0	1
NMTAP	29	24	1
NMTAP	29	48	6
NMTAP	29	72	6
NMTAP	29	96	0
NMTAP	29	120	0
NMTAP	29	144	7
NMTAP	29	168	7
EXTAP	29	192	1
EXTAP	29	204	2
EXTAP	29	216	3
EXTAP	29	228	4
EXTAP	29	240	5
EXTAP	29	252	6
EXTAP	29	264	7
EXTAP	29	276	0
EXTAP	29	288	1
EXTAP	29	300	2
EXTAP	29	312	3
EXTAP	29	324	4
EXTAP	29	336	5
EXTAP	29	348	6
EXTAP	29	360	7
EXTAP	29	372	0
BXTAP	30	0	1
BXTAP	30	0	5
NMTAP	30	48	3
NMTAP	30	72	3
NMTAP	30	96	3
NMTAP	30	120	3
NMTAP	30	144	3
NMTAP	30	168	3
NMTAP	30	192	3
NMTAP	30	216	3
NMTAP	30	240	3
NMTAP	30	264	3
NMTAP	30	288	3
NMTAP	30	336	2
NMTAP	30	336	4
NMTAP	31	0	2
NMTAP	31	24	4
NMTAP	31	48	2
NMTAP	31	72	4
NMTAP	31	96	3
NMTAP	31	120	5
NMTAP	31	144	3
NMTAP	31	168	5
NMTAP	31	192	3
NMTAP	31	216	4
NMTAP	31	240	2
NMTAP	31	264	3
NMTAP	31	288	1
NMTAP	31	336	0
NMTAP	31	336	2
NMSTR	32	0	1
NMSI_	32	0	1	96	48	4
NMTAP	32	24	1
NMTAP	32	48	1
NMTAP	32	72	1
NMTAP	32	96	1
NMSTR	32	192	5
NMSI_	32	192	5	96	48	0
NMTAP	32	216	5
NMTAP	32	240	5
NMTAP	32	264	5
NMTAP	32	288	5
NMTAP	33	0	1
NMTAP	33	24	3
NMTAP	33	48	2
NMTAP	33	72	4
NMTAP	33	96	3
NMTAP	33	144	2
NMTAP	33	144	4
NMTAP	33	192	0
NMSTR	33	192	6
BRSI_	33	192	6	96	48	1
BRTAP	33	288	2
NMTAP	33	288	6
EXTAP	34	0	1
EXTAP	34	0	3
NMTAP	34	48	2
NMTAP	34	72	2
NMTAP	34	96	2
NMTAP	34	120	2
NMTAP	34	144	2
NMTAP	34	168	2
NMTAP	34	192	2
NMTAP	34	216	2
NMTAP	34	240	2
NMTAP	34	264	2
NMTAP	34	288	2
NMTAP	34	336	1
NMTAP	34	336	3
NMTAP	35	0	1
NMTAP	35	24	3
NMTAP	35	48	1
NMTAP	35	72	3
NMTAP	35	96	2
NMTAP	35	120	4
NMTAP	35	144	2
NMTAP	35	168	4
NMTAP	35	192	2
NMTAP	35	216	5
NMTAP	35	240	1
NMTAP	35	264	6
NMTAP	35	288	0
NMTAP	35	336	1
NMTAP	35	336	7
NMSTR	36	0	1
NMSV_	36	0	1	96	48	4
NMTAP	36	24	1
NMTAP	36	48	1
NMTAP	36	72	1
NMTAP	36	96	1
NMSTR	36	192	5
NMSCR	36	192	5	96	48	0
NMTAP	36	216	5
NMTAP	36	240	5
NMTAP	36	264	5
NMTAP	36	288	5
NMTAP	37	0	2
NMTAP	37	24	6
NMTAP	37	48	3
NMTAP	37	72	5
NMTAP	37	96	4
NMTAP	37	144	3
NMTAP	37	144	5
NMTAP	37	192	4
NMSTR	37	192	6
BRSI_	37	192	6	96	48	1
BRTAP	37	288	2
NMTAP	37	288	6
NMTAP	38	0	2
NMTAP	38	0	6
NMTAP	38	48	3
NMTAP	38	72	5
NMTAP	38	96	2
NMTAP	38	120	6
NMTAP	38	144	1
NMTAP	38	168	7
NMTAP	38	192	0
NMTAP	38	216	6
NMTAP	38	240	1
NMTAP	38	264	5
NMTAP	38	288	2
NMTAP	38	312	4
NMHLD	38	336	2	48
NMTAP	39	0	3
NMTAP	39	24	2
NMTAP	39	48	4
NMTAP	39	72	2
NMTAP	39	96	5
NMTAP	39	120	2
NMTAP	39	144	6
NMTAP	39	168	2
NMTAP	39	192	6
NMTAP	39	216	1
NMTAP	39	240	6
NMTAP	39	264	0
NMTAP	39	288	6
NMTAP	39	312	7
NMHLD	39	336	6	96
NMTAP	40	48	7
NMTAP	40	72	0
NMTAP	40	96	1
NMTAP	40	120	2
NMTAP	40	144	3
NMTAP	40	168	4
NMTAP	40	192	5
NMTAP	40	216	6
NMTAP	40	240	7
NMTAP	40	264	0
NMHLD	40	288	1	48
NMHLD	40	288	5	48
NMTAP	41	0	2
NMTAP	41	24	3
NMHLD	41	48	1	48
NMTAP	41	96	5
NMTAP	41	120	4
NMHLD	41	144	6	48
NMTAP	41	192	0
NMTAP	41	216	1
NMTAP	41	240	2
NMTAP	41	264	3
NMTAP	41	288	4
NMTAP	41	288	5
NMTAP	41	312	6
NMHLD	41	336	7	96
NMTAP	42	48	0
NMSTR	42	96	0
NMSI_	42	96	0	96	48	4
NMTAP	42	144	1
NMSTR	42	192	5
NMSI_	42	192	5	96	48	0
NMTAP	42	240	6
NMTAP	42	288	3
NMTAP	42	336	2
NMTAP	43	0	1
NMTAP	43	24	0
NMTAP	43	48	1
NMTAP	43	72	0
NMTAP	43	144	2
NMTAP	43	168	3
NMTAP	43	192	2
NMTAP	43	216	3
NMTAP	43	264	6
NMTAP	43	288	7
NMTAP	43	312	5
NMTAP	43	336	6
BRTAP	44	0	0
BRTAP	44	0	4
NMTAP	44	48	1
NMTAP	44	72	1
NMTAP	44	96	3
NMTAP	44	144	2
NMTAP	44	144	4
NMTAP	44	192	3
NMTAP	44	192	5
NMTAP	44	240	1
NMTAP	44	240	4
EXTAP	44	288	2
EXTAP	44	288	6
EXTAP	44	312	2
EXTAP	44	312	6
EXTAP	44	336	2
EXTAP	44	336	6
NMTAP	45	0	0
NMTAP	45	24	4
NMTAP	45	48	7
NMTAP	45	72	3
NMSTR	45	96	0
NMSI_	45	96	0	96	48	4
NMTAP	45	144	1
NMTAP	45	144	7
NMTAP	45	192	0
NMSTR	45	192	6
BRSI_	45	192	6	96	48	1
BRTAP	45	288	2
NMTAP	45	288	6
BRTAP	46	0	1
BRTAP	46	0	7
NMSTR	46	96	0
NMSUR	46	96	0	96	144	3
NMHLD	46	192	6	48
NMSTR	46	288	5
NMSXL	46	288	5	96	288	0
NMHLD	47	0	2	48
NMTAP	47	96	2
NMTAP	47	144	3
NMHLD	47	192	4	48
NMTAP	47	288	4
NMTAP	47	336	3
NMSTR	48	0	2
NMSI_	48	0	2	96	48	4
NMTAP	48	48	0
NMSTR	48	96	2
NMSCL	48	96	2	96	48	7
NMSTR	48	96	7
NMSCL	48	96	7	96	48	4
NMTAP	48	192	2
NMSTR	48	192	7
NMSLR	48	192	7	96	48	3
NMTAP	48	288	5
NMTAP	48	336	5
NMSTR	49	0	4
NMSV_	49	0	4	96	48	1
NMSTR	49	48	4
NMSV_	49	48	4	96	48	7
NMSTR	49	192	0
NMSI_	49	192	0	96	48	3
NMSTR	49	240	0
NMSI_	49	240	0	96	48	5
NMSTR	50	0	4
NMSCL	50	0	4	96	48	1
NMSTR	50	96	7
NMSCL	50	96	7	96	48	4
NMSTR	50	192	2
NMSCL	50	192	2	96	48	7
NMSTR	50	288	5
NMSCL	50	288	5	96	48	2
NMSTR	51	0	0
NMSCL	51	0	0	96	48	5
NMSTR	51	96	3
NMSF_	51	96	3	96	48	7
NMTAP	51	192	3
NMTAP	51	288	1
NMTAP	51	288	5
NMSTR	52	0	0
NMSI_	52	0	0	96	48	2
NMSTR	52	48	7
NMSI_	52	48	7	96	48	3
NMSTR	52	96	0
NMSI_	52	96	0	96	48	4
NMSTR	52	144	7
NMSI_	52	144	7	96	48	5
NMTAP	52	192	0
NMTAP	52	240	7
NMTAP	52	288	1
NMTAP	52	304	2
NMTAP	52	320	3
NMTAP	52	336	7
NMTAP	52	352	6
NMTAP	52	368	5
NMSTR	53	0	0
NMSCL	53	0	0	96	96	2
NMTAP	53	0	4
NMSTR	53	192	6
BRSI_	53	192	6	96	48	1
BRTAP	53	288	2
NMTAP	53	288	6
NMTAP	54	0	0
NMTAP	54	24	0
NMTAP	54	48	0
NMTAP	54	72	0
NMTAP	54	96	0
NMTAP	54	120	0
NMTAP	54	144	0
NMTAP	54	168	0
NMTAP	54	192	0
NMTAP	54	216	0
NMSTR	54	240	0
NMSI_	54	240	0	96	48	4
NMTAP	54	264	0
NMTAP	54	288	0
NMTAP	54	312	0
NMTAP	54	336	0
NMTAP	55	48	7
NMTAP	55	96	4
NMTAP	55	96	6
NMTAP	55	144	3
NMTAP	55	144	5
NMTAP	55	192	2
NMTAP	55	192	4
NMTAP	55	240	1
NMTAP	55	240	3
NMTAP	55	288	0
NMTAP	55	288	4
NMTAP	55	336	0
NMTAP	55	336	4
NMTAP	56	0	1
NMTAP	56	0	3
NMTAP	56	48	2
NMTAP	56	96	4
NMTAP	56	96	6
NMTAP	56	144	5
NMTAP	56	192	2
NMTAP	56	216	3
NMTAP	56	240	2
NMTAP	56	288	1
NMTAP	56	288	4
NMSTR	56	336	1
NMSI_	56	336	1	96	48	7
NMTAP	56	336	4
NMTAP	57	48	1
NMSTR	57	48	5
NMSI_	57	48	5	96	48	3
NMSTR	57	144	2
NMSI_	57	144	2	96	48	6
NMTAP	57	144	5
NMTAP	57	240	2
NMTAP	57	240	7
NMTAP	57	288	7
NMTAP	58	0	1
NMTAP	58	32	3
NMTAP	58	64	2
NMTAP	58	96	6
NMTAP	58	128	4
NMTAP	58	160	5
NMTAP	58	192	0
NMTAP	58	224	2
NMTAP	58	256	1
NMTAP	58	288	7
NMTAP	58	320	5
NMTAP	58	352	6
NMTAP	59	0	3
NMTAP	59	32	4
NMTAP	59	64	2
NMSTR	59	96	4
NMSI_	59	96	4	96	48	0
NMTAP	59	128	3
NMTAP	59	160	5
NMTAP	59	192	4
NMHLD	59	288	1	24
NMHLD	59	288	7	24
NMHLD	59	336	1	24
NMHLD	59	336	7	24
NMHLD	60	0	2	24
NMHLD	60	0	6	24
NMHLD	60	48	2	24
NMHLD	60	48	6	24
NMSTR	60	96	3
NMSI_	60	96	3	96	48	0
NMSI_	60	96	3	96	48	6
NMTAP	60	96	5
NMTAP	60	144	2
NMTAP	60	144	4
NMTAP	60	192	3
EXTAP	60	288	6
NMTAP	60	312	4
NMTAP	60	336	5
NMTAP	60	360	3
NMSTR	61	0	4
NMSI_	61	0	4	96	48	0
NMSTR	61	48	1
NMSI_	61	48	1	96	48	3
NMTAP	61	96	4
NMTAP	61	144	1
NMSTR	61	192	7
NMSI_	61	192	7	96	48	5
NMSTR	61	240	4
NMSI_	61	240	4	96	48	0
NMTAP	61	288	7
NMTAP	61	336	4
BRTAP	62	0	6
NMTAP	62	96	2
NMSTR	62	96	3
NMSCL	62	96	3	96	48	0
NMTAP	62	144	4
NMTAP	62	192	3
NMTAP	62	192	5
NMTAP	62	288	6
NMSTR	62	288	7
NMSCL	62	288	7	96	48	4
NMTAP	62	336	0
NMTAP	63	0	1
NMTAP	63	0	7
NMTAP	63	48	1
NMTAP	63	96	2
NMSTR	63	144	2
NMSI_	63	144	2	96	48	7
NMSTR	63	144	3
NMSI_	63	144	3	96	48	7
NMTAP	63	240	2
NMTAP	63	240	3
NMTAP	63	336	0
NMTAP	63	336	6
EXTAP	64	0	0
NMTAP	64	16	1
NMTAP	64	32	2
NMHLD	64	48	3	48
EXTAP	64	96	1
NMTAP	64	112	2
NMTAP	64	128	3
NMHLD	64	144	4	48
EXTAP	64	192	2
NMTAP	64	208	3
NMTAP	64	224	4
NMHLD	64	240	5	48
EXTAP	64	288	3
NMTAP	64	304	4
NMTAP	64	320	5
NMHLD	64	336	6	48
NMTAP	65	0	4
NMTAP	65	16	5
NMTAP	65	32	6
NMTAP	65	48	7
NMTAP	65	64	0
NMTAP	65	80	1
NMTAP	65	96	2
NMTAP	65	112	3
NMTAP	65	128	4
NMTAP	65	144	5
NMTAP	65	160	6
NMTAP	65	176	7
NMSTR	65	192	0
NMSI_	65	192	0	96	48	3
NMSTR	65	192	4
NMSV_	65	192	4	96	48	7
NMTAP	65	288	0
NMTAP	65	288	4
NMTAP	66	0	2
NMTAP	66	0	6
NMTTP	66	96	3	B	0	M1
NMTTP	66	128	2	B	0	M1
NMTTP	66	160	1	B	0	M1
NMTTP	66	192	7	B	0	M1
NMTTP	66	224	6	B	0	M1
NMTTP	66	256	5	B	0	M1
NMTTP	66	288	3	E	0	M1
NMTTP	66	320	2	E	0	M1
NMTTP	66	352	1	E	0	M1
NMTTP	67	0	7	E	0	M1
NMTTP	67	32	6	E	0	M1
NMTTP	67	64	5	E	0	M1
NMTTP	67	96	2	A	0	M1
NMTTP	67	128	1	A	0	M1
NMTTP	67	160	0	A	0	M1
NMTTP	67	192	6	A	0	M1
NMTTP	67	224	5	A	0	M1
NMTTP	67	256	4	A	0	M1
NMTTP	67	288	3	D	0	M1
NMTTP	67	320	2	D	0	M1
NMTTP	67	352	1	D	0	M1
EXTAP	68	0	0
EXSTR	68	0	7
NMSI_	68	0	7	96	48	5
NMSTR	68	96	3
NMSI_	68	96	3	96	48	1
NMTAP	68	96	7
NMSTR	68	192	0
NMSI_	68	192	0	96	48	4
NMTAP	68	192	3
NMTAP	68	288	0
NMSTR	68	288	2
NMSCL	68	288	2	96	144	4
NMHLD	69	0	6	288
CNSUL	69	144	4	0	144	3
BRHLD	70	0	1	96
NMTTP	70	0	4	B	0	M1
NMTTP	70	0	5	B	0	M1
NMTTP	70	0	5	E	1	M1
NMTTP	70	192	2	B	0	M1
NMTTP	70	192	3	B	0	M1
NMTTP	70	192	3	E	1	M1
BRHLD	70	192	6	96
BRTAP	71	0	1
BRTAP	71	0	4
BRTAP	71	96	3
BRTAP	71	96	6
BRTAP	71	192	5
NMTAP	71	240	4
NMTAP	71	240	6
BRTAP	71	288	2
NMTAP	71	336	1
NMTAP	71	336	3
BRTAP	72	0	0
BRTAP	72	0	4
NMTAP	72	48	1
NMTAP	72	72	5
NMTAP	72	96	1
NMTAP	72	120	5
NMTAP	72	144	1
NMTAP	72	168	5
NMTAP	72	192	1
NMTAP	72	216	5
NMTAP	72	240	1
NMTAP	72	264	5
NMTAP	72	288	1
NMTAP	72	312	5
NMTAP	72	336	1
NMTAP	72	360	5
NMTAP	73	0	2
NMTAP	73	24	6
NMTAP	73	48	2
NMTAP	73	72	6
NMTAP	73	96	1
NMTAP	73	120	7
NMTAP	73	144	1
NMTAP	73	168	7
NMTAP	73	192	0
NMTAP	73	216	0
NMTAP	73	240	0
NMTAP	73	264	0
NMSTR	73	288	0
NMSI_	73	288	0	96	48	4
NMTAP	74	0	0
BRSTR	74	0	6
NMSI_	74	0	6	96	48	3
NMSTR	74	96	2
NMSI_	74	96	2	96	48	0
NMTAP	74	96	6
NMTAP	74	192	2
NMSTR	74	192	7
NMSCL	74	192	7	96	48	4
NMSV_	74	192	7	96	48	4
NMTAP	74	288	7
NMTAP	75	0	2
NMTAP	75	24	3
NMTAP	75	48	1
NMTAP	75	96	0
NMTAP	75	96	4
NMTAP	75	144	1
NMTAP	75	144	5
NMTAP	75	192	2
NMSTR	75	192	6
BRSI_	75	192	6	96	48	1
BRTAP	75	288	2
NMTAP	75	288	6
NMTAP	76	0	3
NMTAP	76	0	7
NMTAP	76	48	2
NMTAP	76	72	6
NMTAP	76	96	2
NMTAP	76	120	6
NMTAP	76	144	2
NMTAP	76	168	6
NMTAP	76	192	2
NMTAP	76	216	6
NMTAP	76	240	2
NMTAP	76	264	6
NMTAP	76	288	2
NMTAP	76	312	6
NMTAP	76	336	2
NMTAP	76	360	6
NMTAP	77	0	1
NMTAP	77	24	5
NMTAP	77	48	1
NMTAP	77	72	5
NMTAP	77	96	2
NMTAP	77	120	4
NMTAP	77	144	2
NMTAP	77	168	4
NMTAP	77	192	3
NMTAP	77	216	3
NMTAP	77	240	3
NMTAP	77	264	3
NMSTR	77	288	3
NMSI_	77	288	3	96	48	7
NMTAP	78	0	3
NMSTR	78	0	6
NMSI_	78	0	6	96	48	3
NMSTR	78	96	1
NMSI_	78	96	1	96	48	5
NMTAP	78	96	6
NMTAP	78	192	1
NMSTR	78	192	7
NMSCR	78	192	7	96	48	3
NMSUR	78	192	7	96	48	3
NMTAP	78	288	7
NMTAP	79	0	5
NMTAP	79	24	4
NMTAP	79	48	6
NMTAP	79	96	3
NMTAP	79	96	7
NMTAP	79	144	2
NMTAP	79	192	1
NMSTR	79	192	6
BRSI_	79	192	6	96	48	1
BRTAP	79	288	2
NMTAP	79	288	6
NMTAP	80	0	2
NMTAP	80	0	6
NMTAP	80	48	3
NMTAP	80	72	7
NMTAP	80	96	3
NMTAP	80	120	7
NMTAP	80	144	3
NMTAP	80	168	7
NMTAP	80	192	4
NMTAP	80	216	0
NMTAP	80	240	4
NMTAP	80	264	0
NMTAP	80	288	4
NMTAP	80	312	0
NMTAP	80	336	4
NMTAP	80	360	0
NMTAP	81	0	3
NMTAP	81	24	7
NMTAP	81	48	3
NMTAP	81	72	7
NMTAP	81	96	2
NMTAP	81	120	0
NMTAP	81	144	2
NMTAP	81	168	0
NMTAP	81	192	1
NMTAP	81	216	1
NMTAP	81	240	1
NMTAP	81	264	1
NMSTR	81	288	1
NMSI_	81	288	1	96	48	4
NMTAP	82	0	1
NMSTR	82	0	5
NMSI_	82	0	5	96	48	1
NMSTR	82	96	2
NMSI_	82	96	2	96	48	7
NMTAP	82	96	5
NMSTR	82	192	0
NMSUL	82	192	0	96	48	4
NMSLL	82	192	0	96	48	4
NMTAP	82	192	2
NMTAP	82	288	0
NMTAP	83	0	2
NMTAP	83	24	3
NMTAP	83	48	1
NMTAP	83	96	0
NMTAP	83	96	4
NMTAP	83	144	1
NMTAP	83	144	5
NMTAP	83	192	2
NMSTR	83	192	6
BRSI_	83	192	6	96	48	1
BRTAP	83	288	2
NMTAP	83	288	6
NMTAP	84	0	3
NMHLD	84	0	7	24
NMTAP	84	48	4
NMTAP	84	72	0
NMTAP	84	96	4
NMTAP	84	120	0
NMTAP	84	144	4
NMTAP	84	168	0
NMTAP	84	192	5
NMTAP	84	216	1
NMTAP	84	240	5
NMTAP	84	264	1
NMTAP	84	288	5
NMTAP	84	312	1
NMTAP	84	336	5
NMTAP	84	360	1
NMTAP	85	0	4
NMTAP	85	24	0
NMTAP	85	48	3
NMTAP	85	72	7
NMTAP	85	96	2
NMTAP	85	120	6
NMTAP	85	144	1
NMTAP	85	168	5
NMTAP	85	192	0
NMTAP	85	216	0
NMTAP	85	240	0
NMTAP	85	264	0
NMSTR	85	288	0
NMSI_	85	288	0	96	48	4
BRTAP	86	0	0
BRSTR	86	0	5
NMSI_	86	0	5	96	48	1
NMSTR	86	96	2
NMSI_	86	96	2	96	48	6
NMTAP	86	96	5
NMTAP	86	192	2
NMSTR	86	192	7
NMSUR	86	192	7	96	48	4
NMSV_	86	192	7	96	48	4
NMTAP	86	288	7
NMTAP	87	0	5
NMTAP	87	24	5
NMTAP	87	48	5
NMTAP	87	96	3
NMTAP	87	96	7
NMTAP	87	144	1
NMTAP	87	144	5
NMTAP	87	192	2
NMSTR	87	192	6
BRSI_	87	192	6	96	48	1
BRTAP	87	288	2
NMTAP	87	288	6
BRSTR	88	0	2
NMSV_	88	0	2	96	48	7
NMTAP	88	96	2
NMSTR	88	96	6
NMSCL	88	96	6	96	48	3
NMSTR	88	192	0
NMSUL	88	192	0	96	48	4
NMSV_	88	192	0	96	48	3
NMTAP	88	192	6
NMTAP	88	288	0
NMTAP	89	0	2
NMTAP	89	24	2
NMTAP	89	48	2
NMTAP	89	96	0
NMTAP	89	96	4
NMTAP	89	144	1
NMTAP	89	144	5
NMTAP	89	192	2
NMSTR	89	192	6
BRSI_	89	192	6	96	48	1
BRTAP	89	288	2
NMTAP	89	288	6
BRTAP	90	0	3
BRSTR	90	0	7
NMSI_	90	0	7	96	48	3
NMTAP	90	48	7
NMSTR	90	96	1
NMSI_	90	96	1	96	48	4
NMTAP	90	96	7
NMTAP	90	144	1
NMTAP	90	192	1
NMSTR	90	192	6
NMSI_	90	192	6	96	48	3
NMTAP	90	240	6
NMSTR	90	288	2
NMSI_	90	288	2	96	48	7
NMTAP	90	288	6
NMTAP	90	336	2
NMTAP	91	0	2
NMSTR	91	0	4
NMSI_	91	0	4	96	48	0
NMTAP	91	48	4
NMTAP	91	96	1
NMTAP	91	96	4
NMTAP	91	144	1
BRTAP	91	192	1
BRTAP	91	192	7
BRTAP	91	270	2
BRSTR	91	270	6
BRSI_	91	270	6	96	42	1
BRTAP	91	348	3
BRTAP	91	348	6

T_REC_TAP	728
T_REC_BRK	33
T_REC_XTP	30
T_REC_BXX	2
T_REC_HLD	26
T_REC_XHO	0
T_REC_BHO	2
T_REC_BXH	0
T_REC_STR	120
T_REC_BST	5
T_REC_XST	2
T_REC_XBS	0
T_REC_TTP	27
T_REC_THO	0
T_REC_SLD	119
T_REC_BSL	14
T_REC_ALL	1108
T_NUM_TAP	907
T_NUM_BRK	56
T_NUM_HLD	26
T_NUM_SLD	119
T_NUM_ALL	1108
T_JUDGE_TAP	947
T_JUDGE_HLD	39
T_JUDGE_SLD	133
T_JUDGE_ALL	1119
TTM_EACHPAIRS	141
TTM_SCR_TAP	453500
TTM_SCR_BRK	145600
TTM_SCR_HLD	26000
TTM_SCR_SLD	178500
TTM_SCR_ALL	803600
TTM_SCR_S	774100
TTM_SCR_SS	798000
TTM_RAT_ACV	10070

