VERSION	0.00.00	1.04.00
FES_MODE	0
BPM_DEF	120.000	120.000	235.000	120.000
MET_DEF	4	4
RESOLUTION	384
CLK_DEF	384
COMPATIBLE_CODE	MA2

BPM	0	0	120.000
BPM	22	0	120.000
BPM	23	0	125.000
BPM	24	0	130.000
BPM	25	0	135.000
BPM	26	0	140.000
BPM	27	0	145.000
BPM	28	0	150.000
BPM	29	0	154.900
BPM	30	0	160.000
BPM	32	0	160.900
BPM	34	0	162.000
BPM	36	0	163.000
BPM	38	0	163.900
BPM	40	0	165.000
BPM	42	0	165.900
BPM	44	0	167.000
BPM	46	0	167.900
BPM	52	0	170.000
BPM	70	0	180.000
BPM	70	192	182.000
BPM	71	0	183.900
BPM	71	192	185.900
BPM	72	0	190.000
BPM	74	0	195.000
BPM	76	0	200.000
BPM	78	0	204.900
BPM	80	0	210.000
BPM	82	0	214.900
BPM	84	0	220.000
BPM	86	0	224.900
BPM	88	0	229.900
BPM	90	0	235.000
MET	0	0	4	4

BRSTR	2	0	2
NMSXR	2	0	2	96	480	4
BRTAP	2	0	6
NMHLD	3	0	7	384
NMTAP	4	0	5
NMTAP	4	48	4
NMTAP	4	48	6
NMTAP	4	192	2
NMTAP	4	240	1
NMTAP	4	240	3
NMTAP	5	0	0
NMTAP	5	48	0
NMTAP	5	96	1
NMTAP	5	96	7
NMTAP	5	144	1
NMTAP	5	144	7
NMTAP	5	192	2
NMSTR	5	192	6
BRSI_	5	192	6	96	48	1
NMTTP	5	288	3	E	1	M1
NMTAP	6	0	0
NMTAP	6	48	0
NMTAP	6	96	1
NMTAP	6	96	7
NMTAP	6	144	6
NMTAP	6	192	5
NMTAP	6	240	3
NMTAP	6	288	2
NMTAP	6	288	4
NMTAP	6	336	5
NMTAP	7	0	6
NMTAP	7	0	7
NMTAP	7	48	5
NMTAP	7	96	3
NMTAP	7	96	4
NMTAP	7	144	2
NMTAP	7	192	0
NMTAP	7	192	1
NMTAP	7	240	0
NMTAP	7	240	1
NMSTR	7	288	2
NMSCR	7	288	2	96	48	5
NMTAP	7	288	7
NMTAP	8	0	6
NMTAP	8	48	6
NMTAP	8	96	0
NMSTR	8	96	7
NMSI_	8	96	7	96	48	3
NMTAP	8	192	2
NMTAP	8	240	1
NMSTR	8	288	0
NMSCL	8	288	0	96	48	5
NMSCR	8	288	0	96	48	3
NMTAP	9	96	4
NMTAP	9	144	3
NMTAP	9	144	5
NMTAP	9	192	2
NMSTR	9	192	6
BRSI_	9	192	6	96	48	2
NMTTP	9	288	0	B	1	M1
NMTAP	10	0	1
NMTAP	10	48	1
NMTAP	10	96	2
NMTAP	10	96	4
NMTAP	10	144	3
NMTAP	10	192	7
NMTAP	10	240	7
NMTAP	10	288	4
NMTAP	10	288	6
NMTAP	10	336	5
NMHLD	11	0	3	48
NMTAP	11	48	4
NMHLD	11	96	2	48
NMTAP	11	144	3
NMHLD	11	192	1	48
NMTAP	11	240	3
NMTAP	11	288	0
NMTAP	11	288	4
NMTAP	12	0	5
NMTAP	12	48	5
NMTAP	12	96	4
NMTAP	12	96	6
NMTAP	12	144	7
NMTAP	12	192	2
NMTAP	12	240	2
NMTAP	12	288	1
NMTAP	12	288	3
NMTAP	12	336	0
NMTAP	13	0	4
NMTAP	13	48	4
NMTAP	13	96	3
NMTAP	13	96	5
NMTAP	13	144	3
NMTAP	13	144	5
NMTAP	13	192	2
NMSTR	13	192	6
BRSI_	13	192	6	96	48	0
NMTTP	13	288	3	E	1	M1
NMSTR	14	0	1
NMSI_	14	0	1	96	48	3
NMTAP	14	96	0
NMTAP	14	192	4
NMTAP	14	192	6
NMTAP	14	240	3
NMTAP	14	240	5
NMTAP	14	288	2
NMTAP	14	288	4
NMSTR	15	0	6
NMSI_	15	0	6	96	48	4
NMTAP	15	96	7
NMTAP	15	192	1
NMTAP	15	192	3
NMTAP	15	240	2
NMTAP	15	240	4
NMTAP	15	288	3
NMTAP	15	288	5
NMSTR	16	0	0
NMSI_	16	0	0	96	48	2
NMSTR	16	0	7
NMSI_	16	0	7	96	48	5
NMTAP	16	192	3
NMTAP	16	192	4
NMTAP	16	240	3
NMTAP	16	240	4
NMSTR	16	288	1
NMSI_	16	288	1	96	48	5
NMTAP	16	288	6
NMSTR	17	0	7
NMSCL	17	0	7	96	48	4
NMSTR	17	96	0
NMSCR	17	96	0	96	48	3
NMSTR	17	192	6
NMSI_	17	192	6	96	48	2
NMTAP	17	288	0
NMTAP	17	336	0
NMTAP	18	48	1
NMTAP	18	48	3
NMTAP	18	96	2
NMTAP	18	144	3
NMTAP	18	192	4
NMTAP	18	192	6
NMTAP	18	240	5
NMTAP	18	288	4
NMTAP	18	336	3
EXHLD	19	0	0	48
EXHLD	19	0	1	48
NMTAP	19	72	0
NMTAP	19	72	1
EXHLD	19	144	6	48
EXHLD	19	144	7	48
NMTAP	19	216	6
NMTAP	19	216	7
EXTAP	19	288	3
EXTAP	19	288	4
EXTAP	19	336	1
EXTAP	19	336	6
NMTAP	20	48	0
NMTAP	20	96	1
NMTAP	20	96	3
NMTAP	20	144	2
NMTAP	20	192	4
NMTAP	20	192	6
NMTAP	20	240	5
NMTAP	20	288	2
NMTAP	20	288	3
NMTAP	20	336	1
NMTAP	21	0	4
NMTAP	21	0	5
NMTAP	21	48	6
NMTAP	21	96	1
NMTAP	21	96	3
NMTAP	21	144	0
NMTAP	21	192	4
NMSTR	21	192	6
BRSCR	21	192	6	96	48	1
NMTHO	21	288	0	96	C	1	M1
NMHLD	22	192	0	96
NMHLD	22	192	1	96
NMHLD	23	0	5	96
NMHLD	23	0	6	96
NMHLD	23	192	2	96
NMHLD	23	192	3	96
NMTAP	24	0	6
NMTAP	24	0	7
NMTAP	24	96	5
NMTAP	24	192	3
NMTAP	24	192	4
NMTAP	24	288	2
NMTAP	25	0	0
NMTAP	25	0	1
NMTAP	25	96	3
NMTAP	25	96	5
NMTAP	25	192	6
NMTAP	25	192	7
NMTAP	25	288	2
NMTAP	25	288	4
NMHLD	26	0	0	48
NMHLD	26	0	1	48
NMHLD	26	96	6	48
NMHLD	26	96	7	48
NMHLD	26	192	1	48
NMHLD	26	192	3	48
NMHLD	26	288	4	48
NMHLD	26	288	6	48
NMHLD	27	0	2	48
NMHLD	27	0	3	48
NMHLD	27	96	4	48
NMHLD	27	96	5	48
NMHLD	27	192	1	48
NMHLD	27	192	2	48
NMHLD	27	288	5	48
NMHLD	27	288	6	48
NMTAP	28	0	7
NMTAP	28	48	0
NMTAP	28	96	1
NMTAP	28	144	2
NMTAP	28	192	3
NMTAP	28	240	4
NMTAP	28	288	5
NMTAP	28	336	6
NMTAP	29	0	0
NMTAP	29	24	7
NMTAP	29	48	0
NMTAP	29	72	7
NMTAP	29	96	0
NMTAP	29	120	7
NMTAP	29	144	0
NMTAP	29	168	7
EXTAP	29	192	1
EXTAP	29	216	6
EXTAP	29	240	1
EXTAP	29	264	6
EXTAP	29	288	1
EXTAP	29	312	6
EXTAP	29	336	1
EXTAP	29	360	6
BRTAP	30	0	0
NMTAP	30	96	1
NMHLD	30	96	7	240
NMTAP	30	144	1
NMTAP	30	192	1
NMTAP	30	240	1
NMTAP	30	288	1
NMTAP	30	336	1
NMTAP	31	0	2
NMTAP	31	48	2
NMTAP	31	96	3
NMTAP	31	144	3
NMTAP	31	192	2
NMTAP	31	192	4
NMTAP	31	240	3
NMTAP	31	240	5
NMTAP	31	288	4
NMTAP	31	288	6
NMTAP	32	0	0
NMTAP	32	48	0
NMTAP	32	96	1
NMTAP	32	96	7
NMTAP	32	192	5
NMTAP	32	240	5
NMTAP	32	288	4
NMTAP	32	288	6
NMTAP	33	0	2
NMTAP	33	24	3
NMTAP	33	48	2
NMTAP	33	96	4
NMTAP	33	144	5
NMTAP	33	192	2
NMSTR	33	192	6
BRSI_	33	192	6	96	48	3
NMTTP	33	288	1	E	1	M1
EXHLD	34	0	2	336
NMTAP	34	48	7
NMTAP	34	96	7
NMTAP	34	144	7
NMTAP	34	192	7
NMTAP	34	240	7
NMTAP	34	288	7
NMTAP	34	336	7
NMTAP	35	0	0
NMTAP	35	48	0
NMTAP	35	96	1
NMTAP	35	144	1
NMTAP	35	192	3
NMTAP	35	240	2
NMTAP	35	288	4
NMTAP	35	336	3
NMTAP	36	0	5
NMTAP	36	48	5
NMTAP	36	96	4
NMTAP	36	96	6
NMTAP	36	144	7
NMTAP	36	192	2
NMTAP	36	240	2
NMTAP	36	288	1
NMTAP	36	288	3
NMTAP	36	336	0
NMTAP	37	0	5
NMTAP	37	24	4
NMTAP	37	48	5
NMTAP	37	96	3
NMTAP	37	144	4
NMTAP	37	192	2
NMSTR	37	192	6
BRSI_	37	192	6	96	48	0
NMTTP	37	288	1	B	1	M1
EXTAP	38	0	2
EXTAP	38	0	3
NMTAP	38	96	4
NMHLD	38	96	6	240
NMTAP	38	144	4
NMTAP	38	192	4
NMTAP	38	240	4
NMTAP	38	288	4
NMTAP	38	336	4
EXTAP	39	0	5
NMTAP	39	48	5
NMTAP	39	96	6
NMTAP	39	144	6
NMTAP	39	192	0
NMTAP	39	240	0
NMTAP	39	288	7
NMTAP	39	336	7
EXHLD	40	0	1	240
NMTAP	40	48	3
NMTAP	40	96	3
NMTAP	40	144	3
NMTAP	40	192	3
NMTAP	40	240	3
NMSTR	40	288	2
NMSI_	40	288	2	96	48	5
NMTAP	40	288	4
EXSTR	41	0	6
NMSI_	41	0	6	96	48	1
EXSTR	41	96	3
NMSI_	41	96	3	96	48	0
EXSTR	41	192	7
NMSI_	41	192	7	96	48	4
EXTAP	41	288	3
EXTAP	41	336	3
NMTAP	42	48	0
NMTAP	42	48	6
NMTAP	42	96	5
NMTAP	42	144	4
NMTAP	42	192	1
NMTAP	42	192	3
NMTAP	42	240	2
NMTAP	42	288	3
NMTAP	42	336	4
EXHLD	43	0	6	48
EXHLD	43	0	7	48
NMTAP	43	72	6
NMTAP	43	72	7
EXHLD	43	144	0	48
EXHLD	43	144	1	48
NMTAP	43	216	0
NMTAP	43	216	1
EXTAP	43	288	3
EXTAP	43	288	4
EXTAP	43	336	1
EXTAP	43	336	6
NMTAP	44	48	0
NMTAP	44	48	7
NMTAP	44	96	6
NMTAP	44	144	5
NMTAP	44	192	1
NMTAP	44	192	4
NMTAP	44	240	2
NMTAP	44	288	3
NMTAP	44	288	6
NMTAP	45	0	1
NMTAP	45	24	0
NMTAP	45	48	1
NMTAP	45	72	0
NMTAP	45	96	1
NMTAP	45	144	2
NMTAP	45	144	7
NMSTR	45	192	3
BRSCL	45	192	3	96	48	0
NMSTR	45	192	6
BRSCL	45	192	6	96	48	3
NMTTP	46	0	0	E	0	M1
NMTTP	46	0	7	B	1	M1
NMTTP	46	0	7	E	0	M1
NMTTP	46	0	7	A	0	M1
NMHLD	46	192	1	144
NMHLD	46	192	5	96
NMTAP	46	336	4
NMSTR	47	0	2
NMSCR	47	0	2	96	48	5
NMSTR	47	0	3
NMSI_	47	0	3	96	48	6
NMSTR	47	192	0
NMSCR	47	192	0	96	48	2
NMSTR	47	192	7
NMSUR	47	192	7	96	48	3
EXHLD	48	0	4	96
NMTAP	48	96	5
NMTAP	48	144	5
NMTAP	48	192	4
NMTAP	48	240	4
NMTAP	48	288	3
NMTAP	48	336	3
NMSTR	49	0	1
NMSUR	49	0	1	96	48	5
NMSTR	49	0	2
NMSI_	49	0	2	96	48	5
NMTAP	49	192	6
NMTAP	49	192	7
NMTAP	49	240	6
NMTAP	49	240	7
EXSTR	49	288	0
NMSI_	49	288	0	96	48	4
NMTAP	49	288	5
BRHLD	50	0	7	48
NMHLD	50	96	6	48
NMHLD	50	192	5	48
NMHLD	50	288	4	48
NMHLD	51	0	3	48
NMTAP	51	0	5
NMHLD	51	96	2	48
NMTAP	51	96	4
NMHLD	51	192	1	48
NMTAP	51	192	3
NMHLD	51	288	0	48
NMTAP	52	0	7
NMTAP	52	48	7
NMTAP	52	96	7
NMTAP	52	144	7
NMTAP	52	192	0
NMTAP	52	216	6
NMTAP	52	240	0
NMTAP	52	264	6
NMTAP	52	288	0
NMTAP	52	312	6
NMTAP	52	336	0
NMTAP	52	360	6
NMHLD	53	0	0	288
NMSTR	53	192	6
BRSI_	53	192	6	96	48	2
NMSTR	54	0	0
NMSXL	54	0	0	96	240	3
NMSTR	54	0	4
NMSXL	54	0	4	96	240	7
EXTAP	55	0	2
EXTAP	55	0	6
NMTAP	55	48	5
NMTAP	55	96	4
NMTAP	55	144	3
NMTAP	55	192	5
NMTAP	55	240	5
NMTAP	55	288	1
NMTAP	55	336	1
NMTAP	56	0	2
NMTAP	56	0	3
NMTAP	56	48	4
NMTAP	56	96	5
NMTAP	56	144	6
NMTAP	56	192	2
NMTAP	56	192	7
NMTAP	56	240	1
NMTAP	56	288	0
NMHLD	56	336	6	96
NMTAP	56	336	7
NMHLD	57	48	4	96
NMHLD	57	144	3	96
NMTAP	57	240	1
NMTAP	57	288	1
NMTAP	57	288	3
NMSTR	58	0	0
NMSI_	58	0	0	96	48	2
NMSTR	58	0	4
NMSI_	58	0	4	96	48	6
NMSTR	58	192	3
NMSI_	58	192	3	96	48	1
NMSTR	58	192	7
NMSI_	58	192	7	96	48	5
NMSTR	59	0	0
NMSF_	59	0	0	96	48	4
NMTAP	59	192	2
NMSTR	59	192	6
NMSI_	59	192	6	96	48	3
EXSTR	59	288	2
NMSI_	59	288	2	96	48	7
EXTAP	60	0	6
NMTAP	60	96	4
NMTAP	60	96	5
NMTAP	60	144	4
NMTAP	60	144	5
NMTAP	60	192	3
NMTAP	60	192	6
NMTAP	60	288	0
NMTAP	60	288	1
NMTAP	60	336	0
NMTAP	60	336	1
NMTAP	61	0	7
NMTAP	61	48	6
NMTAP	61	96	1
NMTAP	61	144	2
NMTAP	61	192	6
NMTAP	61	240	5
NMTAP	61	288	2
NMTAP	61	336	3
NMSTR	62	0	4
NMSI_	62	0	4	96	48	2
NMTAP	62	0	5
NMTAP	62	96	5
NMSTR	62	192	6
NMSI_	62	192	6	96	48	4
NMTAP	62	288	7
NMSTR	63	0	0
NMSI_	63	0	0	96	48	4
NMTAP	63	96	7
NMTAP	63	144	7
NMTAP	63	240	4
NMTAP	63	240	6
NMTAP	63	288	3
NMTAP	63	288	5
NMTAP	63	336	2
NMTAP	63	336	4
NMSTR	64	0	1
NMSI_	64	0	1	96	48	7
NMSTR	64	96	5
NMSI_	64	96	5	96	48	3
NMSTR	64	192	2
NMSI_	64	192	2	96	48	0
NMSTR	64	288	6
NMSI_	64	288	6	96	48	4
NMTAP	65	0	3
NMTAP	65	96	1
NMTAP	65	144	2
NMTAP	65	192	4
NMTAP	65	240	3
NMTAP	65	288	6
NMTAP	65	336	5
EXTAP	66	0	3
EXTAP	66	0	4
NMHLD	66	96	2	48
NMHLD	66	96	3	48
NMHLD	66	192	1	48
NMHLD	66	192	2	48
NMHLD	66	288	0	48
NMHLD	66	288	1	48
NMHLD	67	0	0	48
NMHLD	67	0	7	48
NMHLD	67	96	6	48
NMHLD	67	96	7	48
NMHLD	67	192	5	48
NMHLD	67	192	6	48
NMHLD	67	288	4	48
NMHLD	67	288	5	48
NMTAP	68	0	3
NMTAP	68	0	4
NMTAP	68	96	1
NMTAP	68	96	6
NMTAP	68	144	1
NMTAP	68	144	6
NMTAP	68	192	0
NMTAP	68	216	7
NMTAP	68	240	0
NMTAP	68	264	7
NMTAP	68	288	0
NMTHO	69	0	0	384	C	1	M1
NMTTP	69	0	2	B	0	M1
NMTTP	69	0	2	E	0	M1
NMTTP	69	0	6	B	0	M1
NMTTP	69	0	6	E	0	M1
NMTTP	70	192	0	E	1	M1
NMTTP	70	192	0	A	0	M1
NMTTP	70	192	7	A	0	M1
NMTTP	71	0	1	B	0	M1
NMTTP	71	0	2	E	1	M1
NMTTP	71	96	5	B	0	M1
NMTTP	71	96	6	E	1	M1
NMTTP	71	192	3	A	0	M1
NMTTP	71	192	4	E	1	M1
NMTTP	71	192	4	A	0	M1
EXTAP	72	0	1
EXTAP	72	0	7
NMTAP	72	48	0
NMTAP	72	96	0
NMTAP	72	144	0
NMTAP	72	192	0
NMTAP	72	240	0
NMTAP	72	288	0
NMTAP	72	336	0
NMTAP	73	0	6
NMTAP	73	48	6
NMTAP	73	96	1
NMTAP	73	144	1
NMTAP	73	192	5
NMTAP	73	240	4
NMTAP	73	288	3
NMTAP	73	288	6
NMTAP	74	0	2
NMTAP	74	48	3
NMTAP	74	96	1
NMTAP	74	96	4
NMTAP	74	192	7
NMTAP	74	240	0
NMTAP	74	288	1
NMTAP	74	288	6
NMTAP	75	0	5
NMTAP	75	24	4
NMTAP	75	48	5
NMTAP	75	96	3
NMTAP	75	144	3
NMSTR	75	192	6
BRSI_	75	192	6	96	48	0
NMTTP	75	288	1	B	1	M1
EXTAP	76	0	3
NMTAP	76	48	2
NMTAP	76	96	2
NMTAP	76	144	2
NMTAP	76	192	2
NMTAP	76	240	2
NMTAP	76	288	2
NMTAP	76	336	2
NMTAP	77	0	6
NMTAP	77	48	6
NMTAP	77	96	0
NMTAP	77	144	0
NMTAP	77	192	7
NMTAP	77	240	7
NMTAP	77	288	0
NMTAP	77	288	6
NMHLD	78	0	2	48
NMHLD	78	0	3	48
NMHLD	78	96	4	48
NMHLD	78	96	5	48
NMHLD	78	192	6	48
NMHLD	78	192	7	48
NMHLD	78	288	0	48
NMHLD	78	288	1	48
NMTAP	79	0	2
NMTAP	79	24	3
NMTAP	79	48	2
NMTAP	79	96	4
NMTAP	79	144	5
EXSTR	79	192	6
BRSI_	79	192	6	96	48	3
NMTTP	79	288	2	B	1	M1
NMTAP	80	96	0
NMTAP	80	96	1
NMTAP	80	144	7
NMTAP	80	192	7
NMTAP	80	240	7
NMTAP	80	288	7
NMTAP	80	336	7
NMTAP	81	0	0
NMTAP	81	48	0
NMTAP	81	96	6
NMTAP	81	144	6
NMTAP	81	192	2
NMTAP	81	240	3
NMTAP	81	288	1
NMTAP	81	288	4
EXTAP	82	0	6
NMTAP	82	48	7
NMTAP	82	96	0
NMTAP	82	96	5
EXTAP	82	192	1
NMTAP	82	240	0
NMTAP	82	288	2
NMTAP	82	288	7
EXTAP	83	0	5
NMTAP	83	48	5
NMTAP	83	96	3
NMTAP	83	144	3
EXSTR	83	192	6
BRSI_	83	192	6	96	48	2
NMTTP	83	288	0	B	1	M1
NMTAP	84	96	1
NMTAP	84	96	3
NMTAP	84	144	2
NMTAP	84	192	2
NMTAP	84	240	2
NMTAP	84	288	2
NMTAP	84	336	2
NMTAP	85	0	6
NMTAP	85	48	6
NMTAP	85	96	0
NMTAP	85	144	0
NMTAP	85	192	7
NMTAP	85	240	7
NMTAP	85	288	0
NMTAP	85	288	6
EXHLD	86	0	2	48
EXHLD	86	0	3	48
NMHLD	86	96	4	48
NMHLD	86	96	5	48
EXHLD	86	192	6	48
EXHLD	86	192	7	48
NMHLD	86	288	0	48
NMHLD	86	288	1	48
EXTAP	87	0	2
NMTAP	87	48	3
EXTAP	87	96	4
NMTAP	87	144	5
EXTAP	87	192	2
EXSTR	87	192	6
BRSI_	87	192	6	96	48	0
NMTTP	87	288	1	E	1	M1
NMHLD	88	0	2	48
EXHLD	88	0	3	48
EXHLD	88	96	4	48
NMHLD	88	96	5	48
NMHLD	88	192	6	48
EXHLD	88	192	7	48
EXHLD	88	288	0	48
NMHLD	88	288	1	48
EXTAP	89	0	2
NMTAP	89	48	3
EXTAP	89	96	4
NMTAP	89	144	5
EXTAP	89	192	2
EXSTR	89	192	6
BRSI_	89	192	6	96	48	0
NMTTP	89	288	1	E	1	M1
EXHLD	90	0	2	48
EXHLD	90	0	3	48
EXHLD	90	96	0	48
EXHLD	90	96	6	48
EXHLD	90	192	4	48
EXHLD	90	192	5	48
EXHLD	90	288	1	48
EXHLD	90	288	7	48
EXTAP	91	0	2
EXTAP	91	0	6
EXTAP	91	48	2
EXTAP	91	48	6
EXTAP	91	96	3
EXTAP	91	96	5
EXTAP	91	144	3
EXTAP	91	144	5
BXTAP	91	192	4
BXTAP	91	264	2
BXSTR	91	264	6
NMSXL	91	264	6	96	408	2
BXHLD	91	336	0	432

T_REC_TAP	451
T_REC_BRK	2
T_REC_XTP	46
T_REC_BXX	2
T_REC_HLD	71
T_REC_XHO	27
T_REC_BHO	1
T_REC_BXH	1
T_REC_STR	43
T_REC_BST	1
T_REC_XST	9
T_REC_XBS	1
T_REC_TTP	28
T_REC_THO	2
T_REC_SLD	41
T_REC_BSL	14
T_REC_ALL	740
T_NUM_TAP	577
T_NUM_BRK	22
T_NUM_HLD	100
T_NUM_SLD	41
T_NUM_ALL	740
T_JUDGE_TAP	583
T_JUDGE_HLD	161
T_JUDGE_SLD	55
T_JUDGE_ALL	799
TTM_EACHPAIRS	164
TTM_SCR_TAP	288500
TTM_SCR_BRK	57200
TTM_SCR_HLD	100000
TTM_SCR_SLD	61500
TTM_SCR_ALL	507200
TTM_SCR_S	489850
TTM_SCR_SS	505000
TTM_RAT_ACV	10043

