VERSION	0.00.00	1.04.00
FES_MODE	0
BPM_DEF	120.000	120.000	235.000	120.000
MET_DEF	4	4
RESOLUTION	384
CLK_DEF	384
COMPATIBLE_CODE	MA2

BPM	0	0	120.000
BPM	22	0	120.000
BPM	23	0	125.000
BPM	24	0	130.000
BPM	25	0	135.000
BPM	26	0	140.000
BPM	27	0	145.000
BPM	28	0	150.000
BPM	29	0	155.000
BPM	30	0	160.000
BPM	32	0	161.000
BPM	34	0	162.000
BPM	36	0	163.000
BPM	38	0	164.000
BPM	40	0	165.000
BPM	42	0	166.000
BPM	44	0	167.000
BPM	46	0	168.000
BPM	52	0	170.000
BPM	70	0	180.000
BPM	70	192	182.000
BPM	71	0	184.000
BPM	71	192	186.000
BPM	72	0	190.000
BPM	74	0	195.000
BPM	76	0	200.000
BPM	78	0	205.000
BPM	80	0	210.000
BPM	82	0	215.000
BPM	84	0	220.000
BPM	86	0	225.000
BPM	88	0	230.000
BPM	90	0	235.000
MET	0	0	4	4

EXSTR	2	0	3
NMSXR	2	0	3	96	480	0
EXSTR	2	0	4
NMSXL	2	0	4	96	480	7
NMTAP	4	0	0
NMTAP	4	96	0
NMTAP	4	192	7
NMTAP	4	288	7
NMHLD	5	0	0	192
NMHLD	5	0	7	192
BXTAP	5	288	0
NMTAP	6	0	1
NMTAP	6	96	1
NMTAP	6	192	2
NMTAP	6	288	2
NMTAP	7	0	3
NMTAP	7	96	3
NMTAP	7	192	4
NMTAP	7	192	5
NMTAP	7	288	4
NMTAP	7	288	5
NMSTR	8	0	6
NMSCL	8	0	6	96	96	3
NMSTR	8	192	2
NMSCL	8	192	2	96	96	7
NMTAP	9	0	6
NMTAP	9	96	6
NMTAP	9	192	6
NMTAP	9	192	7
BRTAP	9	288	7
NMTAP	10	0	6
NMTAP	10	96	6
NMTAP	10	192	5
NMTAP	10	288	5
NMTAP	11	0	4
NMTAP	11	96	4
NMTAP	11	192	2
NMTAP	11	192	3
NMTAP	11	288	2
NMTAP	11	288	3
NMSTR	12	0	1
NMSCR	12	0	1	96	96	4
NMSTR	12	192	5
NMSCR	12	192	5	96	96	0
NMTAP	13	0	1
NMTAP	13	96	1
NMTAP	13	192	0
NMTAP	13	192	1
BRTAP	13	288	1
NMHLD	14	0	2	192
NMTAP	14	192	3
NMTAP	14	288	2
NMTAP	14	288	3
NMHLD	15	0	5	192
NMTAP	15	192	4
NMTAP	15	288	4
NMTAP	15	288	5
NMHLD	16	0	2	192
NMTAP	16	192	3
NMTAP	16	288	2
NMTAP	16	288	3
NMTAP	17	0	1
NMTAP	17	0	4
NMTAP	17	96	1
NMTAP	17	96	4
NMTAP	17	192	1
NMTAP	17	192	4
NMHLD	18	0	1	192
NMTAP	18	192	0
NMTAP	18	288	0
NMTAP	18	288	1
NMHLD	19	0	6	192
NMTAP	19	192	7
NMTAP	19	288	6
NMTAP	19	288	7
NMHLD	20	0	1	192
NMTAP	20	192	0
NMTAP	20	288	0
NMTAP	20	288	1
NMTAP	21	0	2
NMTAP	21	0	7
NMTAP	21	96	2
NMTAP	21	96	7
NMTAP	21	192	2
NMTAP	21	192	7
NMTTP	22	0	0	B	0	L1
NMTTP	22	192	1	B	0	L1
NMTTP	23	0	2	B	0	L1
NMTTP	23	192	3	B	0	L1
NMTTP	24	0	4	B	0	L1
NMTTP	24	192	5	B	0	L1
NMTTP	25	0	6	B	0	L1
NMTTP	25	192	7	B	0	L1
NMTTP	26	0	0	E	0	L1
NMTTP	26	96	1	E	0	L1
NMTTP	26	192	2	E	0	L1
NMTTP	26	288	3	E	0	L1
NMTTP	27	0	4	E	0	L1
NMTTP	27	96	5	E	0	L1
NMTTP	27	192	6	E	0	L1
NMTTP	27	288	7	E	0	L1
EXTAP	28	0	0
EXTAP	28	48	0
EXTAP	28	96	0
EXTAP	28	192	7
EXTAP	28	240	7
EXTAP	28	288	7
EXHLD	29	0	0	192
EXHLD	29	0	7	192
BXTAP	29	288	0
BXTAP	29	288	7
NMTAP	30	0	1
NMTAP	30	96	1
NMTAP	30	192	0
NMTAP	30	192	1
NMTAP	30	288	0
NMTAP	30	288	1
NMTAP	31	0	2
NMTAP	31	96	2
NMTAP	31	192	2
NMTAP	31	192	3
NMTAP	31	288	2
NMTAP	31	288	3
NMTAP	32	0	5
NMTAP	32	96	5
NMTAP	32	192	4
NMTAP	32	192	5
NMTAP	32	288	4
NMTAP	32	288	5
NMTAP	33	0	6
NMTAP	33	0	7
NMTAP	33	96	6
NMTAP	33	96	7
NMTAP	33	192	6
NMTAP	33	192	7
BRTAP	33	288	7
NMTAP	34	0	6
NMTAP	34	96	6
NMTAP	34	192	6
NMTAP	34	192	7
NMTAP	34	288	6
NMTAP	34	288	7
NMTAP	35	0	5
NMTAP	35	96	5
NMTAP	35	192	4
NMTAP	35	192	5
NMTAP	35	288	4
NMTAP	35	288	5
NMTAP	36	0	2
NMTAP	36	96	2
NMTAP	36	192	2
NMTAP	36	192	3
NMTAP	36	288	2
NMTAP	36	288	3
NMTAP	37	0	0
NMTAP	37	0	1
NMTAP	37	96	0
NMTAP	37	96	1
NMTAP	37	192	0
NMTAP	37	192	1
BRTAP	37	288	0
NMHLD	38	0	1	192
NMHLD	38	192	0	192
NMHLD	39	0	7	192
NMTAP	39	192	6
NMHLD	40	0	6	192
NMHLD	40	192	7	192
NMHLD	41	0	0	192
NMTAP	41	192	1
NMHLD	42	0	2	192
NMHLD	42	192	3	192
NMHLD	43	0	4	192
NMTAP	43	192	5
NMHLD	44	0	6	192
NMHLD	44	192	7	192
NMTAP	45	0	0
NMTAP	45	192	0
NMTAP	45	192	7
BRTAP	45	288	7
NMSTR	46	0	0
NMSI_	46	0	0	96	96	4
NMSTR	46	192	6
NMSI_	46	192	6	96	96	2
NMSTR	47	0	1
NMSI_	47	0	1	96	96	4
NMSTR	47	192	5
NMSI_	47	192	5	96	96	2
NMSTR	48	0	1
NMSI_	48	0	1	96	96	5
NMSTR	48	192	6
NMSI_	48	192	6	96	96	2
NMTAP	49	0	1
NMTAP	49	96	1
NMTAP	49	192	0
NMTAP	49	192	1
NMSTR	50	0	7
NMSI_	50	0	7	96	96	3
NMSTR	50	192	1
NMSI_	50	192	1	96	96	5
NMSTR	51	0	6
NMSI_	51	0	6	96	96	3
NMSTR	51	192	2
NMSI_	51	192	2	96	96	5
NMSTR	52	0	6
NMSI_	52	0	6	96	96	3
NMSTR	52	192	2
NMSI_	52	192	2	96	96	7
BXTAP	53	0	6
NMTAP	54	0	5
NMTAP	54	96	5
NMTAP	54	192	6
NMTAP	54	192	7
NMTAP	54	288	6
NMTAP	54	288	7
NMTAP	55	0	5
NMTAP	55	96	5
NMTAP	55	192	3
NMTAP	55	192	4
NMTAP	55	288	3
NMTAP	55	288	4
NMTAP	56	0	2
NMTAP	56	96	2
NMTAP	56	192	0
NMTAP	56	192	1
NMTAP	56	288	0
NMTAP	56	288	1
NMTAP	57	0	2
NMTAP	57	0	7
NMTAP	57	96	2
NMTAP	57	96	7
NMTAP	57	192	2
NMTAP	57	192	7
NMTAP	58	0	2
NMTAP	58	96	2
NMTAP	58	192	0
NMTAP	58	192	1
NMTAP	58	288	0
NMTAP	58	288	1
NMTAP	59	0	2
NMTAP	59	96	2
NMTAP	59	192	3
NMTAP	59	192	4
NMTAP	59	288	3
NMTAP	59	288	4
NMTAP	60	0	5
NMTAP	60	96	5
NMTAP	60	192	6
NMTAP	60	192	7
NMTAP	60	288	6
NMTAP	60	288	7
NMTAP	61	0	0
NMTAP	61	0	5
NMTAP	61	96	0
NMTAP	61	96	5
NMTAP	61	192	0
NMTAP	61	192	5
NMTAP	62	0	1
NMTAP	62	96	1
NMTAP	62	192	0
NMTAP	62	192	1
NMTAP	62	288	0
NMTAP	62	288	1
NMTAP	63	0	6
NMTAP	63	96	6
NMTAP	63	192	6
NMTAP	63	192	7
NMTAP	63	288	6
NMTAP	63	288	7
NMTAP	64	0	5
NMTAP	64	96	5
NMTAP	64	192	4
NMTAP	64	192	5
NMTAP	64	288	4
NMTAP	64	288	5
NMTAP	65	0	2
NMTAP	65	0	3
NMTAP	65	96	2
NMTAP	65	96	3
NMTAP	65	192	2
NMTAP	65	192	3
NMTAP	66	0	5
NMTAP	66	96	5
NMTAP	66	192	4
NMTAP	66	192	5
NMTAP	66	288	4
NMTAP	66	288	5
NMTAP	67	0	6
NMTAP	67	96	6
NMTAP	67	192	6
NMTAP	67	192	7
NMTAP	67	288	6
NMTAP	67	288	7
NMTAP	68	0	0
NMTAP	68	96	0
NMTAP	68	192	0
NMTAP	68	192	1
NMTAP	68	288	0
NMTAP	68	288	1
NMTAP	69	0	2
NMTAP	69	0	3
NMTAP	69	96	2
NMTAP	69	96	3
NMTAP	69	192	2
NMTAP	69	192	3
NMTHO	70	0	0	384	C	1	L1
NMTAP	72	0	0
NMTAP	72	96	0
NMTAP	72	192	1
NMTAP	72	240	1
NMTAP	72	288	1
NMTAP	73	0	2
NMTAP	73	96	2
NMTAP	73	192	3
NMTAP	73	240	3
NMTAP	73	288	3
NMTAP	74	0	4
NMTAP	74	96	4
NMTAP	74	192	5
NMTAP	74	240	5
NMTAP	74	288	5
NMTAP	75	0	6
NMTAP	75	0	7
NMTAP	75	96	6
NMTAP	75	96	7
NMTAP	75	192	6
NMTAP	75	192	7
NMTAP	76	0	7
NMTAP	76	96	7
NMTAP	76	192	6
NMTAP	76	240	6
NMTAP	76	288	6
NMTAP	77	0	5
NMTAP	77	96	5
NMTAP	77	192	4
NMTAP	77	240	4
NMTAP	77	288	4
NMTAP	78	0	3
NMTAP	78	96	3
NMTAP	78	192	2
NMTAP	78	240	2
NMTAP	78	288	2
NMTAP	79	0	0
NMTAP	79	0	1
NMTAP	79	96	0
NMTAP	79	96	1
NMTAP	79	192	0
NMTAP	79	192	1
NMTAP	80	0	2
NMTAP	80	96	1
NMTAP	80	192	0
NMTAP	80	288	7
NMTAP	81	0	6
NMTAP	81	48	6
NMTAP	81	96	6
NMTAP	81	192	4
NMTAP	81	192	5
NMTAP	82	0	5
NMTAP	82	96	6
NMTAP	82	192	7
NMTAP	82	288	0
NMTAP	83	0	1
NMTAP	83	48	1
NMTAP	83	96	1
NMTAP	83	192	2
NMTAP	83	192	3
NMTAP	84	0	2
NMTAP	84	96	3
NMTAP	84	192	4
NMTAP	84	288	5
NMTAP	85	0	6
NMTAP	85	48	6
NMTAP	85	96	6
NMTAP	85	192	6
NMTAP	85	192	7
NMTAP	86	0	5
NMTAP	86	96	4
NMTAP	86	192	3
NMTAP	86	288	2
NMTAP	87	0	1
NMTAP	87	48	1
NMTAP	87	96	1
NMTAP	87	192	0
NMTAP	87	192	1
NMTAP	88	0	2
NMTAP	88	96	3
NMTAP	88	192	4
NMTAP	88	288	5
NMTAP	89	0	6
NMTAP	89	48	6
NMTAP	89	96	6
NMTAP	89	192	0
NMTAP	89	192	7
NMTAP	90	0	0
NMTAP	90	0	7
NMTAP	90	96	0
NMTAP	90	96	7
NMTAP	90	192	1
NMTAP	90	192	6
NMTAP	90	288	1
NMTAP	90	288	6
NMTAP	91	0	2
NMTAP	91	0	5
NMTAP	91	96	2
NMTAP	91	96	5
EXHLD	91	192	3	144
EXHLD	91	192	4	144

T_REC_TAP	315
T_REC_BRK	5
T_REC_XTP	6
T_REC_BXX	4
T_REC_HLD	19
T_REC_XHO	4
T_REC_BHO	0
T_REC_BXH	0
T_REC_STR	16
T_REC_BST	0
T_REC_XST	2
T_REC_XBS	0
T_REC_TTP	16
T_REC_THO	1
T_REC_SLD	18
T_REC_BSL	0
T_REC_ALL	406
T_NUM_TAP	355
T_NUM_BRK	9
T_NUM_HLD	24
T_NUM_SLD	18
T_NUM_ALL	406
T_JUDGE_TAP	364
T_JUDGE_HLD	98
T_JUDGE_SLD	18
T_JUDGE_ALL	480
TTM_EACHPAIRS	96
TTM_SCR_TAP	177500
TTM_SCR_BRK	23400
TTM_SCR_HLD	24000
TTM_SCR_SLD	27000
TTM_SCR_ALL	251900
TTM_SCR_S	243500
TTM_SCR_SS	251000
TTM_RAT_ACV	10035

