VERSION	0.00.00	1.04.00
FES_MODE	0
BPM_DEF	120.000	120.000	235.000	120.000
MET_DEF	4	4
RESOLUTION	384
CLK_DEF	384
COMPATIBLE_CODE	MA2

BPM	0	0	120.000
BPM	22	0	120.000
BPM	23	0	125.000
BPM	24	0	130.000
BPM	25	0	135.000
BPM	26	0	140.000
BPM	27	0	145.000
BPM	28	0	150.000
BPM	29	0	155.000
BPM	30	0	160.000
BPM	32	0	161.000
BPM	34	0	162.000
BPM	36	0	163.000
BPM	38	0	164.000
BPM	40	0	165.000
BPM	42	0	166.000
BPM	44	0	167.000
BPM	46	0	168.000
BPM	52	0	170.000
BPM	70	0	180.000
BPM	70	192	182.000
BPM	71	0	184.000
BPM	71	192	186.000
BPM	72	0	190.000
BPM	74	0	195.000
BPM	76	0	200.000
BPM	78	0	205.000
BPM	80	0	210.000
BPM	82	0	215.000
BPM	84	0	220.000
BPM	86	0	225.000
BPM	88	0	230.000
BPM	90	0	235.000
MET	0	0	4	4

NMTAP	2	0	0
NMTAP	2	192	0
NMTAP	3	0	0
NMTAP	3	0	7
NMTAP	4	0	7
NMTAP	4	192	7
NMTAP	5	0	0
NMTAP	5	0	7
NMTAP	6	0	0
NMTAP	6	192	0
NMTAP	7	0	1
NMTAP	7	192	1
NMTAP	8	0	2
NMTAP	8	192	2
NMTAP	9	0	3
NMTAP	9	0	4
EXTAP	9	192	3
EXTAP	9	192	4
NMTAP	10	0	4
NMTAP	10	192	4
NMTAP	11	0	5
NMTAP	11	192	5
NMTAP	12	0	6
NMTAP	12	192	6
NMTAP	13	0	0
NMTAP	13	0	7
NMTAP	13	192	0
NMTAP	13	192	7
NMHLD	14	0	6	192
NMHLD	14	0	7	192
NMTAP	15	0	6
NMTAP	15	0	7
NMHLD	16	0	4	192
NMHLD	16	0	5	192
NMTAP	17	0	4
NMTAP	17	0	5
NMHLD	18	0	2	192
NMHLD	18	0	3	192
NMTAP	19	0	2
NMTAP	19	0	3
NMHLD	20	0	0	192
NMHLD	20	0	1	192
NMTAP	21	0	0
NMTAP	21	0	1
NMTAP	21	192	0
NMTAP	21	192	1
NMSTR	22	0	1
NMSI_	22	0	1	96	288	5
NMSTR	24	0	6
NMSI_	24	0	6	96	288	2
NMSTR	26	0	0
NMSI_	26	0	0	96	288	4
NMSTR	28	0	7
NMSI_	28	0	7	96	288	3
BRTAP	30	0	0
NMTAP	30	192	0
NMTAP	31	0	1
NMTAP	31	96	1
NMTAP	31	192	1
NMTAP	32	0	2
NMTAP	32	192	2
NMTAP	33	0	3
NMTAP	33	0	4
NMTAP	33	192	3
NMTAP	33	192	4
NMTAP	34	0	4
NMTAP	34	192	4
NMTAP	35	0	5
NMTAP	35	96	5
NMTAP	35	192	5
NMTAP	36	0	6
NMTAP	36	192	6
NMTAP	37	0	0
NMTAP	37	0	7
NMTAP	37	192	0
NMTAP	37	192	7
NMTAP	38	0	6
NMTAP	38	96	6
NMTAP	38	192	6
NMTAP	39	0	6
NMTAP	39	0	7
NMTAP	39	192	6
NMTAP	39	192	7
NMTAP	40	0	5
NMTAP	40	96	5
NMTAP	40	192	5
NMTAP	41	0	3
NMTAP	41	0	4
NMTAP	41	192	3
NMTAP	41	192	4
NMTAP	42	0	2
NMTAP	42	96	2
NMTAP	42	192	2
NMTAP	43	0	2
NMTAP	43	0	3
NMTAP	43	192	2
NMTAP	43	192	3
NMTAP	44	0	1
NMTAP	44	96	1
NMTAP	44	192	1
BXTAP	45	0	0
BXTAP	45	0	7
NMTTP	46	0	0	B	0	L1
NMTTP	47	0	7	B	0	L1
NMTTP	48	0	1	B	0	L1
NMTTP	49	0	6	B	0	L1
NMTTP	50	0	2	B	0	L1
NMTTP	51	0	5	B	0	L1
NMTHO	52	0	0	384	C	1	L1
NMTAP	54	0	0
NMTAP	54	96	0
NMTAP	54	192	0
NMTAP	55	0	1
NMTAP	55	96	1
NMTAP	55	192	1
NMTAP	56	0	2
NMTAP	56	96	2
NMTAP	56	192	2
NMTAP	57	0	3
NMTAP	57	0	4
NMTAP	57	192	3
NMTAP	57	192	4
NMTAP	58	0	4
NMTAP	58	96	4
NMTAP	58	192	4
NMTAP	59	0	5
NMTAP	59	96	5
NMTAP	59	192	5
NMTAP	60	0	6
NMTAP	60	96	6
NMTAP	60	192	6
NMTAP	61	0	0
NMTAP	61	0	7
NMTAP	61	192	0
NMTAP	61	192	7
NMTAP	62	0	7
NMTAP	62	96	7
NMTAP	62	192	7
NMTAP	63	0	6
NMTAP	63	96	6
NMTAP	63	192	6
NMTAP	64	0	5
NMTAP	64	96	5
NMTAP	64	192	5
NMTAP	65	0	4
NMTAP	65	96	4
NMTAP	65	192	3
NMTAP	65	192	4
NMTAP	66	0	3
NMTAP	66	96	3
NMTAP	66	192	3
NMTAP	67	0	2
NMTAP	67	96	2
NMTAP	67	192	2
NMTAP	68	0	1
NMTAP	68	96	1
NMTAP	68	192	1
NMTAP	69	0	0
NMTAP	69	96	0
NMTAP	69	192	0
NMTAP	69	192	7
NMHLD	70	0	0	192
NMHLD	70	0	7	192
EXTAP	71	0	0
EXTAP	71	0	7
EXTAP	71	192	0
EXTAP	71	192	7
BRTAP	72	0	0
NMTAP	72	96	0
NMTAP	72	192	0
NMTAP	72	288	0
NMTAP	73	0	1
NMTAP	73	96	1
NMTAP	73	192	0
NMTAP	73	192	1
NMTAP	74	0	2
NMTAP	74	96	2
NMTAP	74	192	2
NMTAP	74	288	2
NMTAP	75	0	3
NMTAP	75	96	3
NMTAP	75	192	3
NMTAP	75	192	4
NMTAP	76	0	4
NMTAP	76	96	4
NMTAP	76	192	4
NMTAP	76	288	4
NMTAP	77	0	5
NMTAP	77	96	5
NMTAP	77	192	4
NMTAP	77	192	5
NMTAP	78	0	6
NMTAP	78	96	6
NMTAP	78	192	6
NMTAP	78	288	6
NMTAP	79	0	7
NMTAP	79	96	7
NMTAP	79	192	0
NMTAP	79	192	7
BRTAP	80	0	7
NMTAP	80	96	7
NMTAP	80	192	6
NMTAP	80	288	6
NMTAP	81	0	5
NMTAP	81	96	5
EXTAP	81	192	3
EXTAP	81	192	4
NMTAP	82	0	3
NMTAP	82	96	3
NMTAP	82	192	2
NMTAP	82	288	2
NMTAP	83	0	1
NMTAP	83	96	1
EXTAP	83	192	0
EXTAP	83	192	7
BRTAP	84	0	0
NMTAP	84	96	0
NMTAP	84	192	1
NMTAP	84	288	1
NMTAP	85	0	2
NMTAP	85	96	2
NMTAP	85	192	2
NMTAP	85	192	3
NMTAP	86	0	4
NMTAP	86	96	4
NMTAP	86	192	5
NMTAP	86	288	5
NMTAP	87	0	6
NMTAP	87	96	6
NMTAP	87	192	6
NMTAP	87	192	7
NMTAP	88	0	7
NMTAP	88	96	7
NMTAP	88	192	6
NMTAP	88	288	6
NMTAP	89	0	5
NMTAP	89	96	5
NMTAP	89	192	3
NMTAP	89	192	4
NMTAP	89	288	3
NMTAP	89	288	4
NMTAP	90	0	2
NMTAP	90	96	2
NMTAP	90	192	1
NMTAP	90	288	1
NMTAP	91	0	0
NMTAP	91	0	7
NMTAP	91	96	0
NMTAP	91	96	7
NMHLD	91	192	1	144
NMHLD	91	192	6	144

T_REC_TAP	208
T_REC_BRK	4
T_REC_XTP	10
T_REC_BXX	2
T_REC_HLD	12
T_REC_XHO	0
T_REC_BHO	0
T_REC_BXH	0
T_REC_STR	4
T_REC_BST	0
T_REC_XST	0
T_REC_XBS	0
T_REC_TTP	6
T_REC_THO	1
T_REC_SLD	4
T_REC_BSL	0
T_REC_ALL	251
T_NUM_TAP	228
T_NUM_BRK	6
T_NUM_HLD	13
T_NUM_SLD	4
T_NUM_ALL	251
T_JUDGE_TAP	234
T_JUDGE_HLD	54
T_JUDGE_SLD	4
T_JUDGE_ALL	292
TTM_EACHPAIRS	48
TTM_SCR_TAP	114000
TTM_SCR_BRK	15600
TTM_SCR_HLD	13000
TTM_SCR_SLD	6000
TTM_SCR_ALL	148600
TTM_SCR_S	143600
TTM_SCR_SS	148000
TTM_RAT_ACV	10040

