VERSION	0.00.00	1.04.00
FES_MODE	0
BPM_DEF	252.000	252.000	252.000	189.000
MET_DEF	4	4
RESOLUTION	384
CLK_DEF	384
COMPATIBLE_CODE	MA2

BPM	0	0	252.000
BPM	114	0	189.000
BPM	124	192	252.000
MET	0	0	4	4
MET	6	0	4	6
MET	12	0	4	4
MET	114	0	4	5
MET	121	192	4	6
MET	124	192	4	4
MET	126	192	4	6
MET	132	192	4	4

NMTAP	2	192	0
NMTAP	2	192	7
NMTAP	2	256	1
NMTAP	2	288	0
NMTAP	2	352	2
NMTAP	2	352	3
NMTAP	3	64	3
NMTAP	3	64	4
NMTAP	3	160	4
NMTAP	3	160	5
NMTAP	3	256	6
NMSTR	3	288	7
NMSCR	3	288	7	96	672	5
EXTAP	4	0	5
NMTAP	4	192	5
NMTAP	5	0	6
NMTAP	5	192	6
NMTAP	6	0	7
NMTAP	6	64	0
NMTAP	6	128	7
NMTAP	6	192	1
NMTAP	6	256	3
NMTAP	6	320	2
NMTAP	7	0	6
NMTAP	7	64	4
NMTAP	7	128	5
NMHLD	7	192	3	128
NMHLD	7	320	2	128
NMHLD	8	64	1	128
NMTTP	8	192	1	E	0	M1
NMTTP	8	224	0	E	0	M1
NMTTP	8	256	7	E	0	M1
NMTTP	8	288	6	E	0	M1
NMTTP	8	320	5	E	0	M1
NMTTP	8	352	4	E	0	M1
NMHLD	9	0	1	128
NMHLD	9	128	3	128
NMHLD	9	256	4	128
NMTAP	10	0	6
NMTTP	10	192	4	E	0	M1
NMHLD	10	192	5	96
NMTTP	10	224	3	E	0	M1
NMTTP	10	256	2	E	0	M1
NMTTP	10	288	1	E	0	M1
NMTTP	11	0	3	A	0	M1
NMHLD	11	0	6	96
NMTTP	11	32	2	A	0	M1
NMTTP	11	64	1	A	0	M1
NMTTP	11	96	0	A	0	M1
NMTAP	11	192	7
NMTAP	11	256	6
NMTAP	11	320	5
NMTTP	12	0	1	B	0	M1
NMTTP	12	0	2	E	0	M1
NMTAP	12	0	4
NMTAP	12	128	2
NMTTP	12	128	5	B	0	M1
NMTTP	12	128	6	E	0	M1
NMTTP	12	256	3	B	0	M1
NMTTP	12	256	4	E	0	M1
NMTAP	12	256	6
EXTAP	13	0	0
NMTAP	13	64	0
NMTAP	13	96	6
NMTAP	13	160	6
NMTAP	13	192	2
NMTAP	13	256	2
NMTAP	13	288	4
NMSTR	13	352	4
NMSXL	13	352	4	96	224	3
NMTTP	14	96	1	E	1	M1
NMTAP	14	288	1
NMTAP	14	352	1
NMTAP	15	0	3
NMTAP	15	64	3
NMTAP	15	96	2
NMTAP	15	160	4
NMTAP	15	160	5
NMTAP	15	256	6
NMTAP	15	288	7
NMHLD	15	352	0	128
NMTAP	15	352	5
NMTAP	16	96	7
NMTAP	16	192	2
NMTAP	16	192	3
NMTAP	16	288	1
NMTAP	16	288	4
NMTAP	17	0	6
NMTAP	17	0	7
NMTAP	17	64	6
NMTAP	17	64	7
BRTAP	17	160	1
BRTAP	17	160	5
NMTAP	17	256	2
NMTAP	17	288	3
EXTAP	18	0	1
NMTAP	18	0	4
NMTAP	18	64	4
NMTAP	18	96	3
NMTAP	18	160	3
NMTAP	18	192	6
NMTAP	18	256	6
NMTAP	18	288	2
NMTAP	18	352	2
NMTAP	19	0	4
NMTAP	19	64	4
NMTAP	19	96	3
NMTAP	19	160	3
NMTAP	19	192	6
NMTAP	19	256	6
NMTAP	19	288	0
NMTAP	19	352	0
NMTAP	20	0	7
NMTAP	20	64	7
NMTAP	20	96	1
NMTAP	20	160	1
NMTAP	20	192	3
NMTAP	20	256	3
NMTAP	20	288	2
NMTAP	20	352	2
NMTAP	21	0	5
NMTAP	21	64	5
NMTAP	21	96	4
NMTAP	21	160	4
NMTAP	21	192	6
NMTAP	21	256	6
NMTAP	21	288	3
NMTAP	21	352	3
NMHLD	22	0	5	96
NMHLD	22	96	7	96
NMHLD	22	192	0	96
NMHLD	22	288	2	96
NMTAP	23	0	3
NMTAP	23	96	2
NMTAP	23	128	4
NMTAP	23	160	3
NMTAP	23	192	5
EXTAP	23	256	4
NMTAP	23	256	5
NMTAP	23	352	3
EXSTR	23	352	7
NMSI_	23	352	7	96	64	3
EXHLD	24	96	1	96
NMTAP	24	192	4
NMTAP	24	256	4
NMTAP	24	288	2
NMTAP	24	352	2
NMTAP	25	0	6
NMTAP	25	64	6
NMTAP	25	96	0
BRTAP	25	160	1
BRTAP	25	160	7
NMTAP	25	256	5
NMTAP	25	288	4
NMTAP	25	288	5
NMSTR	26	0	1
NMSI_	26	0	1	96	64	3
NMTAP	26	96	7
NMSTR	26	192	6
NMSI_	26	192	6	96	64	4
NMTAP	26	288	0
NMSTR	27	0	1
NMSI_	27	0	1	96	64	4
NMTAP	27	96	7
NMSTR	27	192	6
NMSI_	27	192	6	96	64	3
NMTAP	27	288	0
NMSTR	28	0	1
NMSI_	28	0	1	96	64	5
NMTAP	28	96	7
NMSTR	28	192	6
NMSCL	28	192	6	96	96	3
NMSTR	28	288	3
NMSCL	28	288	3	96	96	0
NMSTR	29	0	0
NMSCL	29	0	0	96	96	5
NMSTR	29	96	5
NMSCL	29	96	5	96	96	2
NMTAP	29	192	2
NMTAP	29	288	0
EXTAP	30	0	3
EXTAP	30	0	4
EXTAP	30	64	3
EXTAP	30	64	4
EXTAP	30	96	5
NMTAP	30	128	6
NMTAP	30	160	7
EXTAP	30	192	0
NMTAP	30	224	1
NMTAP	30	256	2
EXTAP	30	288	3
EXTAP	30	288	4
EXTAP	30	352	3
EXTAP	30	352	4
EXTAP	31	0	2
NMTAP	31	32	1
NMTAP	31	64	0
EXTAP	31	96	7
NMTAP	31	128	6
NMTAP	31	160	5
NMTTP	31	192	4	E	0	M1
NMTTP	32	0	0	C	1	M1
NMTTP	32	0	1	B	0	M1
NMTTP	32	0	2	E	0	M1
NMTTP	32	0	5	B	0	M1
NMTTP	32	0	6	E	0	M1
NMTAP	33	0	0
NMTAP	33	0	7
NMTAP	33	192	1
NMTAP	33	192	6
NMHLD	34	0	2	64
NMTAP	34	64	4
NMTAP	34	128	3
NMTAP	34	192	5
NMTAP	34	256	4
NMTAP	34	320	6
NMSTR	35	0	5
NMSCR	35	0	5	96	256	3
NMTAP	35	192	4
NMHLD	36	0	5	64
NMTAP	36	64	3
NMTAP	36	128	4
NMTAP	36	192	2
NMTAP	36	256	3
NMTAP	36	320	1
NMSTR	37	0	2
NMSCL	37	0	2	96	256	4
NMTAP	37	192	3
NMHLD	38	0	1	64
NMTAP	38	64	3
NMTAP	38	128	2
NMHLD	38	192	4	64
NMTAP	38	256	3
NMTAP	38	320	5
NMHLD	39	0	2	64
NMTAP	39	64	4
NMTAP	39	128	3
NMHLD	39	192	5	64
NMTAP	39	256	4
NMTAP	39	320	6
NMHLD	40	0	3	64
NMTAP	40	64	5
NMTAP	40	128	4
NMTAP	40	192	6
NMTAP	40	256	5
NMTAP	40	320	7
NMSTR	41	0	4
NMSCR	41	0	4	96	256	3
NMTTP	42	0	6	E	0	M1
NMTAP	42	128	1
NMTAP	42	192	3
NMTAP	42	256	2
NMTAP	42	320	2
NMTTP	43	0	4	B	0	M1
NMTAP	43	64	3
NMTAP	43	128	3
NMSTR	43	192	5
NMSCL	43	192	5	96	64	3
NMTTP	44	0	2	E	0	M1
NMTAP	44	128	6
NMTAP	44	192	4
NMTAP	44	256	5
NMTAP	44	320	5
NMTTP	45	0	3	B	0	M1
NMTAP	45	64	4
NMTAP	45	128	4
NMSTR	45	192	2
NMSCR	45	192	2	96	64	4
NMHLD	46	0	6	96
NMTAP	46	96	7
NMTAP	46	160	0
NMTAP	46	160	6
NMTAP	46	256	3
NMTAP	46	256	4
NMTAP	46	352	1
NMTAP	46	352	7
NMTAP	47	64	5
NMTAP	47	96	4
NMTAP	47	160	2
NMTAP	47	192	3
NMTAP	47	256	1
NMTAP	47	256	4
NMTAP	47	320	1
NMTAP	47	320	4
BXTAP	48	0	0
BRSTR	48	0	6
NMSUL	48	0	6	96	384	3
NMSTR	49	192	2
NMSCL	49	192	2	96	192	4
NMTTP	49	288	0	C	1	M1
EXTAP	50	96	7
NMSTR	50	192	6
NMSI_	50	192	6	96	64	3
NMTAP	50	256	0
EXTAP	50	288	6
NMSTR	51	0	1
NMSI_	51	0	1	96	64	4
NMTAP	51	64	7
EXTAP	51	96	1
NMSTR	51	192	6
NMSCL	51	192	6	96	64	3
NMTAP	51	256	0
EXTAP	51	288	6
NMSTR	52	0	1
NMSCR	52	0	1	96	64	4
NMTAP	52	64	7
EXTAP	52	96	1
NMSTR	52	192	6
NMSI_	52	192	6	96	64	2
NMTAP	52	256	0
EXTAP	52	288	6
NMSTR	53	0	1
NMSI_	53	0	1	96	64	5
NMTAP	53	64	7
EXTAP	53	96	1
NMSTR	53	192	6
NMSLL	53	192	6	96	128	0
NMTAP	53	256	0
EXTAP	53	288	6
NMHLD	54	0	1	96
NMTAP	54	96	7
NMSTR	54	160	2
NMSV_	54	160	2	96	64	7
NMTAP	54	160	6
NMTAP	54	256	2
NMSTR	54	256	4
NMSCL	54	256	4	96	192	5
EXHLD	54	352	0	128
NMTAP	54	352	4
NMTAP	55	192	0
NMTAP	55	288	1
NMTAP	55	288	7
NMTAP	56	0	3
NMTAP	56	0	4
NMTAP	56	96	6
NMTAP	56	128	4
NMTAP	56	160	5
NMTAP	56	192	3
NMTAP	56	256	3
NMTAP	56	288	7
NMTAP	56	352	7
NMTAP	57	0	1
NMTAP	57	64	1
NMTAP	57	96	5
NMTAP	57	160	5
NMTAP	57	192	7
NMTAP	57	256	7
EXSTR	57	288	0
NMSCR	57	288	0	96	96	3
EXTAP	57	288	6
NMSTR	58	0	3
NMSCR	58	0	3	96	96	6
NMSTR	58	96	6
NMSCR	58	96	6	96	96	1
NMSTR	58	192	1
NMSCR	58	192	1	96	64	3
NMTAP	58	288	6
EXSTR	58	352	6
NMSI_	58	352	6	96	64	2
EXSTR	59	96	2
NMSI_	59	96	2	96	64	7
EXSTR	59	192	7
NMSI_	59	192	7	96	64	3
EXSTR	59	288	1
NMSUR	59	288	1	96	64	5
EXTAP	60	0	1
NMTAP	60	96	7
EXTAP	60	192	0
EXTAP	60	192	6
NMSTR	60	288	4
NMSI_	60	288	4	96	64	6
NMTAP	60	352	3
EXTAP	61	0	4
NMSTR	61	96	1
NMSI_	61	96	1	96	64	3
NMTAP	61	160	0
EXTAP	61	192	1
NMTAP	61	288	5
NMTAP	61	288	6
NMHLD	62	0	4	96
NMTAP	62	96	5
NMTAP	62	160	3
NMTAP	62	160	6
NMTAP	62	256	1
NMSTR	62	288	0
NMSCR	62	288	0	96	64	3
NMTAP	62	352	6
NMSTR	63	0	0
NMSCL	63	0	0	96	64	5
NMTAP	63	96	0
NMTAP	63	192	2
NMTAP	63	224	2
EXHLD	63	256	4	224
BRHLD	63	288	0	192
NMTAP	64	160	1
NMTAP	64	192	7
NMTAP	64	256	7
NMTAP	64	288	0
NMSTR	64	352	1
NMSI_	64	352	1	96	64	5
NMTAP	64	352	6
EXTAP	65	96	7
NMTAP	65	192	4
NMSTR	65	192	6
NMSCR	65	192	6	96	192	4
NMTTP	65	288	0	C	1	M1
EXTAP	66	96	0
NMSTR	66	192	1
NMSI_	66	192	1	96	64	4
NMTAP	66	256	7
EXTAP	66	288	1
NMSTR	67	0	6
NMSI_	67	0	6	96	64	3
NMTAP	67	64	0
EXTAP	67	96	6
NMSTR	67	192	2
NMSCL	67	192	2	96	64	7
NMTAP	67	256	4
EXTAP	67	288	2
NMSTR	68	0	5
NMSCR	68	0	5	96	64	0
NMTAP	68	64	3
EXTAP	68	96	5
NMSTR	68	192	1
NMSI_	68	192	1	96	64	5
NMTAP	68	256	0
EXTAP	68	288	1
EXHLD	68	352	7	96
NMTAP	69	64	1
NMTAP	69	96	2
NMTAP	69	128	3
NMSTR	69	160	4
NMSF_	69	160	4	96	64	0
NMTAP	69	192	5
EXTAP	69	256	4
NMTAP	70	0	2
NMHLD	70	0	6	96
NMTAP	70	96	4
NMTAP	70	160	3
NMTAP	70	160	5
NMSTR	70	256	1
NMSI_	70	256	1	96	64	3
NMTAP	70	288	0
EXTAP	70	352	1
NMTAP	70	352	7
NMSTR	71	64	6
NMSI_	71	64	6	96	64	4
NMTAP	71	96	7
NMTAP	71	160	0
EXTAP	71	160	6
NMSTR	71	256	0
NMSI_	71	256	0	96	64	4
NMTAP	71	288	7
EXTAP	71	352	0
NMTAP	72	64	6
NMTAP	72	96	2
NMHLD	72	160	0	96
NMTAP	72	160	4
NMTAP	72	256	6
NMTAP	72	288	5
NMTAP	72	320	4
NMTAP	72	352	3
NMTAP	73	0	1
NMTAP	73	64	1
NMTAP	73	96	3
NMTAP	73	160	3
NMTAP	73	192	5
NMTAP	73	256	5
NMTAP	73	288	7
NMTAP	73	352	7
EXSTR	74	0	0
NMSCR	74	0	0	96	64	3
EXTAP	74	0	6
NMSTR	74	96	5
NMSI_	74	96	5	96	64	0
NMSTR	74	192	1
NMSI_	74	192	1	96	64	4
NMSTR	74	288	7
NMSCL	74	288	7	96	64	4
EXSTR	75	0	2
NMSI_	75	0	2	96	64	5
NMSTR	75	96	6
NMSI_	75	96	6	96	64	1
NMSTR	75	192	3
NMSI_	75	192	3	96	64	7
NMTAP	75	288	4
EXHLD	76	0	1	64
NMTTP	76	96	0	B	0	M1
NMTTP	76	96	0	E	0	M1
EXHLD	76	192	6	64
NMTTP	76	288	4	B	0	M1
NMTTP	76	288	4	E	0	M1
EXHLD	77	0	3	64
NMTTP	77	96	1	B	0	M1
NMTTP	77	96	2	E	0	M1
EXHLD	77	192	4	64
NMTTP	77	288	5	B	0	M1
NMTTP	77	288	6	E	0	M1
NMHLD	78	0	2	96
NMTAP	78	96	3
NMTAP	78	160	1
NMTAP	78	160	4
NMTAP	78	256	6
NMSTR	78	288	7
NMSCL	78	288	7	96	64	4
NMTAP	78	352	1
NMSTR	79	0	7
NMSCR	79	0	7	96	64	2
NMTAP	79	96	7
NMTAP	79	192	5
NMTAP	79	224	5
NMTAP	79	256	3
BRHLD	79	288	7	288
NMTTP	80	96	2	A	0	M1
NMTTP	80	128	3	A	0	M1
NMTTP	80	160	4	A	0	M1
NMTTP	80	192	5	A	0	M1
NMTAP	81	0	6
NMTAP	81	96	5
NMTAP	81	192	4
NMTAP	81	288	3
NMHLD	82	0	2	576
NMTTP	83	0	4	E	0	M1
NMHLD	83	192	4	192
NMHLD	84	0	3	576
NMTTP	85	0	4	E	0	M1
NMHLD	85	192	5	192
NMHLD	86	0	3	192
NMHLD	86	192	4	192
NMHLD	87	0	2	384
NMTTP	87	192	4	E	0	M1
NMHLD	88	0	3	384
NMHLD	89	0	4	384
NMTAP	90	0	6
NMTAP	90	64	4
NMTAP	90	96	6
NMTAP	90	192	3
NMTAP	90	192	6
NMTAP	90	256	4
NMTAP	90	288	6
NMTAP	91	0	3
NMTAP	91	0	5
NMTAP	91	64	4
NMTAP	91	96	5
NMTAP	91	192	3
NMTAP	91	192	5
NMTAP	91	256	4
NMHLD	91	288	5	96
NMTAP	92	0	3
NMTAP	92	64	4
NMTAP	92	96	3
NMTAP	92	192	3
NMTAP	92	192	4
NMTAP	92	256	5
NMHLD	92	288	3	192
NMTAP	93	0	4
NMTAP	93	96	4
NMTAP	93	192	3
NMTAP	93	192	4
NMTAP	93	256	2
NMTAP	93	288	4
NMTAP	94	0	2
NMHLD	94	0	4	96
NMTAP	94	96	2
NMTAP	94	192	2
NMTAP	94	192	3
NMTAP	94	256	4
NMTAP	94	288	2
NMTAP	95	0	1
NMTAP	95	0	4
NMTAP	95	64	3
NMTAP	95	96	1
NMTAP	95	192	1
NMHLD	95	192	3	64
NMSTR	95	288	1
NMSXR	95	288	1	96	576	6
NMHLD	96	0	4	384
NMTAP	98	0	4
NMTAP	98	0	5
NMTAP	99	0	3
NMTAP	99	0	4
NMTAP	99	288	2
NMTAP	99	288	3
NMHLD	100	192	1	192
NMHLD	101	0	3	192
NMHLD	101	192	4	192
NMHLD	102	0	6	384
NMTTP	102	192	5	B	0	M1
NMHLD	103	0	1	384
NMTTP	103	192	2	B	0	M1
NMHLD	104	0	4	384
NMTTP	104	192	4	E	0	M1
NMTAP	105	0	1
NMTAP	105	64	2
NMTAP	105	128	3
NMTAP	105	192	6
NMTAP	105	256	5
NMTAP	105	320	4
NMTAP	106	0	3
NMTTP	106	0	6	E	0	M1
NMTAP	106	192	3
NMTTP	106	192	6	B	0	M1
NMTTP	106	192	6	E	0	M1
NMTAP	107	0	3
NMTTP	107	0	7	B	0	M1
NMTTP	107	0	7	E	0	M1
NMTAP	107	192	3
NMTTP	107	192	7	B	0	M1
NMTTP	107	192	7	E	0	M1
NMTTP	107	192	7	A	0	M1
NMTTP	108	0	0	B	0	M1
NMTTP	108	0	0	A	0	M1
NMTTP	108	0	1	E	0	M1
NMTAP	108	0	4
NMTTP	108	192	0	B	0	M1
NMTTP	108	192	1	E	0	M1
NMTAP	108	192	4
NMTTP	109	0	1	B	0	M1
NMTTP	109	0	2	E	0	M1
NMTAP	109	0	4
NMTTP	109	192	2	E	0	M1
NMTAP	109	192	4
NMSTR	110	0	3
NMSXR	110	0	3	96	384	0
NMSTR	110	0	4
NMSXL	110	0	4	96	384	7
NMSTR	111	192	1
NMSI_	111	192	1	96	32	5
NMSTR	111	192	6
NMSI_	111	192	6	96	32	2
NMTTP	111	288	0	C	1	M1
NMTAP	113	0	6
NMTAP	113	0	7
NMTAP	113	128	0
NMTAP	113	128	1
NMTAP	113	256	2
NMTAP	113	256	6
NMTAP	113	320	3
NMTAP	113	320	5
BRSTR	114	0	4
NMSI_	114	0	4	96	48	6
NMSTR	114	96	2
NMSI_	114	96	2	96	48	4
NMTAP	114	192	7
NMTAP	114	240	6
NMTAP	114	288	4
NMTAP	114	336	5
NMSTR	115	0	6
NMSLL	115	0	6	96	72	2
NMTAP	115	48	0
NMTAP	115	96	6
NMTAP	115	192	1
NMTAP	115	288	1
NMTAP	115	312	7
NMTAP	115	336	1
NMTAP	115	360	7
NMSTR	116	0	0
NMSV_	116	0	0	96	48	3
NMSV_	116	0	0	96	48	5
NMTAP	116	96	0
NMHLD	116	192	6	96
NMTAP	116	240	4
NMHLD	116	288	3	96
NMTAP	116	336	4
NMTAP	117	0	5
NMTAP	117	48	5
NMTAP	117	72	4
NMTAP	117	96	6
NMTAP	117	144	3
NMTAP	117	192	2
NMTAP	117	192	4
NMTAP	117	240	1
NMTAP	117	288	0
NMTAP	117	288	7
NMTTP	117	336	6	E	0	M1
NMTTP	118	0	5	E	0	M1
NMTTP	118	48	0	C	0	M1
NMTTP	118	96	3	E	0	M1
NMTTP	118	144	2	E	0	M1
NMTTP	118	192	5	A	0	M1
NMTTP	118	240	4	A	0	M1
NMTTP	118	288	3	A	0	M1
NMTTP	118	336	2	A	0	M1
NMHLD	119	0	5	96
NMTAP	119	48	4
NMTAP	119	96	3
NMHLD	119	144	1	96
NMTAP	119	192	4
NMTAP	119	240	5
NMHLD	119	288	7	96
NMTAP	119	336	4
NMTAP	120	0	3
NMTAP	120	48	1
NMTAP	120	96	2
NMSTR	120	96	6
NMSI_	120	96	6	96	48	2
NMSTR	120	192	0
NMSCR	120	192	0	96	48	3
NMTAP	120	192	6
NMTAP	120	288	0
NMSTR	120	288	7
NMSCL	120	288	7	96	48	4
NMSTR	121	0	1
NMSI_	121	0	1	96	48	5
NMTAP	121	0	7
NMTAP	121	96	1
NMTAP	121	96	7
BRHLD	121	192	0	384
BRHLD	121	192	6	288
BRTAP	122	288	4
BRTAP	122	288	5
BRTAP	122	336	3
BRTAP	122	336	7
NMTTP	123	48	2	A	0	M1
NMTTP	123	96	0	C	0	M1
NMTTP	123	144	6	A	0	M1
NMHLD	123	288	1	96
NMHLD	123	288	7	96
NMHLD	124	48	2	96
NMHLD	124	48	6	96
NMTAP	124	192	3
NMTAP	124	192	5
NMTAP	124	288	4
NMTAP	125	0	1
NMTAP	125	0	3
NMTAP	125	96	2
NMTAP	125	192	3
NMTAP	125	192	4
NMTAP	125	288	5
NMTAP	125	320	4
NMTAP	125	352	6
NMTAP	126	0	4
NMTAP	126	96	2
NMTAP	126	128	3
NMTAP	126	160	1
NMTAP	126	192	3
NMTAP	126	256	4
NMTAP	126	320	5
NMTAP	127	0	3
NMTAP	127	64	2
NMTAP	127	128	1
NMTAP	127	192	5
NMTAP	127	256	6
NMTAP	127	320	7
NMHLD	128	0	7	384
NMTAP	128	128	2
NMTAP	128	256	4
NMTAP	129	0	6
NMTAP	129	32	5
NMTAP	129	64	4
NMTAP	129	96	3
NMTAP	129	128	2
NMTAP	129	160	1
NMHLD	129	192	0	384
NMTAP	129	192	6
NMTAP	129	320	4
NMSTR	130	64	2
NMSCL	130	64	2	96	160	4
NMHLD	131	0	2	96
NMTTP	131	0	4	E	0	M1
NMTTP	131	32	5	E	0	M1
NMTTP	131	64	6	E	0	M1
NMTTP	131	96	7	E	0	M1
NMHLD	131	192	1	96
NMTTP	131	192	4	A	0	M1
NMTTP	131	224	5	A	0	M1
NMTTP	131	256	6	A	0	M1
NMTTP	131	288	7	A	0	M1
NMTAP	132	0	0
NMTAP	132	64	1
NMTAP	132	128	2
EXTAP	132	192	3
BXTAP	132	192	6
NMTAP	132	224	5
NMTAP	132	256	4
NMTAP	132	288	3
BXTAP	132	320	0
NMTAP	132	352	7
NMTAP	133	0	6
NMTAP	133	32	5
BXTAP	133	64	2
NMTAP	133	96	1
NMTAP	133	128	0
NMTAP	133	160	7
BRTAP	133	192	2
BRTAP	133	192	6
NMSTR	134	192	4
NMSF_	134	192	4	96	64	0
NMTTP	134	288	0	C	1	M1
NMTAP	135	96	2
NMTAP	135	96	6
NMTAP	135	160	6
NMTAP	135	192	0
NMTAP	135	256	0
NMTAP	135	288	7
NMSTR	135	352	1
NMSCR	135	352	1	96	96	4
NMTAP	135	352	6
NMSTR	136	64	4
NMSCR	136	64	4	96	96	7
NMSTR	136	160	7
NMSCR	136	160	7	96	96	2
NMTAP	136	288	2
NMTAP	137	0	4
NMTAP	137	96	6
NMTAP	137	96	7
NMTAP	137	192	1
NMTAP	137	192	2
NMTAP	137	288	4
NMTAP	137	288	5
NMSTR	138	0	2
NMSI_	138	0	2	96	64	7
NMSTR	138	0	6
NMSI_	138	0	6	96	64	3
BRTAP	138	96	2
BRTAP	138	96	6
NMSTR	138	288	0
NMSCR	138	288	0	96	64	3
NMTAP	138	288	3
NMTAP	139	0	0
NMSTR	139	0	7
NMSCL	139	0	7	96	64	4
NMTAP	139	96	4
NMTAP	139	96	7
EXTAP	139	192	1
NMTAP	139	224	3
NMTAP	139	256	2
EXTAP	139	288	6
NMTAP	139	320	4
NMTAP	139	352	5
EXTAP	140	0	0
NMTAP	140	32	2
NMTAP	140	64	1
EXTAP	140	96	7
NMTAP	140	128	5
NMHLD	140	160	6	224
NMSTR	141	0	7
NMSUR	141	0	7	96	1344	0
NMTAP	141	32	0
NMTAP	141	64	1
NMTAP	141	96	2

T_REC_TAP	450
T_REC_BRK	12
T_REC_XTP	47
T_REC_BXX	4
T_REC_HLD	60
T_REC_XHO	8
T_REC_BHO	4
T_REC_BXH	0
T_REC_STR	73
T_REC_BST	2
T_REC_XST	8
T_REC_XBS	0
T_REC_TTP	89
T_REC_THO	0
T_REC_SLD	84
T_REC_BSL	0
T_REC_ALL	841
T_NUM_TAP	667
T_NUM_BRK	22
T_NUM_HLD	68
T_NUM_SLD	84
T_NUM_ALL	841
T_JUDGE_TAP	685
T_JUDGE_HLD	153
T_JUDGE_SLD	84
T_JUDGE_ALL	922
TTM_EACHPAIRS	92
TTM_SCR_TAP	333500
TTM_SCR_BRK	57200
TTM_SCR_HLD	68000
TTM_SCR_SLD	126000
TTM_SCR_ALL	584700
TTM_SCR_S	565050
TTM_SCR_SS	582500
TTM_RAT_ACV	10037

