VERSION	0.00.00	1.04.00
FES_MODE	0
BPM_DEF	252.000	252.000	252.000	189.000
MET_DEF	4	4
RESOLUTION	384
CLK_DEF	384
COMPATIBLE_CODE	MA2

BPM	0	0	252.000
BPM	114	0	189.000
BPM	124	192	252.000
MET	0	0	4	4
MET	6	0	4	6
MET	12	0	4	4
MET	114	0	4	5
MET	121	192	4	6
MET	124	192	4	4
MET	126	192	4	6
MET	132	192	4	4

EXSTR	2	192	1
NMSUR	2	192	1	96	384	4
NMTAP	4	0	5
NMTAP	4	192	4
NMTAP	4	192	6
NMTAP	5	0	2
NMTAP	5	192	1
NMTAP	5	192	3
NMHLD	6	0	1	192
NMHLD	6	192	3	192
NMHLD	7	0	4	192
NMHLD	7	192	6	192
NMTAP	8	0	0
EXTAP	8	192	1
EXTAP	8	192	7
NMSTR	9	0	0
NMSCR	9	0	0	96	288	4
EXTAP	10	0	6
NMTTP	10	192	5	B	0	M1
NMTTP	10	192	5	E	0	M1
NMTTP	10	192	6	E	0	M1
NMTTP	11	0	2	B	0	M1
NMTTP	11	0	2	E	0	M1
NMTTP	11	0	3	E	0	M1
NMTTP	11	192	4	E	0	M1
EXTAP	12	0	4
EXTAP	12	0	6
EXTAP	12	128	0
EXTAP	12	128	7
EXTAP	12	256	1
EXTAP	12	256	3
EXSTR	13	0	4
NMSUL	13	0	4	96	288	3
NMHLD	14	96	2	192
NMTAP	14	288	3
NMTAP	15	0	1
NMTAP	15	0	4
NMTAP	15	96	1
NMTAP	15	96	4
NMTAP	15	192	3
NMTAP	15	192	6
NMSTR	15	288	3
NMSCL	15	288	3	96	192	0
NMTAP	15	288	6
NMTAP	17	0	0
NMTAP	17	0	7
NMTAP	17	96	0
NMTAP	17	96	7
NMTAP	17	192	1
NMTAP	17	192	6
NMTAP	18	0	5
NMTAP	18	96	4
NMTAP	18	192	2
NMTAP	18	288	3
NMTAP	19	0	4
NMTAP	19	96	5
NMTAP	19	192	6
NMTAP	19	288	7
NMTAP	20	0	0
NMTAP	20	96	1
NMTAP	20	192	2
NMTAP	20	288	3
NMTAP	21	0	5
NMTAP	21	96	4
NMTAP	21	96	5
NMTAP	21	192	2
NMTAP	21	288	2
NMTAP	21	288	3
NMTAP	22	0	4
NMTAP	22	96	6
NMTAP	22	192	0
NMTAP	22	288	2
NMTAP	23	0	4
NMTAP	23	96	5
NMTAP	23	192	4
NMTAP	23	192	6
NMTAP	23	256	4
NMTAP	23	256	6
EXTAP	23	352	3
EXTAP	23	352	7
EXTAP	24	96	3
EXTAP	24	96	7
NMTTP	24	192	3	E	0	M1
NMTTP	24	288	2	E	0	M1
NMTTP	25	0	1	E	0	M1
NMTTP	25	96	7	E	0	M1
NMTTP	25	192	6	E	0	M1
NMTTP	25	288	5	E	0	M1
NMTAP	26	0	1
NMTAP	26	0	3
NMTAP	26	96	2
NMTAP	26	192	4
NMTAP	26	192	6
NMTAP	26	288	5
NMTAP	27	0	1
NMTAP	27	0	3
NMTAP	27	96	2
NMTAP	27	192	3
NMTAP	27	192	4
NMTAP	27	288	5
NMTAP	28	0	6
NMTAP	28	0	7
NMTAP	28	96	0
NMTAP	28	192	0
NMTAP	28	192	1
NMTAP	28	288	2
NMTAP	29	0	1
NMTAP	29	0	3
NMTAP	29	96	1
NMTAP	29	96	3
NMTAP	29	192	4
NMTAP	29	192	6
NMTAP	29	288	4
NMTAP	29	288	6
NMTAP	30	0	6
NMTAP	30	0	7
NMHLD	30	64	6	128
NMHLD	30	64	7	128
NMTAP	30	288	0
NMTAP	30	288	1
NMHLD	30	352	0	128
NMHLD	30	352	1	128
BRTAP	31	192	7
NMSTR	32	0	6
NMSCL	32	0	6	96	192	3
NMSTR	33	0	1
NMSCR	33	0	1	96	192	4
NMHLD	34	0	6	384
NMHLD	35	0	4	384
NMHLD	36	0	2	384
NMHLD	37	0	0	384
NMHLD	38	0	6	384
NMHLD	39	0	4	384
NMTAP	40	0	2
NMTAP	40	192	1
NMTAP	41	0	0
NMHLD	42	0	1	384
NMHLD	43	0	3	384
NMHLD	44	0	5	384
NMHLD	45	0	7	384
NMTAP	46	0	1
NMTAP	46	96	1
NMTAP	46	160	3
NMTAP	46	256	3
NMTAP	46	352	3
NMTAP	46	352	4
NMSTR	47	64	3
NMSCL	47	64	3	96	128	0
NMSTR	47	64	4
NMSCR	47	64	4	96	128	7
EXTAP	48	0	1
EXTAP	48	0	6
NMTAP	49	0	2
NMTAP	49	0	5
NMTAP	49	192	0
NMTAP	49	192	7
BRTAP	49	288	0
BRTAP	49	288	7
NMTAP	50	96	4
NMTAP	50	96	5
NMTAP	50	192	1
NMTAP	50	288	2
NMTAP	50	288	3
NMTAP	51	0	4
NMTAP	51	96	4
NMTAP	51	96	5
NMTAP	51	192	6
NMTAP	51	192	7
BRTAP	51	288	0
BRTAP	51	288	5
NMTAP	52	96	1
NMTAP	52	96	7
NMSTR	52	192	1
NMSI_	52	192	1	96	128	5
NMTAP	52	192	7
CNSI_	53	32	5	0	96	3
CNSI_	53	128	3	0	160	0
NMTAP	54	0	7
NMTAP	54	96	4
NMTAP	54	96	6
NMTAP	54	192	3
NMTAP	54	288	2
NMTAP	54	288	4
NMTAP	55	0	1
NMTAP	55	96	0
NMTAP	55	96	7
NMTAP	55	192	6
NMTAP	55	288	4
NMTAP	55	288	5
NMHLD	56	0	3	672
NMTTP	56	96	4	E	0	M1
NMTTP	56	192	3	E	0	M1
NMTTP	56	288	2	E	0	M1
NMTTP	57	0	1	E	0	M1
NMTTP	57	96	0	E	0	M1
NMTTP	57	192	7	E	0	M1
NMTTP	57	288	6	E	0	M1
NMTAP	58	0	1
NMTAP	58	96	2
NMTAP	58	96	3
NMTAP	58	192	6
NMTAP	58	288	4
NMTAP	58	288	5
NMTAP	59	0	3
NMTAP	59	96	2
NMTAP	59	96	3
NMTAP	59	192	0
NMTAP	59	192	1
NMSTR	59	288	6
NMSUR	59	288	6	96	192	3
NMSTR	59	288	7
NMSCR	59	288	7	96	192	2
EXTAP	60	288	1
EXTAP	60	288	4
EXTAP	60	352	1
EXTAP	60	352	4
NMTAP	61	96	2
NMTAP	61	96	3
NMTAP	61	192	5
NMTAP	61	288	4
NMTAP	61	288	5
NMHLD	62	0	6	96
NMHLD	62	96	4	96
NMHLD	62	192	3	96
NMHLD	62	288	1	96
NMHLD	63	0	0	96
NMHLD	63	96	7	96
NMTAP	63	192	6
NMTAP	63	288	0
NMTAP	63	288	5
NMTTP	64	96	2	E	0	M1
NMTTP	64	192	1	E	0	M1
NMTTP	64	288	0	E	0	M1
NMTTP	65	0	7	E	0	M1
NMTTP	65	96	6	E	0	M1
NMTTP	65	192	5	E	0	M1
NMTTP	65	288	3	B	0	M1
NMTTP	65	288	4	B	0	M1
NMTTP	65	288	4	E	1	M1
NMTAP	66	96	2
NMTAP	66	96	3
NMTAP	66	192	6
NMTAP	66	288	4
NMTAP	66	288	5
NMTAP	67	0	3
NMTAP	67	96	2
NMTAP	67	96	3
NMTAP	67	192	0
NMTAP	67	192	1
NMTAP	67	288	6
NMTAP	67	288	7
NMTAP	68	0	4
NMTAP	68	0	5
NMTAP	68	96	2
NMTAP	68	96	3
NMTAP	68	192	0
NMTAP	68	192	1
NMTAP	68	288	0
NMTAP	68	288	1
NMTAP	69	0	2
NMSTR	69	0	7
NMSSR	69	0	7	96	192	3
NMTAP	70	0	0
NMTAP	70	96	1
NMTAP	70	96	3
NMTAP	70	192	4
NMTAP	70	288	3
NMTAP	70	288	5
NMTAP	71	0	6
NMTAP	71	96	0
NMTAP	71	96	7
NMTAP	71	192	1
NMTAP	71	288	2
NMTAP	71	288	3
NMHLD	72	0	4	672
NMTTP	72	96	4	E	0	M1
NMTTP	72	192	5	E	0	M1
NMTTP	72	288	6	E	0	M1
NMTTP	73	0	7	E	0	M1
NMTTP	73	96	0	E	0	M1
NMTTP	73	192	1	E	0	M1
NMTTP	73	288	2	E	0	M1
NMTAP	74	0	6
NMTAP	74	96	4
NMTAP	74	96	5
NMTAP	74	192	1
NMTAP	74	288	2
NMTAP	74	288	3
NMTAP	75	0	4
NMTAP	75	96	4
NMTAP	75	96	5
NMTAP	75	192	6
NMTAP	75	192	7
NMSTR	75	288	0
NMSCL	75	288	0	96	192	5
NMSTR	75	288	1
NMSUL	75	288	1	96	192	4
EXTAP	76	288	3
EXTAP	76	288	6
EXTAP	76	352	3
EXTAP	76	352	6
NMTAP	77	96	4
NMTAP	77	96	5
NMTAP	77	192	2
NMTAP	77	288	2
NMTAP	77	288	3
NMHLD	78	0	1	96
NMHLD	78	96	3	96
NMHLD	78	192	4	96
NMHLD	78	288	6	96
NMHLD	79	0	7	96
NMHLD	79	96	0	96
NMTAP	79	192	1
BRHLD	79	288	2	288
BRHLD	79	288	7	288
NMTAP	81	0	6
NMTAP	81	96	5
NMTAP	81	192	4
NMTAP	81	288	3
NMSTR	82	0	2
NMSCR	82	0	2	96	192	5
NMHLD	83	0	6	192
NMTAP	83	192	4
NMSTR	84	0	5
NMSCL	84	0	5	96	192	2
NMHLD	85	0	1	192
NMTAP	85	192	3
NMSTR	86	0	2
NMSCR	86	0	2	96	192	5
NMHLD	87	0	6	192
NMTAP	87	192	4
NMSTR	88	0	5
NMSCL	88	0	5	96	192	2
NMTAP	89	0	1
NMTAP	89	192	2
NMTAP	89	192	3
NMTAP	90	0	1
NMTAP	90	96	1
NMTAP	90	192	4
NMTAP	90	288	4
NMTAP	91	0	2
NMTAP	91	96	2
NMTAP	91	192	3
NMTAP	91	288	1
NMTAP	92	0	6
NMTAP	92	96	6
NMTAP	92	192	3
NMTAP	92	288	3
NMTAP	93	0	5
NMTAP	93	96	5
NMTAP	93	192	4
NMTAP	93	288	6
NMTAP	94	0	1
NMTAP	94	96	1
NMTAP	94	192	4
NMTAP	94	288	4
NMTAP	95	0	2
NMTAP	95	96	2
NMTAP	95	192	3
NMSTR	95	288	1
NMSCR	95	288	1	96	576	0
NMTTP	96	0	0	C	1	M1
NMHLD	98	0	6	384
NMTAP	99	0	4
NMTAP	99	96	4
NMTAP	99	192	3
NMTAP	99	192	5
NMTAP	99	288	3
NMTAP	99	288	5
NMTAP	100	96	6
NMTAP	100	192	7
NMTAP	100	288	0
NMTAP	101	0	1
NMTAP	101	192	2
NMTAP	101	192	3
NMHLD	102	0	1	384
NMTAP	103	0	0
NMTAP	103	192	7
NMHLD	104	0	6	384
NMTAP	105	0	4
NMTAP	105	96	4
NMTAP	105	192	3
NMTAP	105	288	3
NMTAP	106	0	2
NMTAP	106	0	4
NMTAP	106	192	0
NMTAP	106	192	2
NMTAP	107	0	3
NMTAP	107	0	5
NMTAP	107	192	5
NMTAP	107	192	7
NMTAP	108	0	0
NMTAP	108	0	6
NMTAP	108	192	4
NMTAP	108	192	6
NMTAP	109	0	1
NMTAP	109	0	7
NMTAP	109	192	1
NMTAP	109	192	3
NMSTR	110	0	6
NMSXL	110	0	6	96	384	3
EXTAP	111	288	2
EXTAP	111	288	3
EXTAP	112	0	2
EXTAP	112	0	3
EXTAP	112	128	0
EXTAP	112	128	1
EXTAP	112	256	6
EXTAP	112	256	7
EXTAP	113	0	4
EXTAP	113	0	5
EXTAP	113	128	2
EXTAP	113	128	3
EXTAP	113	256	0
EXTAP	113	256	1
NMHLD	114	0	7	192
NMTAP	114	96	5
NMTAP	114	192	5
NMTAP	114	288	4
NMTAP	114	288	5
NMTAP	115	0	2
NMTAP	115	0	3
NMHLD	115	96	0	192
NMTAP	115	192	2
NMTAP	115	288	2
NMTAP	116	0	2
NMTAP	116	0	3
NMTAP	116	96	4
NMTAP	116	96	5
NMHLD	116	192	6	192
NMTAP	116	288	4
NMTAP	117	0	4
NMTAP	117	96	6
NMTAP	117	96	7
NMTAP	117	192	0
NMTAP	117	192	1
NMHLD	117	288	1	192
NMTAP	118	0	3
NMTAP	118	96	3
NMTAP	118	192	0
NMTAP	118	192	1
NMTAP	118	288	6
NMTAP	118	288	7
NMTAP	119	0	5
NMTAP	119	48	5
NMTAP	119	96	3
NMTAP	119	144	3
NMTAP	119	192	4
NMTAP	119	240	4
NMTAP	119	288	2
NMTAP	119	336	2
NMTAP	120	0	3
NMTAP	120	48	3
NMHLD	120	96	1	96
NMTAP	120	192	0
NMSTR	120	288	6
NMSI_	120	288	6	96	96	3
NMSTR	120	288	7
NMSI_	120	288	7	96	96	2
EXHLD	121	192	1	384
EXHLD	121	192	4	384
NMTAP	122	288	3
NMTAP	122	288	6
NMHLD	122	336	3	192
NMHLD	122	336	6	192
NMTAP	123	288	4
NMTAP	123	288	6
NMTAP	124	48	0
NMTAP	124	48	7
NMSTR	124	192	1
NMSCL	124	192	1	96	192	6
NMTAP	124	192	3
NMSTR	125	192	5
NMSCL	125	192	5	96	192	2
NMTAP	126	192	0
NMTAP	126	192	1
NMTAP	126	256	0
NMTAP	126	256	1
NMTAP	127	0	2
NMTAP	127	0	3
NMTAP	127	64	2
NMTAP	127	64	3
NMTAP	127	192	4
NMTAP	127	192	5
NMTAP	127	256	4
NMTAP	127	256	5
NMTAP	128	0	4
NMSTR	128	0	6
NMSCR	128	0	6	96	192	1
EXTAP	129	0	2
NMTAP	129	192	1
NMTAP	129	192	3
NMTAP	129	320	2
NMTAP	129	320	3
NMTAP	130	64	4
NMTAP	130	64	6
NMTAP	130	192	4
NMTAP	130	192	5
NMSTR	131	0	6
NMSI_	131	0	6	96	96	2
NMSTR	131	192	1
NMSI_	131	192	1	96	96	5
EXTAP	132	0	7
EXTAP	132	64	7
NMTAP	132	192	4
NMTAP	132	192	6
NMTAP	132	320	1
NMTAP	132	320	3
NMTAP	133	64	3
NMSTR	133	64	4
NMSXL	133	64	4	96	416	2
NMHLD	134	288	1	192
NMTAP	135	96	0
NMTAP	135	192	2
NMTAP	135	192	3
NMTAP	135	288	4
NMTAP	135	352	4
NMTAP	136	64	3
NMTAP	136	64	5
NMTAP	136	160	3
NMTAP	136	160	5
NMTAP	136	288	6
NMTAP	136	288	7
NMTAP	137	0	6
NMTAP	137	0	7
NMTAP	137	96	4
NMTAP	137	96	5
NMTAP	137	192	2
NMTAP	137	192	3
NMTAP	137	288	0
NMTAP	137	288	1
NMTAP	138	0	0
NMTAP	138	0	1
NMTAP	138	96	2
NMTAP	138	96	7
NMTAP	138	288	4
NMTAP	138	288	6
NMTAP	139	0	1
NMTAP	139	0	3
NMTAP	139	96	4
NMTAP	139	96	6
NMTAP	139	192	1
NMTAP	139	224	3
NMTAP	139	288	6
NMTAP	139	320	4
NMTAP	140	0	1
NMTAP	140	32	3
NMHLD	140	96	0	1632
NMTAP	140	96	4
NMTTP	141	0	5	B	0	M1
NMTTP	141	32	4	B	0	M1
NMTTP	141	64	3	B	0	M1
NMTTP	141	96	3	E	0	M1

T_REC_TAP	357
T_REC_BRK	5
T_REC_XTP	40
T_REC_BXX	0
T_REC_HLD	48
T_REC_XHO	2
T_REC_BHO	2
T_REC_BXH	0
T_REC_STR	26
T_REC_BST	0
T_REC_XST	2
T_REC_XBS	0
T_REC_TTP	41
T_REC_THO	0
T_REC_SLD	28
T_REC_BSL	0
T_REC_ALL	551
T_NUM_TAP	466
T_NUM_BRK	7
T_NUM_HLD	50
T_NUM_SLD	28
T_NUM_ALL	551
T_JUDGE_TAP	471
T_JUDGE_HLD	169
T_JUDGE_SLD	28
T_JUDGE_ALL	668
TTM_EACHPAIRS	146
TTM_SCR_TAP	233000
TTM_SCR_BRK	18200
TTM_SCR_HLD	50000
TTM_SCR_SLD	42000
TTM_SCR_ALL	343200
TTM_SCR_S	332250
TTM_SCR_SS	342500
TTM_RAT_ACV	10020

