VERSION	0.00.00	1.04.00
FES_MODE	0
BPM_DEF	160.000	160.000	160.000	160.000
MET_DEF	4	4
RESOLUTION	384
CLK_DEF	384
COMPATIBLE_CODE	MA2

BPM	0	0	160.000
MET	0	0	4	4

NMTHO	1	0	0	192	C	1	M1
NMTTP	1	0	3	B	0	M1
NMTTP	1	0	4	B	0	M1
NMTAP	2	0	7
NMHLD	2	96	6	96
NMHLD	2	96	7	96
NMHLD	2	288	0	96
NMHLD	2	288	1	96
NMTAP	3	96	6
NMTAP	3	96	7
NMTAP	3	192	0
NMTAP	3	192	7
NMHLD	3	288	0	96
NMHLD	3	288	1	96
NMHLD	4	96	6	96
NMHLD	4	96	7	96
NMHLD	4	288	0	96
NMHLD	4	288	1	96
NMTAP	5	96	6
NMTAP	5	96	7
NMTAP	5	192	0
NMTAP	5	192	7
NMTAP	5	288	0
NMTAP	5	288	1
NMTAP	6	0	1
NMTAP	6	96	2
NMTAP	6	96	4
NMTAP	6	192	5
NMTAP	6	240	5
NMTAP	6	288	4
NMTAP	7	0	3
NMTAP	7	0	6
NMTAP	7	96	2
NMTAP	7	144	2
NMTAP	7	192	3
EXTAP	7	288	2
EXTAP	7	288	4
NMTAP	8	0	1
NMTAP	8	96	0
NMTAP	8	96	1
NMTAP	8	192	6
NMTAP	8	240	6
NMTAP	8	288	7
NMTAP	9	0	5
NMTAP	9	96	4
NMTAP	9	192	3
NMTAP	9	192	6
NMTAP	10	0	2
NMHLD	10	0	5	480
NMTAP	10	96	4
NMTAP	10	144	4
NMTAP	10	192	4
NMTAP	10	288	3
NMTAP	10	336	3
NMTAP	11	0	3
NMTAP	11	96	4
NMTAP	11	144	4
NMTAP	11	192	4
NMTAP	11	192	6
NMTAP	11	288	3
NMTAP	11	288	5
NMHLD	12	0	2	480
NMTAP	12	0	4
NMTAP	12	96	3
NMTAP	12	144	3
NMTAP	12	192	3
NMTAP	12	288	4
NMTAP	12	336	4
NMTAP	13	0	4
NMTAP	13	96	3
NMTAP	13	144	3
NMTAP	13	192	2
NMTAP	13	192	3
NMTAP	13	288	3
NMTAP	13	288	4
NMSTR	14	0	5
NMSCR	14	0	5	96	96	0
NMTAP	14	192	1
NMTAP	14	240	1
NMTAP	14	288	0
NMTAP	14	288	1
NMSTR	15	0	1
NMSCR	15	0	1	96	96	4
NMTAP	15	192	5
NMTAP	15	240	5
NMTAP	15	288	4
NMTAP	15	288	5
NMHLD	16	0	2	96
NMTAP	16	96	3
NMHLD	16	192	5	96
NMTAP	16	288	4
NMTAP	17	0	2
NMTAP	17	0	3
NMTAP	17	96	2
NMTAP	17	96	3
NMTAP	17	192	0
NMTAP	17	192	1
BXTAP	17	240	7
BXTAP	17	288	7
NMHLD	18	0	0	96
NMHLD	18	96	1	96
NMHLD	18	192	2	96
NMTAP	18	288	3
NMTTP	19	0	3	B	0	M1
NMTTP	19	0	3	E	0	M1
NMTTP	19	96	2	E	0	M1
NMTTP	19	192	0	B	0	M1
NMTTP	19	192	1	E	0	M1
NMHLD	20	0	7	96
NMHLD	20	96	6	96
NMHLD	20	192	5	96
NMTAP	20	288	4
NMTTP	21	0	4	B	0	M1
NMTTP	21	0	5	E	0	M1
NMTTP	21	96	6	E	0	M1
NMTTP	21	192	7	B	0	M1
NMTTP	21	192	7	E	0	M1
NMTAP	22	0	1
NMSTR	22	96	0
NMSI_	22	96	0	96	96	4
NMSTR	22	96	1
NMSCR	22	96	1	96	96	4
NMTAP	23	0	6
NMSTR	23	96	6
NMSCL	23	96	6	96	96	3
NMSTR	23	96	7
NMSI_	23	96	7	96	96	3
NMHLD	24	0	2	96
NMTAP	24	0	4
NMHLD	24	96	0	96
NMHLD	24	192	7	96
NMHLD	24	288	5	96
BXTAP	25	0	4
NMTAP	25	96	3
NMTAP	25	144	3
NMTAP	25	192	4
NMTAP	25	240	4
NMTAP	25	288	3
BRTAP	26	0	2
BRTAP	26	0	4
NMTAP	26	96	5
NMTAP	26	96	6
NMTAP	26	192	0
NMTAP	26	192	1
NMTAP	26	288	4
NMTAP	26	288	6
NMTAP	27	0	2
NMTAP	27	0	3
NMTAP	27	96	0
NMTAP	27	96	1
NMTAP	27	192	6
NMTAP	27	192	7
NMTAP	27	288	4
NMTAP	27	288	5
NMTAP	28	0	0
NMTAP	28	0	1
NMTAP	28	96	5
NMTAP	28	96	6
NMTAP	28	192	1
NMTAP	28	192	3
NMTAP	28	288	4
NMTAP	28	288	5
NMTAP	29	0	6
NMTAP	29	0	7
NMTAP	29	96	0
NMTAP	29	96	1
NMTAP	29	192	2
NMTAP	29	240	2
NMTAP	29	288	1
NMTAP	29	288	3
NMTAP	30	0	6
NMTAP	30	0	7
NMTAP	30	96	5
NMTAP	30	144	5
NMTAP	30	192	4
NMTAP	30	288	2
NMTAP	30	336	2
NMTAP	31	0	3
NMTAP	31	96	3
NMTAP	31	96	4
NMTAP	31	192	5
EXTAP	31	240	6
EXTAP	31	240	7
EXTAP	31	288	6
EXTAP	31	288	7
NMTAP	32	0	0
NMTAP	32	0	1
NMTAP	32	96	3
NMTAP	32	96	4
NMTAP	32	192	6
NMTAP	32	192	7
NMTAP	32	288	3
NMTAP	32	288	4
BRTAP	33	0	3
BRTAP	33	0	4
BRTAP	33	96	2
BRTAP	33	96	5
BRTAP	33	192	1
BRTAP	33	192	6
BRTAP	33	288	0
BRTAP	33	288	7
NMTAP	34	0	4
NMTAP	34	0	6
NMTAP	34	96	2
NMTAP	34	96	3
NMTAP	34	192	6
NMTAP	34	192	7
NMTAP	34	288	1
NMTAP	34	288	3
NMTAP	35	0	4
NMTAP	35	0	5
NMTAP	35	96	6
NMTAP	35	96	7
NMTAP	35	192	0
NMTAP	35	192	1
NMTAP	35	288	2
NMTAP	35	288	3
NMTAP	36	0	4
NMTAP	36	0	6
NMTAP	36	96	1
NMTAP	36	96	2
NMTAP	36	192	5
NMTAP	36	192	7
NMTAP	36	288	1
NMTAP	36	288	3
NMTAP	37	0	4
NMTAP	37	0	5
NMTAP	37	96	6
NMTAP	37	96	7
NMTAP	37	192	0
NMTAP	37	192	1
NMTAP	37	288	2
NMTAP	37	288	3
NMHLD	38	0	5	96
NMTAP	38	96	4
NMTAP	38	144	4
NMTAP	38	192	6
NMTAP	38	288	6
NMTAP	38	288	7
NMHLD	39	0	2	96
NMTAP	39	96	3
NMTAP	39	144	3
NMTAP	39	192	2
EXTAP	39	240	0
EXTAP	39	240	1
EXTAP	39	288	0
EXTAP	39	288	1
NMSTR	40	0	6
NMSI_	40	0	6	96	48	3
NMTAP	40	0	7
NMTAP	40	192	0
NMSTR	40	192	1
NMSI_	40	192	1	96	48	4
NMSTR	41	0	6
NMSI_	41	0	6	96	48	3
NMSTR	41	0	7
NMSI_	41	0	7	96	48	3
BRTAP	41	192	1
BRTAP	41	192	5
NMHLD	42	0	2	576
NMTAP	42	0	4
NMTAP	42	96	3
NMTAP	42	192	1
NMTAP	42	240	1
NMTAP	42	288	1
NMTAP	43	0	3
NMTAP	43	48	3
NMTAP	43	96	4
NMTAP	43	144	4
NMTAP	43	192	3
NMTAP	43	288	2
EXTAP	43	288	6
NMTAP	44	0	3
NMHLD	44	0	5	576
NMTAP	44	96	4
NMTAP	44	192	6
NMTAP	44	240	6
NMTAP	44	288	6
NMTAP	45	0	4
NMTAP	45	48	4
NMTAP	45	96	3
NMTAP	45	144	3
NMTAP	45	192	4
EXTAP	45	288	1
EXTAP	45	288	6
NMTAP	46	0	2
NMTAP	46	0	3
NMTAP	46	96	4
NMTAP	46	96	5
NMTAP	46	192	6
NMTAP	46	240	6
NMTAP	46	288	6
NMTAP	46	288	7
NMTAP	47	0	1
NMTAP	47	48	1
NMTAP	47	96	0
NMTAP	47	144	2
NMHLD	47	192	2	96
EXTAP	47	288	7
NMTAP	48	0	4
NMTAP	48	0	6
NMTAP	48	96	2
NMTAP	48	96	3
NMTAP	48	192	4
NMTAP	48	240	4
NMTAP	48	288	3
NMTAP	48	288	4
BRTAP	49	0	3
BRTAP	49	0	4
BRTAP	49	96	2
BRTAP	49	96	5
BRTAP	49	192	1
BRTAP	49	192	6
BRTAP	49	288	0
BRTAP	49	288	7
NMSTR	50	0	1
NMSI_	50	0	1	96	48	4
NMTAP	50	0	6
NMSTR	50	96	5
NMSCR	50	96	5	96	96	0
NMSTR	51	0	2
NMSI_	51	0	2	96	48	7
NMSTR	51	96	6
NMSCL	51	96	6	96	96	3
NMSTR	52	0	0
NMSI_	52	0	0	96	48	4
NMSTR	52	96	6
NMSCR	52	96	6	96	96	1
NMTAP	53	0	3
NMTAP	53	96	2
NMTAP	53	96	4
NMTAP	53	192	1
NMTAP	53	192	5
NMTAP	53	240	1
NMTAP	53	240	5
NMTAP	53	288	1
NMTAP	53	288	5
NMTAP	54	0	2
NMTAP	54	48	2
NMTAP	54	96	4
NMTAP	54	144	4
NMTAP	54	192	3
NMTAP	54	192	5
NMTAP	54	288	1
NMTAP	54	288	7
NMTAP	55	0	5
NMTAP	55	48	5
NMTAP	55	96	3
NMTAP	55	144	3
NMTAP	55	192	2
NMTAP	55	192	4
NMTAP	55	288	0
NMTAP	55	288	6
NMHLD	56	0	6	48
NMHLD	56	0	7	48
NMTAP	56	96	6
NMTAP	56	96	7
NMHLD	56	192	0	48
NMHLD	56	192	1	48
NMTAP	56	288	0
NMTAP	56	288	1
NMSTR	57	0	7
NMSI_	57	0	7	96	48	3
NMSTR	57	96	0
NMSI_	57	96	0	96	48	4
NMTAP	57	192	6
BRTAP	57	288	3
BRTAP	57	288	5
NMTAP	58	0	2
NMHLD	58	0	6	768
NMTTP	59	0	4	B	0	M1
NMTTP	59	0	5	B	0	M1
NMTTP	59	192	2	B	0	M1
NMTTP	59	192	3	B	0	M1
NMHLD	60	0	1	576
NMTHO	61	0	0	192	C	0	M1
NMTAP	62	0	0
NMTAP	62	96	0
NMTAP	62	192	1
NMTAP	62	288	1
NMTAP	63	0	2
NMTAP	63	0	3
NMTAP	63	96	2
NMTAP	63	96	3
NMTAP	63	192	3
NMTAP	63	192	4
NMTAP	63	288	3
NMTAP	63	288	4
NMTAP	64	0	5
NMTAP	64	48	5
NMTAP	64	96	3
NMTAP	64	144	3
NMTAP	64	192	4
NMTAP	64	240	4
NMSTR	64	288	2
NMSCL	64	288	2	96	288	5
NMSTR	66	0	4
NMSF_	66	0	4	96	96	0
EXTAP	66	288	1
EXTAP	66	288	7
NMSTR	67	0	1
NMSI_	67	0	1	96	48	3
NMSTR	67	96	0
NMSI_	67	96	0	96	48	4
NMSTR	67	192	1
NMSI_	67	192	1	96	48	3
EXTAP	67	288	0
NMTAP	68	0	6
NMTAP	68	0	7
NMTAP	68	96	4
NMTAP	68	96	5
NMTAP	68	192	2
NMTAP	68	192	3
NMTAP	68	288	0
NMTAP	68	288	1
NMSTR	69	0	6
NMSI_	69	0	6	96	48	4
NMSTR	69	96	7
NMSI_	69	96	7	96	48	3
NMSTR	69	192	6
NMSI_	69	192	6	96	48	4
EXTAP	69	288	7
NMTAP	70	0	2
NMTAP	70	0	3
NMTAP	70	96	0
NMTAP	70	96	1
NMTAP	70	192	6
NMTAP	70	192	7
NMTAP	70	288	4
NMTAP	70	288	5
NMHLD	71	0	2	96
NMTAP	71	96	0
NMTAP	71	144	0
NMTAP	71	192	0
NMTAP	71	192	1
NMTAP	71	288	6
NMTAP	71	336	6
NMTAP	72	0	5
NMTAP	72	0	7
NMTAP	72	96	3
NMTAP	72	96	4
EXTAP	72	192	2
EXTAP	72	240	0
EXTAP	72	240	1
EXTAP	72	288	0
EXTAP	72	288	1
NMSTR	73	0	2
NMSI_	73	0	2	96	48	4
NMSTR	73	96	6
NMSI_	73	96	6	96	48	4
NMSTR	73	192	0
NMSI_	73	192	0	96	48	4
NMTAP	73	288	6
BRTAP	74	0	3
BRTAP	74	0	5
BRTAP	74	96	2
BRTAP	74	96	6
BRTAP	74	192	1
BRTAP	74	192	7
BRTAP	74	288	0
NMSTR	75	0	6
NMSI_	75	0	6	96	48	3
NMSTR	75	96	7
NMSI_	75	96	7	96	48	2
NMSTR	75	192	6
NMSI_	75	192	6	96	48	3
EXTAP	75	288	7
NMTAP	76	0	0
NMTAP	76	0	1
NMTAP	76	96	2
NMTAP	76	96	3
NMTAP	76	192	4
NMTAP	76	192	5
NMTAP	76	288	6
NMTAP	76	288	7
NMSTR	77	0	1
NMSI_	77	0	1	96	48	4
NMSTR	77	96	0
NMSI_	77	96	0	96	48	5
NMSTR	77	192	1
NMSI_	77	192	1	96	48	4
EXTAP	77	288	0
NMTAP	78	0	6
NMTAP	78	0	7
NMTAP	78	96	4
NMTAP	78	96	5
NMTAP	78	192	2
NMTAP	78	192	3
NMTAP	78	288	0
NMTAP	78	288	4
NMHLD	79	0	1	48
NMHLD	79	0	3	48
NMHLD	79	96	1	48
NMHLD	79	96	3	48
NMHLD	79	192	4	48
NMHLD	79	192	5	48
NMHLD	79	288	4	48
NMHLD	79	288	5	48
NMHLD	80	0	3	48
NMHLD	80	0	4	48
NMHLD	80	96	2	48
NMHLD	80	96	3	48
EXTAP	80	192	2
EXTAP	80	240	0
EXTAP	80	240	1
EXTAP	80	288	0
EXTAP	80	288	1
NMSTR	81	0	6
NMSI_	81	0	6	96	48	2
NMSTR	81	0	7
NMSI_	81	0	7	96	48	3
NMSTR	81	192	0
NMSI_	81	192	0	96	48	4
NMSTR	81	192	1
NMSI_	81	192	1	96	48	5
NMSTR	82	0	6
NMSI_	82	0	6	96	48	2
NMSTR	82	0	7
NMSI_	82	0	7	96	48	3
BRTAP	82	192	1
BRTAP	82	192	4
NMTAP	82	288	0
NMSTR	82	288	5
NMSCR	82	288	5	96	192	2
NMTAP	84	0	0
NMTAP	84	48	0
NMTAP	84	96	7
NMTAP	84	192	2
NMTAP	84	192	4
BRTAP	84	288	1
BRTAP	84	288	5

T_REC_TAP	315
T_REC_BRK	33
T_REC_XTP	30
T_REC_BXX	3
T_REC_HLD	48
T_REC_XHO	0
T_REC_BHO	0
T_REC_BXH	0
T_REC_STR	42
T_REC_BST	0
T_REC_XST	0
T_REC_XBS	0
T_REC_TTP	16
T_REC_THO	2
T_REC_SLD	42
T_REC_BSL	0
T_REC_ALL	531
T_NUM_TAP	403
T_NUM_BRK	36
T_NUM_HLD	50
T_NUM_SLD	42
T_NUM_ALL	531
T_JUDGE_TAP	439
T_JUDGE_HLD	148
T_JUDGE_SLD	42
T_JUDGE_ALL	629
TTM_EACHPAIRS	152
TTM_SCR_TAP	201500
TTM_SCR_BRK	93600
TTM_SCR_HLD	50000
TTM_SCR_SLD	63000
TTM_SCR_ALL	408100
TTM_SCR_S	392400
TTM_SCR_SS	404500
TTM_RAT_ACV	10088

