VERSION	0.00.00	1.04.00
FES_MODE	0
BPM_DEF	196.000	196.000	196.000	196.000
MET_DEF	4	4
RESOLUTION	384
CLK_DEF	384
COMPATIBLE_CODE	MA2

BPM	0	0	196.000
MET	0	0	4	4
MET	61	0	4	2
MET	61	192	4	4

BRHLD	1	0	1	96
BRTAP	1	0	5
NMTAP	1	96	3
NMTAP	1	144	3
NMTAP	1	240	6
NMTAP	1	288	6
NMSTR	1	336	4
NMSXL	1	336	4	96	96	3
NMTAP	1	336	5
CNSCL	2	144	3	0	96	0
EXTAP	2	288	5
NMTAP	3	0	1
NMTAP	3	24	3
NMTAP	3	48	2
NMTAP	3	96	3
NMTAP	3	96	4
NMTAP	3	144	2
NMTAP	3	144	5
NMTAP	3	240	3
NMTAP	3	240	6
NMTAP	3	288	5
NMTAP	3	336	2
NMTAP	3	336	4
BRTAP	4	0	1
BRTAP	4	0	5
NMTTP	4	96	5	B	0	M1
NMTTP	4	96	5	E	0	M1
NMTTP	4	96	5	D	0	M1
NMTTP	4	96	6	E	1	M1
NMTTP	4	96	6	A	0	M1
NMTTP	4	96	7	D	0	M1
NMTTP	4	192	0	C	1	M1
NMTTP	4	192	3	B	0	M1
NMTTP	4	192	4	B	0	M1
NMTTP	4	192	4	E	0	M1
NMTTP	4	288	1	B	0	M1
NMTTP	4	288	1	E	0	M1
NMTTP	4	288	1	D	0	M1
NMTTP	4	288	2	E	1	M1
NMTTP	4	288	2	A	0	M1
NMTTP	4	288	3	D	0	M1
NMSTR	5	0	5
NMSI_	5	0	5	96	48	0
NMTAP	5	96	3
NMTAP	5	96	5
NMSTR	5	192	2
NMSI_	5	192	2	96	48	7
NMTAP	5	288	6
NMSTR	5	336	6
NMSCR	5	336	6	96	48	1
NMSTR	6	48	2
NMSCR	6	48	2	96	48	5
NMTAP	6	48	6
NMTAP	6	144	2
NMHLD	6	144	6	96
NMTAP	6	240	7
NMTAP	6	288	0
NMTAP	6	288	5
NMSTR	7	0	2
NMSI_	7	0	2	96	48	7
NMTAP	7	96	2
NMTAP	7	96	4
NMSTR	7	192	5
NMSI_	7	192	5	96	48	0
NMTAP	7	288	1
NMSTR	7	336	1
NMSCL	7	336	1	96	48	6
NMTAP	8	48	1
NMSTR	8	48	5
NMSCL	8	48	5	96	48	2
NMHLD	8	144	1	96
NMTAP	8	144	5
NMTAP	8	240	0
NMTAP	8	288	2
NMTAP	8	288	7
NMSTR	9	0	6
NMSI_	9	0	6	96	48	3
NMTAP	9	96	3
NMTAP	9	96	6
NMSTR	9	192	1
NMSI_	9	192	1	96	48	4
NMTAP	9	288	5
NMSTR	9	336	5
NMSCR	9	336	5	96	48	0
NMSTR	10	48	1
NMSCR	10	48	1	96	48	4
NMTAP	10	48	5
NMTAP	10	144	1
NMHLD	10	144	5	96
NMTAP	10	240	3
NMTAP	10	288	2
NMTAP	10	288	6
NMSTR	11	0	1
NMSI_	11	0	1	96	48	4
NMTAP	11	96	1
NMTAP	11	96	4
NMHLD	11	192	6	96
NMTAP	11	288	4
NMTAP	11	336	3
NMTAP	11	336	7
NMTAP	12	48	1
NMTAP	12	48	3
NMSTR	12	144	4
NMSI_	12	144	4	96	48	0
NMSTR	12	144	6
NMSI_	12	144	6	96	48	2
EXTAP	12	240	4
EXTAP	12	240	6
EXSTR	13	0	7
NMSF_	13	0	7	96	48	3
EXTAP	13	96	7
NMTAP	13	240	2
NMTAP	13	240	4
NMTAP	13	288	2
NMSTR	13	288	4
NMSI_	13	288	4	96	48	6
NMSTR	14	0	3
NMSXL	14	0	3	96	144	1
NMTAP	14	96	7
NMTAP	14	144	7
NMHLD	14	240	6	96
NMTAP	14	336	3
NMTAP	15	0	3
NMTAP	15	96	0
NMTAP	15	96	4
NMSTR	15	144	0
BRSSL	15	144	0	96	144	4
NMTAP	15	144	4
NMTAP	15	240	5
NMTAP	15	336	6
NMSTR	16	48	7
BRSCL	16	48	7	96	96	2
NMTAP	16	144	1
NMTAP	16	240	0
NMTAP	16	288	0
NMTAP	16	336	3
NMSTR	17	0	3
NMSXL	17	0	3	96	48	5
NMSXR	17	0	3	96	48	1
NMTAP	17	240	3
NMTAP	17	240	5
NMSTR	17	288	3
NMSI_	17	288	3	96	48	1
NMTAP	17	288	5
NMSTR	18	0	4
NMSXR	18	0	4	96	144	6
NMTAP	18	96	0
NMTAP	18	144	0
NMTAP	18	240	1
NMTAP	18	288	1
NMTAP	18	336	7
NMSTR	19	0	7
NMSI_	19	0	7	96	48	3
NMTAP	19	96	2
NMHLD	19	144	2	96
NMTAP	19	240	5
NMTAP	19	288	1
NMTAP	19	288	6
NMTAP	19	336	0
NMTAP	19	336	7
NMTAP	20	48	3
NMTAP	20	48	6
NMTAP	20	96	3
NMTAP	20	96	6
NMTAP	20	192	1
NMTAP	20	192	4
BRTAP	20	288	3
BRTAP	20	288	5
BRTAP	21	0	2
BRTAP	21	0	4
NMTAP	21	96	1
NMTTP	21	96	6	E	0	M1
NMTTP	21	96	6	A	0	M1
NMTTP	21	96	6	D	1	M1
NMTAP	21	192	0
NMTTP	21	192	3	B	0	M1
NMTTP	21	192	4	B	0	M1
NMTTP	21	192	4	E	1	M1
NMTTP	21	288	1	A	0	M1
NMTTP	21	288	2	E	0	M1
NMTTP	21	288	2	D	1	M1
NMTAP	21	288	7
NMSTR	22	0	2
NMSI_	22	0	2	96	48	7
NMTAP	22	96	3
NMSTR	22	192	4
NMSCL	22	192	4	96	48	1
NMSTR	22	192	5
NMSCR	22	192	5	96	48	0
NMTAP	23	0	2
NMTAP	23	0	3
NMTAP	23	96	0
NMTTP	23	96	5	A	0	M1
NMTTP	23	96	6	E	0	M1
NMTTP	23	96	6	D	1	M1
NMTTP	23	192	3	B	0	M1
NMTTP	23	192	4	B	0	M1
NMTTP	23	192	4	E	1	M1
NMTAP	23	192	6
NMTTP	23	288	2	E	0	M1
NMTTP	23	288	2	A	0	M1
NMTTP	23	288	2	D	1	M1
NMTAP	23	288	7
NMSTR	24	0	1
NMSI_	24	0	1	96	48	6
NMTAP	24	96	3
NMSTR	24	192	4
NMSI_	24	192	4	96	48	0
NMSTR	24	192	5
NMSI_	24	192	5	96	48	1
NMTAP	25	0	2
NMTAP	25	0	3
NMTAP	25	96	1
NMTTP	25	96	6	E	0	M1
NMTTP	25	96	6	A	0	M1
NMTTP	25	96	6	D	1	M1
NMTAP	25	192	0
NMTTP	25	192	3	B	0	M1
NMTTP	25	192	4	B	0	M1
NMTTP	25	192	4	E	1	M1
NMTTP	25	288	1	A	0	M1
NMTTP	25	288	2	E	0	M1
NMTTP	25	288	2	D	1	M1
NMTAP	25	288	7
NMSTR	26	0	2
NMSI_	26	0	2	96	48	5
NMSTR	26	96	6
NMSI_	26	96	6	96	48	1
NMSTR	26	192	2
NMSI_	26	192	2	96	48	5
NMTAP	26	288	6
NMTAP	27	0	4
NMTAP	27	0	7
NMTAP	27	96	0
NMTTP	27	96	5	A	0	M1
NMTTP	27	96	6	E	0	M1
NMTTP	27	96	6	D	1	M1
NMTAP	27	192	0
NMTTP	27	192	3	B	0	M1
NMTTP	27	192	4	B	0	M1
NMTTP	27	192	4	E	1	M1
NMTTP	27	288	2	E	0	M1
NMTTP	27	288	2	A	0	M1
NMTTP	27	288	2	D	1	M1
BXTAP	27	288	7
BXTAP	28	0	1
NMTTP	28	0	6	E	1	M1
NMTTP	28	0	6	A	0	M1
NMTTP	28	0	6	D	0	M1
BXTAP	28	96	2
NMTTP	28	96	3	B	0	M1
NMTTP	28	96	4	B	0	M1
NMTTP	28	96	4	E	1	M1
NMTTP	28	192	1	A	0	M1
NMTTP	28	192	2	E	1	M1
NMTTP	28	192	2	D	0	M1
BXTAP	28	192	5
BRTAP	28	288	0
BRTAP	28	288	7
NMSTR	29	0	1
NMSCR	29	0	1	96	48	4
NMTAP	29	96	4
NMTAP	29	192	5
NMTAP	29	240	5
NMTAP	29	288	4
NMTAP	30	0	2
NMTAP	30	48	3
NMTAP	30	96	4
NMHLD	30	144	3	96
NMHLD	30	144	5	96
NMTAP	30	288	2
NMSTR	30	336	1
NMSI_	30	336	1	96	48	5
NMTAP	31	48	6
NMTAP	31	96	7
NMSTR	31	144	7
NMSI_	31	144	7	96	48	3
NMTAP	31	240	2
NMTAP	31	288	2
NMTAP	32	0	0
NMTAP	32	0	5
NMSTR	32	48	0
NMSCR	32	48	0	96	96	4
NMTAP	32	48	5
NMSTR	32	144	4
NMSCR	32	144	4	96	96	0
NMSTR	32	240	0
NMSLR	32	240	0	96	96	4
NMSTR	32	336	4
NMSLR	32	336	4	96	96	0
NMTAP	33	48	0
NMTAP	33	144	4
NMTAP	33	240	3
NMTAP	33	240	5
NMTAP	33	288	3
NMTAP	33	288	5
NMTAP	34	0	0
NMTAP	34	0	6
NMTAP	34	48	0
NMTAP	34	48	6
NMTAP	34	144	2
NMTAP	34	144	4
NMTAP	34	192	2
NMTAP	34	192	4
NMSTR	34	288	1
NMSI_	34	288	1	96	48	5
NMTAP	35	0	1
NMSTR	35	0	6
NMSI_	35	0	6	96	48	2
NMTAP	35	96	1
NMSTR	35	144	0
NMSI_	35	144	0	96	48	4
NMTAP	35	240	0
NMTAP	35	240	3
NMSTR	35	336	1
NMSI_	35	336	1	96	48	6
NMSTR	35	336	5
NMSI_	35	336	5	96	48	2
NMTAP	36	48	1
NMTAP	36	48	5
CNSI_	36	96	2	0	48	4
CNSI_	36	96	6	0	48	0
NMSTR	36	288	0
NMSI_	36	288	0	96	48	5
NMSI_	36	288	0	96	48	6
NMSTR	37	0	0
NMSCR	37	0	0	96	48	3
NMTAP	37	96	0
NMSTR	37	96	4
NMSI_	37	96	4	96	48	7
EXTAP	37	192	2
NMTAP	37	192	4
NMTAP	37	288	2
NMSTR	37	336	1
NMSLR	37	336	1	96	96	5
NMSTR	38	48	5
NMSCL	38	48	5	96	96	0
NMTAP	38	144	6
NMTAP	38	240	7
NMSTR	38	336	0
NMSI_	38	336	0	96	48	4
NMTAP	39	0	0
NMSTR	39	48	5
NMSI_	39	48	5	96	48	1
NMTAP	39	96	5
NMSTR	39	144	2
NMSI_	39	144	2	96	48	6
NMTAP	39	192	2
NMSTR	39	240	7
NMSLL	39	240	7	96	96	3
NMTAP	39	336	3
NMTAP	40	48	2
NMTAP	40	96	2
NMTAP	40	192	4
NMTAP	40	192	6
NMTAP	40	240	4
NMTAP	40	240	6
NMTAP	40	336	1
NMTAP	40	336	3
NMTAP	41	0	0
NMTAP	41	0	4
NMSTR	41	96	5
NMSCR	41	96	5	96	96	0
NMTAP	41	144	5
NMTAP	41	192	3
NMSTR	41	288	2
NMSCL	41	288	2	96	96	7
NMTAP	41	336	2
NMTAP	42	0	4
NMSTR	42	96	5
NMSI_	42	96	5	96	48	0
NMSTR	42	192	1
NMSI_	42	192	1	96	48	4
NMSTR	42	288	6
NMSI_	42	288	6	96	48	1
NMSTR	43	0	2
NMSI_	43	0	2	96	48	5
NMSTR	43	96	7
NMSCL	43	96	7	96	48	4
NMSTR	43	192	3
NMSCL	43	192	3	96	48	0
NMTAP	43	288	6
NMHLD	43	336	6	96
NMSTR	44	48	7
NMSF_	44	48	7	96	48	3
BXTAP	44	240	1
BXTAP	44	240	5
BXSTR	44	288	1
NMSI_	44	288	1	96	48	7
BXTAP	44	288	5
NMTAP	45	0	1
NMSTR	45	0	4
NMSI_	45	0	4	96	48	7
NMSTR	45	96	0
NMSI_	45	96	0	96	48	2
NMSI_	45	96	0	96	48	3
NMTAP	45	96	4
NMTAP	45	192	0
EXTAP	45	288	1
EXTAP	45	288	4
EXTAP	45	336	1
EXTAP	45	336	4
NMSTR	46	48	2
NMSCL	46	48	2	96	48	7
NMSTR	46	48	3
NMSCR	46	48	3	96	48	6
NMTAP	46	144	2
NMTAP	46	144	3
EXTAP	46	240	0
EXTAP	46	240	5
EXTAP	46	288	0
EXTAP	46	288	5
NMSTR	47	0	7
NMSCL	47	0	7	96	48	4
NMSCR	47	0	7	96	48	2
NMTAP	47	96	7
NMTAP	47	192	0
NMHLD	47	240	0	96
NMSTR	47	336	5
NMSCL	47	336	5	96	48	2
NMTAP	48	48	1
NMHLD	48	96	1	96
NMTAP	48	192	0
NMSTR	48	288	6
NMSI_	48	288	6	96	48	3
NMTAP	48	288	7
NMSTR	49	0	2
NMSI_	49	0	2	96	48	7
NMTAP	49	0	6
NMTAP	49	96	2
NMSTR	49	96	6
NMSI_	49	96	6	96	48	1
NMSTR	49	192	2
NMSI_	49	192	2	96	48	5
NMTAP	49	192	6
NMTAP	49	288	2
NMSTR	49	288	6
NMSI_	49	288	6	96	48	2
NMSTR	50	0	1
NMSCR	50	0	1	96	48	4
NMTAP	50	0	6
NMTAP	50	96	1
NMSTR	50	96	7
NMSF_	50	96	7	96	48	3
BRTAP	50	192	7
BRTAP	50	288	1
BRSTR	50	288	5
NMSI_	50	288	5	96	48	3
CNSI_	51	48	3	0	48	7
CNSI_	51	96	7	0	48	2
EXTAP	51	192	0
EXTAP	51	240	0
BRSTR	51	288	2
NMSI_	51	288	2	96	48	5
BRSTR	51	288	6
NMSI_	51	288	6	96	48	1
BRTAP	52	0	2
BRTAP	52	0	6
NMSTR	52	192	0
NMSSL	52	192	0	96	48	4
BRTAP	52	288	0
EXSTR	53	0	5
NMSI_	53	0	5	96	48	0
NMTAP	53	96	3
NMTAP	53	96	5
NMSTR	53	192	2
NMSI_	53	192	2	96	48	7
NMTAP	53	288	6
NMSTR	53	336	6
NMSCR	53	336	6	96	48	1
NMSTR	54	48	2
NMSCR	54	48	2	96	48	5
NMTAP	54	48	6
NMTAP	54	144	2
NMHLD	54	144	6	96
NMTAP	54	240	7
NMTAP	54	288	0
NMTAP	54	288	5
NMSTR	55	0	2
NMSI_	55	0	2	96	48	7
NMTAP	55	96	2
NMTAP	55	96	4
NMSTR	55	192	5
NMSI_	55	192	5	96	48	0
NMTAP	55	288	1
NMSTR	55	336	1
NMSCL	55	336	1	96	48	6
NMTAP	56	48	1
NMSTR	56	48	5
NMSCL	56	48	5	96	48	2
NMHLD	56	144	1	96
NMTAP	56	144	5
NMTAP	56	240	0
NMTAP	56	288	2
NMTAP	56	288	7
NMSTR	57	0	6
NMSI_	57	0	6	96	48	3
NMTAP	57	96	3
NMTAP	57	96	6
NMSTR	57	192	1
NMSI_	57	192	1	96	48	4
NMTAP	57	288	5
NMSTR	57	336	5
NMSCR	57	336	5	96	48	0
NMSTR	58	48	1
NMSCR	58	48	1	96	48	4
NMTAP	58	48	5
NMTAP	58	144	1
NMHLD	58	144	5	96
NMTAP	58	240	3
NMTAP	58	288	2
NMTAP	58	288	6
NMSTR	59	0	1
NMSI_	59	0	1	96	48	4
NMTAP	59	96	1
NMTAP	59	96	4
NMHLD	59	192	6	96
NMTAP	59	288	4
NMTAP	59	336	3
NMTAP	59	336	7
NMTAP	60	48	1
NMTAP	60	48	3
NMSTR	60	144	4
NMSI_	60	144	4	96	48	0
NMSTR	60	144	6
NMSI_	60	144	6	96	48	2
EXTAP	60	240	4
EXTAP	60	240	6
NMTAP	61	48	1
NMTAP	61	96	1
NMTAP	61	192	2
NMSTR	61	192	4
NMSI_	61	192	4	96	48	7
NMTAP	61	288	2
NMTAP	62	0	2
NMTAP	62	96	2
NMTAP	62	192	2
NMSTR	62	192	7
NMSCL	62	192	7	96	96	4
NMTAP	62	288	2
NMTAP	63	0	2
NMTAP	63	96	2
NMTAP	63	192	2
NMTAP	63	192	4
NMTAP	63	288	2
NMTAP	63	288	4
NMTAP	64	0	2
NMTAP	64	0	3
NMTAP	64	96	2
NMTAP	64	96	3
NMTAP	64	192	2
NMTAP	64	192	5
NMTAP	64	288	2
NMTAP	64	288	5
NMTAP	64	336	3
NMTAP	64	360	4
NMTAP	65	0	3
NMTAP	65	24	4
NMTAP	65	48	3
NMTAP	65	72	4
NMTAP	65	96	3
NMSTR	65	192	2
NMSI_	65	192	2	96	48	0
NMTAP	65	288	2
NMTAP	65	288	4
NMTAP	66	0	5
NMTAP	66	48	5
NMTAP	66	96	3
NMTAP	66	192	2
NMTAP	66	192	4
NMTAP	66	288	1
NMTAP	66	288	5
NMTAP	66	336	1
NMTAP	66	336	5
NMTAP	67	48	6
NMTAP	67	96	6
NMTAP	67	144	5
NMTAP	67	192	4
NMTAP	67	240	3
NMTAP	67	288	2
NMHLD	67	336	1	96
NMTAP	68	48	3
NMTAP	68	96	0
NMTAP	68	96	4
NMSTR	68	144	0
NMSI_	68	144	0	96	48	4
NMTAP	68	144	4
NMTAP	68	240	5
NMSTR	68	288	6
NMSI_	68	288	6	96	48	2
NMTAP	69	0	1
NMTAP	69	96	0
NMTAP	69	96	4
NMTAP	69	192	1
NMTAP	69	192	3
NMTAP	69	240	1
NMTAP	69	240	3
NMTAP	69	336	5
NMTAP	70	0	4
NMTAP	70	0	6
NMSTR	70	48	4
NMSI_	70	48	4	96	48	0
NMTAP	70	48	6
NMTAP	70	144	4
NMSTR	70	144	5
NMSI_	70	144	5	96	48	1
NMTAP	70	240	3
NMTAP	70	240	5
NMTAP	70	336	2
NMTAP	70	336	6
NMTAP	71	0	2
NMTAP	71	0	6
NMSTR	71	96	5
NMSCR	71	96	5	96	48	0
NMTAP	71	192	3
NMSTR	71	288	2
NMSCL	71	288	2	96	48	7
NMTAP	72	0	4
NMTAP	72	48	4
NMTAP	72	144	3
NMTAP	72	144	5
NMTAP	72	240	2
NMHLD	72	288	1	96
NMTAP	72	336	3
NMHLD	73	0	5	96
NMTAP	73	48	3
NMTAP	73	96	2
NMTAP	73	144	2
NMTAP	73	192	2
NMTAP	73	192	3
NMTAP	73	240	4
NMTAP	73	288	5
NMTAP	73	336	6
NMTAP	74	0	0
NMTAP	74	0	7
NMTAP	74	48	1
NMTAP	74	96	2
NMTAP	74	96	4
NMSTR	74	144	5
NMSI_	74	144	5	96	48	0
NMTAP	74	240	3
NMSTR	74	288	2
NMSI_	74	288	2	96	48	7
NMTAP	75	0	4
BRTAP	75	96	0
BRTAP	75	96	5
NMTAP	75	192	1
NMTAP	75	192	3
NMTAP	75	240	2
NMTAP	75	288	4
NMTAP	75	288	6
NMTAP	75	336	5
NMTAP	76	0	0
NMTAP	76	0	3
NMTAP	76	48	2
NMTAP	76	96	4
NMTAP	76	96	7
NMTAP	76	144	5
NMTAP	76	192	1
NMTAP	76	192	3
NMTAP	76	240	0
NMTAP	76	288	6
NMTAP	76	288	7
NMTAP	76	336	5
NMTAP	77	0	3
NMTAP	77	0	4
NMTAP	77	48	2
NMSTR	77	96	0
NMSI_	77	96	0	96	48	4
NMSTR	77	96	1
NMSI_	77	96	1	96	48	5
NMTAP	77	288	3
NMTAP	77	288	6
NMTAP	77	336	3
NMTAP	77	336	6
NMTAP	78	48	1
NMTAP	78	48	4
NMTAP	78	144	3
NMTAP	78	144	5
NMTAP	78	192	3
NMTAP	78	192	5
NMTTP	78	288	5	D	0	M1
NMTTP	78	336	5	B	0	M1
NMTTP	79	0	4	E	0	M1
NMTTP	79	48	2	B	0	M1
NMTTP	79	96	3	D	0	M1
NMSTR	79	192	0
NMSI_	79	192	0	96	48	4
NMTAP	79	288	0
NMTAP	79	288	5
NMSTR	80	0	7
NMSI_	80	0	7	96	48	3
NMTAP	80	96	2
NMTAP	80	96	7
NMTAP	80	192	1
NMTAP	80	240	2
NMTAP	80	240	3
NMTAP	80	288	6
NMTAP	80	336	4
NMTAP	80	336	5
NMTAP	81	0	2
NMTAP	81	48	3
NMTAP	81	48	4
NMTAP	81	96	5
NMHLD	81	144	6	96
NMTAP	81	240	7
NMTAP	81	288	0
NMHLD	81	336	1	96
NMTAP	82	48	0
NMTAP	82	96	7
NMTAP	82	144	6
NMTAP	82	192	3
NMTAP	82	192	5
NMTAP	82	240	3
NMSTR	82	240	5
NMSI_	82	240	5	96	48	1
NMSTR	82	336	0
NMSI_	82	336	0	96	48	3
NMTAP	82	336	5
NMTAP	83	48	0
NMSTR	83	48	4
NMSI_	83	48	4	96	48	6
NMHLD	83	144	2	336
CNSI_	83	192	6	0	48	3
CNSI_	83	240	3	0	48	7
CNSI_	83	288	7	0	48	2
CNSI_	83	336	2	0	144	0
EXTAP	84	240	0
EXTAP	84	240	1
EXSTR	84	288	0
NMSI_	84	288	0	96	48	3
EXSTR	84	288	1
NMSI_	84	288	1	96	48	3
NMSTR	85	0	0
NMSI_	85	0	0	96	48	5
NMSTR	85	0	1
NMSI_	85	0	1	96	48	5
NMSTR	85	96	0
NMSCR	85	96	0	96	240	7
NMTAP	85	96	1
NMTTP	85	192	0	C	1	M1
EXTAP	86	144	0
EXTAP	86	144	7
NMTAP	86	240	2
NMTAP	86	240	5
NMTAP	86	288	2
NMTAP	86	288	5
NMSTR	87	96	2
NMSI_	87	96	2	96	48	0
NMSTR	87	96	6
NMSI_	87	96	6	96	48	0
NMSTR	87	192	2
NMSI_	87	192	2	96	48	4
NMSTR	87	192	6
NMSI_	87	192	6	96	48	4
NMSTR	87	288	2
NMSI_	87	288	2	96	48	7
NMSTR	87	288	6
NMSI_	87	288	6	96	48	2
BRTAP	88	0	2
BRTAP	88	0	6
EXTAP	88	96	0
EXSTR	88	144	0
NMSCR	88	144	0	96	96	4
NMSTR	88	240	4
NMSCR	88	240	4	96	96	0
NMTAP	88	336	0
NMTAP	89	48	4
NMTAP	89	96	4
NMSTR	89	192	2
NMSI_	89	192	2	96	48	5
NMSTR	89	192	3
NMSI_	89	192	3	96	48	7
NMTAP	89	288	2
NMTAP	89	288	3
NMTAP	90	0	6
NMSTR	90	48	6
NMSCR	90	48	6	96	48	1
NMTAP	90	144	4
NMTAP	90	192	4
NMTAP	90	288	3
NMTAP	90	288	5
NMTAP	90	336	3
NMTAP	90	336	5
NMTAP	91	48	2
NMTAP	91	48	3
NMTAP	91	144	1
NMTAP	91	144	4
NMSTR	91	192	1
NMSI_	91	192	1	96	48	3
NMSTR	91	192	4
NMSI_	91	192	4	96	48	0
NMTAP	91	288	1
NMTAP	91	288	4
EXSTR	92	0	3
NMSI_	92	0	3	96	48	7
NMSTR	92	0	6
NMSI_	92	0	6	96	48	4
NMTAP	92	96	3
NMTAP	92	96	6
NMSTR	92	192	1
NMSI_	92	192	1	96	48	3
EXSTR	92	192	4
NMSI_	92	192	4	96	48	0
NMTAP	92	288	1
NMTAP	92	288	4
NMTAP	93	0	6
NMTAP	93	48	6
NMTAP	93	96	4
NMTAP	93	192	1
NMSTR	93	192	3
NMSI_	93	192	3	96	48	7
NMSTR	93	288	0
NMSI_	93	288	0	96	48	3
NMSTR	94	0	5
NMSCR	94	0	5	96	48	0
NMTAP	94	96	4
NMTAP	94	144	4
NMTAP	94	240	2
NMSTR	94	240	6
NMSUL	94	240	6	96	48	2
NMTAP	94	336	0
NMTAP	95	0	0
NMSTR	95	96	1
NMSI_	95	96	1	96	48	7
NMSTR	95	96	5
NMSI_	95	96	5	96	48	7
NMSTR	95	192	1
NMSI_	95	192	1	96	48	3
NMSTR	95	192	5
NMSI_	95	192	5	96	48	3
NMSTR	95	288	1
NMSI_	95	288	1	96	48	5
NMSTR	95	288	5
NMSI_	95	288	5	96	48	0
BRTAP	96	0	1
BRTAP	96	0	5
EXTAP	96	96	3
EXTAP	96	96	7
NMSTR	96	144	3
NMSI_	96	144	3	96	48	1
EXTAP	96	144	7
NMSTR	96	240	5
NMSI_	96	240	5	96	48	7
NMSTR	96	336	4
NMSI_	96	336	4	96	48	0
NMTAP	97	48	6
NMTAP	97	96	6
NMSTR	97	192	1
NMSCR	97	192	1	96	48	4
NMSTR	97	192	7
NMSCL	97	192	7	96	48	4
NMTAP	97	288	1
NMTAP	97	288	7
NMTAP	98	0	2
NMTAP	98	0	6
NMTAP	98	48	2
NMTAP	98	48	6
NMTAP	98	144	1
NMTAP	98	144	7
NMTAP	98	240	4
NMTAP	98	240	6
NMTAP	98	288	4
NMTAP	98	288	6
NMTAP	99	0	1
NMTAP	99	0	3
NMSTR	99	96	0
BRSCL	99	96	0	96	24	7
NMTAP	99	96	7
NMSTR	99	192	0
NMSCR	99	192	0	96	48	3
NMSV_	99	192	0	96	48	3
CNSV_	99	216	7	0	24	5
NMSTR	99	288	0
BRSCL	99	288	0	96	24	7
NMSTR	100	0	0
NMSCR	100	0	0	96	48	3
NMSV_	100	0	0	96	48	3
CNSV_	100	24	7	0	24	5
NMSTR	100	96	0
BRSCL	100	96	0	96	24	7
NMSTR	100	192	0
NMSCR	100	192	0	96	48	3
NMSV_	100	192	0	96	48	3
CNSV_	100	216	7	0	24	5
NMSTR	100	288	0
BRSCL	100	288	0	96	24	7
BRTAP	101	0	0
CNSV_	101	24	7	0	24	5
NMTAP	101	96	2
NMTAP	101	192	1
NMTAP	101	192	5
NMTAP	101	240	6
NMTAP	101	288	0
NMTAP	101	288	7
NMTAP	101	336	1
NMTAP	102	0	2
NMTAP	102	0	3
NMTAP	102	48	4
BRSTR	102	96	1
NMSI_	102	96	1	96	48	4
BRSTR	102	96	5
NMSI_	102	96	5	96	48	0
BRTAP	102	192	1
BRTAP	102	192	5
BRSTR	103	0	0
NMSSL	103	0	0	96	48	4
BRTAP	103	96	0
EXSTR	103	192	6
NMSI_	103	192	6	96	48	0
NMTAP	103	288	3
NMSTR	103	288	6
NMSI_	103	288	6	96	48	2
NMSTR	104	0	4
NMSI_	104	0	4	96	48	0
NMTAP	104	0	6
NMTAP	104	96	7
NMSTR	104	144	7
NMSCL	104	144	7	96	48	4
NMSTR	104	240	3
NMSI_	104	240	3	96	48	0
NMSI_	104	240	3	96	48	6
EXTAP	105	48	1
EXTAP	105	48	5
EXSTR	105	96	1
NMSI_	105	96	1	96	48	3
EXTAP	105	96	5
NMSTR	105	192	1
NMSI_	105	192	1	96	48	7
NMTAP	105	192	4
NMSTR	105	288	1
NMSI_	105	288	1	96	48	5
NMTAP	105	288	4
NMTAP	106	0	1
NMSTR	106	0	3
NMSI_	106	0	3	96	48	7
NMTAP	106	96	0
NMSTR	106	144	0
NMSCR	106	144	0	96	48	3
NMSTR	106	240	4
NMSI_	106	240	4	96	48	1
NMSI_	106	240	4	96	48	7
EXTAP	107	48	2
EXTAP	107	48	6
EXSTR	107	96	2
NMSI_	107	96	2	96	48	4
EXTAP	107	96	6
NMSTR	107	192	2
NMSI_	107	192	2	96	48	0
NMTAP	107	192	7
NMSTR	107	288	2
NMSI_	107	288	2	96	48	6
NMTAP	107	288	7
NMTAP	108	0	2
NMSTR	108	0	7
NMSI_	108	0	7	96	48	3
NMTAP	108	96	1
NMSTR	108	144	1
NMSCR	108	144	1	96	48	4
NMSTR	108	240	7
NMSI_	108	240	7	96	48	2
NMSI_	108	240	7	96	48	4
EXTAP	109	48	1
EXTAP	109	48	5
EXTAP	109	96	1
EXSTR	109	96	5
NMSI_	109	96	5	96	48	3
NMTAP	109	192	0
NMSTR	109	192	5
NMSI_	109	192	5	96	48	7
NMTAP	109	288	0
NMSTR	109	288	5
NMSI_	109	288	5	96	48	1
NMTAP	110	0	0
NMTAP	110	0	5
NMTAP	110	96	2
NMTAP	110	96	7
NMTAP	110	144	2
NMSTR	110	144	7
NMSI_	110	144	7	96	48	3
NMSTR	110	240	1
NMSI_	110	240	1	96	48	5
NMTAP	110	240	7
NMTAP	110	336	1
NMTAP	110	336	4
NMSTR	111	48	0
BRSSL	111	48	0	96	48	4
NMTAP	111	60	1
NMTAP	111	72	2
NMTAP	111	84	3
NMTAP	111	96	4
NMTAP	111	108	5
NMTAP	111	120	6
NMTAP	111	132	7
BXTAP	111	144	0

T_REC_TAP	447
T_REC_BRK	24
T_REC_XTP	34
T_REC_BXX	8
T_REC_HLD	21
T_REC_XHO	0
T_REC_BHO	1
T_REC_BXH	0
T_REC_STR	167
T_REC_BST	6
T_REC_XST	11
T_REC_XBS	1
T_REC_TTP	67
T_REC_THO	0
T_REC_SLD	188
T_REC_BSL	7
T_REC_ALL	982
T_NUM_TAP	726
T_NUM_BRK	47
T_NUM_HLD	21
T_NUM_SLD	188
T_NUM_ALL	982
T_JUDGE_TAP	765
T_JUDGE_HLD	49
T_JUDGE_SLD	195
T_JUDGE_ALL	1009
TTM_EACHPAIRS	215
TTM_SCR_TAP	363000
TTM_SCR_BRK	122200
TTM_SCR_HLD	21000
TTM_SCR_SLD	282000
TTM_SCR_ALL	788200
TTM_SCR_S	760000
TTM_SCR_SS	783500
TTM_RAT_ACV	10059

