VERSION	0.00.00	1.04.00
FES_MODE	0
BPM_DEF	196.000	196.000	196.000	196.000
MET_DEF	4	4
RESOLUTION	384
CLK_DEF	384
COMPATIBLE_CODE	MA2

BPM	0	0	196.000
MET	0	0	4	4
MET	61	0	4	2
MET	61	192	4	4

BXTAP	1	0	3
BXTAP	1	0	4
NMTAP	3	0	2
NMTAP	3	48	2
NMTAP	3	96	5
NMTAP	3	144	5
NMTAP	3	192	3
NMTAP	3	240	3
NMTAP	3	288	4
NMTAP	3	336	4
NMTAP	4	0	3
NMTAP	4	0	4
BXTAP	4	96	2
BXTAP	4	96	3
BXTAP	4	192	0
BXTAP	4	192	7
BXTAP	4	288	2
BXTAP	4	288	6
NMTAP	5	0	4
NMTAP	5	0	5
NMTAP	5	96	6
NMTAP	5	192	2
NMTAP	5	192	3
NMTAP	5	288	1
NMTAP	5	336	1
NMTAP	6	48	7
NMTAP	6	144	0
NMTAP	6	144	6
NMTAP	6	240	1
NMTAP	6	240	5
NMTAP	6	288	1
NMTAP	6	288	5
NMTAP	7	0	2
NMTAP	7	0	3
NMTAP	7	96	1
NMTAP	7	192	4
NMTAP	7	192	5
NMTAP	7	288	6
NMTAP	7	336	6
NMSTR	8	48	1
NMSCR	8	48	1	96	144	5
NMTAP	8	48	7
NMTAP	9	0	6
NMTAP	9	0	7
NMTAP	9	96	5
NMTAP	9	192	0
NMTAP	9	192	1
NMTAP	9	288	2
NMTAP	9	336	2
NMTAP	10	48	4
NMTAP	10	144	3
NMTAP	10	144	5
NMTAP	10	240	2
NMTAP	10	240	6
NMTAP	10	288	2
NMTAP	10	288	6
NMTAP	11	0	1
NMTAP	11	48	1
NMTAP	11	96	4
NMTAP	11	144	4
NMTAP	11	192	3
NMTAP	11	240	3
NMTAP	11	288	6
EXTAP	11	336	6
EXTAP	12	48	4
EXTAP	12	48	6
EXTAP	12	144	0
EXTAP	12	144	7
BXTAP	12	240	1
BXTAP	12	240	6
NMHLD	13	0	2	384
NMTAP	13	96	4
NMTAP	13	192	3
NMTAP	13	288	4
NMHLD	14	0	5	384
NMTAP	14	96	3
NMTAP	14	192	4
NMTAP	14	288	3
NMHLD	15	0	2	384
NMTAP	15	96	4
NMTAP	15	192	3
NMTAP	15	288	4
NMSTR	16	0	6
BRSLL	16	0	6	96	192	2
NMHLD	17	0	1	384
NMTAP	17	96	7
NMTAP	17	192	0
NMTAP	17	288	7
NMHLD	18	0	6	384
NMTAP	18	96	0
NMTAP	18	192	7
NMTAP	18	288	0
NMTAP	19	0	1
NMTAP	19	96	2
NMTAP	19	192	3
NMTAP	19	288	4
NMHLD	19	336	4	96
NMTAP	20	48	2
NMHLD	20	96	2	96
NMTAP	20	192	3
NMTAP	20	288	2
NMTAP	20	288	4
NMTAP	21	0	3
NMTAP	21	0	4
BXTAP	21	96	2
BXTAP	21	96	3
BXTAP	21	192	0
BXTAP	21	192	7
BXTAP	21	288	4
BXTAP	21	288	5
NMHLD	22	0	6	96
NMHLD	22	96	7	96
NMHLD	22	192	0	96
NMTAP	22	288	1
NMTAP	23	0	2
NMTAP	23	0	3
BXTAP	23	96	4
BXTAP	23	96	5
BXTAP	23	192	0
BXTAP	23	192	7
BXTAP	23	288	2
BXTAP	23	288	3
NMHLD	24	0	1	96
NMHLD	24	96	0	96
NMHLD	24	192	7	96
NMTAP	24	288	6
EXTAP	25	0	0
EXTAP	25	0	6
BXTAP	25	96	6
BXTAP	25	96	7
BXTAP	25	192	3
BXTAP	25	192	4
BXTAP	25	288	0
BXTAP	25	288	1
NMHLD	26	0	2	96
NMHLD	26	96	3	96
NMHLD	26	192	4	96
NMTAP	26	288	5
NMTAP	27	0	6
NMTAP	27	0	7
BXTAP	27	96	0
BXTAP	27	96	1
BXTAP	27	192	3
BXTAP	27	192	4
BXTAP	27	288	6
BXTAP	27	288	7
BXTAP	28	0	3
BXTAP	28	0	4
BXTAP	28	96	0
BXTAP	28	96	1
BXTAP	28	192	3
BXTAP	28	192	4
BXTAP	28	288	1
BXTAP	28	288	6
NMSTR	29	0	0
NMSUR	29	0	0	96	96	4
NMSTR	29	192	7
NMSUL	29	192	7	96	96	3
NMSTR	30	0	2
NMSCL	30	0	2	96	192	5
NMTAP	31	0	4
NMTAP	31	96	2
NMTAP	31	96	4
NMTAP	31	192	3
NMTAP	31	288	3
NMTAP	31	288	5
NMTAP	32	0	3
NMTAP	32	0	4
NMTAP	32	48	3
NMTAP	32	48	4
NMTAP	32	144	2
NMTAP	32	144	5
NMTAP	32	240	1
NMTAP	32	240	6
BRTAP	32	336	0
BRTAP	32	336	7
NMTAP	33	96	1
NMTAP	33	144	0
NMTAP	33	144	1
NMTAP	33	240	6
NMTAP	33	288	6
NMTAP	33	288	7
NMTAP	34	0	1
NMTAP	34	48	1
NMTAP	34	96	5
NMTAP	34	144	5
NMTAP	34	192	3
NMTAP	34	240	3
NMTAP	34	288	3
NMTAP	34	288	4
NMTHO	35	0	0	336	C	0	M1
NMTTP	35	0	2	B	0	M1
NMTTP	35	0	5	B	0	M1
NMTAP	36	144	0
NMTAP	36	144	7
NMTAP	36	192	0
NMTAP	36	192	7
BRSTR	36	288	1
NMSI_	36	288	1	96	48	3
BRTAP	36	288	7
NMSTR	37	0	0
NMSI_	37	0	0	96	48	4
NMSTR	37	96	1
NMSI_	37	96	1	96	48	3
NMTAP	37	192	0
NMTAP	37	288	0
NMTAP	37	288	1
NMTAP	37	336	0
NMTAP	37	336	1
NMTAP	38	48	6
NMTAP	38	48	7
NMTAP	38	144	4
NMTAP	38	144	5
NMTAP	38	240	3
NMTAP	38	240	6
NMTAP	38	288	3
NMTAP	38	288	6
NMTAP	39	0	2
NMTAP	39	48	2
NMTAP	39	96	4
NMTAP	39	144	4
NMTAP	39	192	3
NMTAP	39	240	3
NMTAP	39	288	5
NMHLD	39	336	5	144
NMTAP	40	48	4
NMTAP	40	96	4
NMTAP	40	192	4
NMTAP	40	192	5
NMSTR	40	288	2
NMSI_	40	288	2	96	48	0
NMTAP	40	288	3
NMTAP	41	96	4
NMSTR	41	96	5
NMSI_	41	96	5	96	48	7
NMSTR	41	288	2
NMSI_	41	288	2	96	48	0
NMTAP	41	288	3
NMTAP	42	96	4
NMSTR	42	96	5
NMSI_	42	96	5	96	48	7
NMTAP	42	288	1
NMTAP	43	0	2
NMTAP	43	0	3
NMTAP	43	96	0
NMTAP	43	96	1
NMTAP	43	192	6
NMTAP	43	192	7
NMTAP	43	288	4
NMTAP	43	288	5
NMTAP	43	336	4
NMTAP	43	336	5
NMTAP	44	48	2
NMTAP	44	48	3
BRTAP	44	144	0
BRTAP	44	144	5
EXTAP	44	240	6
EXSTR	44	288	6
NMSI_	44	288	6	96	48	4
NMSTR	45	0	7
NMSI_	45	0	7	96	48	3
NMSTR	45	96	6
NMSI_	45	96	6	96	48	4
NMTAP	45	192	7
NMTAP	45	288	6
NMTAP	45	288	7
NMTAP	45	336	6
NMTAP	45	336	7
NMTAP	46	48	0
NMTAP	46	48	1
NMTAP	46	144	2
NMTAP	46	144	3
NMTAP	46	240	1
NMTAP	46	240	4
NMTAP	46	288	1
NMTAP	46	288	4
NMTAP	47	0	5
NMTAP	47	48	5
NMTAP	47	96	3
NMTAP	47	144	3
NMTAP	47	192	4
NMTAP	47	240	4
NMTAP	47	288	2
NMHLD	47	336	2	144
NMTAP	48	48	3
NMTAP	48	96	3
NMTAP	48	192	2
NMTAP	48	192	3
NMTAP	48	288	4
NMTAP	48	288	6
BRSTR	49	0	1
NMSI_	49	0	1	96	48	4
BRSTR	49	0	7
NMSI_	49	0	7	96	48	4
BRSTR	49	192	0
NMSI_	49	192	0	96	48	3
BRSTR	49	192	6
NMSI_	49	192	6	96	48	3
BRSTR	50	0	1
NMSI_	50	0	1	96	48	4
BRSTR	50	0	7
NMSI_	50	0	7	96	48	4
BRSTR	50	192	0
NMSV_	50	192	0	96	48	3
BRSTR	50	192	6
NMSV_	50	192	6	96	48	3
NMTAP	51	0	2
NMTAP	51	48	2
NMTAP	51	96	6
NMTAP	51	144	6
NMTAP	51	192	0
NMTAP	51	240	0
NMTAP	51	288	7
NMHLD	51	336	7	144
BRTAP	52	96	0
BRTAP	52	192	3
BRTAP	52	192	4
BRTAP	52	288	1
BRTAP	52	288	6
NMTAP	53	0	2
NMTAP	53	0	3
NMTAP	53	96	1
NMTAP	53	192	4
NMTAP	53	192	5
NMTAP	53	288	6
NMTAP	53	336	6
NMTAP	54	48	0
NMTAP	54	144	1
NMTAP	54	144	7
NMTAP	54	240	2
NMTAP	54	240	6
NMTAP	54	288	2
NMTAP	54	288	6
NMTAP	55	0	4
NMTAP	55	0	5
NMTAP	55	96	6
NMTAP	55	192	2
NMTAP	55	192	3
NMTAP	55	288	1
NMTAP	55	336	1
NMTAP	56	48	0
NMSTR	56	48	6
NMSCL	56	48	6	96	144	2
NMTAP	57	0	0
NMTAP	57	0	1
NMTAP	57	96	2
NMTAP	57	192	6
NMTAP	57	192	7
NMTAP	57	288	5
NMTAP	57	336	5
NMTAP	58	48	3
NMTAP	58	144	2
NMTAP	58	144	4
NMTAP	58	240	1
NMTAP	58	240	5
NMTAP	58	288	1
NMTAP	58	288	5
NMTAP	59	0	6
NMTAP	59	48	6
NMTAP	59	96	3
NMTAP	59	144	3
NMTAP	59	192	4
NMTAP	59	240	4
NMTAP	59	288	1
EXTAP	59	336	1
EXTAP	60	48	1
EXTAP	60	48	3
EXTAP	60	144	0
EXTAP	60	144	7
BXSTR	60	240	1
NMSCR	60	240	1	96	144	4
BXTAP	60	240	6
EXTAP	61	192	5
EXHLD	61	288	5	480
NMTTP	62	0	7	B	0	M1
NMTTP	62	96	6	B	0	M1
NMTTP	62	192	5	B	0	M1
NMTTP	62	288	4	B	0	M1
NMTTP	63	0	3	B	0	M1
EXTAP	63	96	2
EXTAP	63	96	4
NMHLD	63	192	2	576
NMTTP	63	288	0	E	0	M1
NMTTP	64	0	1	E	0	M1
NMTTP	64	96	2	E	0	M1
NMTTP	64	192	3	E	0	M1
NMTTP	64	288	4	E	0	M1
NMTAP	65	0	5
NMTAP	65	96	4
NMTAP	65	96	5
NMTAP	65	192	6
NMHLD	65	288	6	480
NMTTP	66	0	6	E	0	M1
NMTTP	66	96	5	E	0	M1
NMTTP	66	192	4	E	0	M1
NMTTP	66	288	3	E	0	M1
NMTTP	67	0	2	E	0	M1
NMTAP	67	96	1
NMTAP	67	96	7
NMTAP	67	192	6
NMTAP	67	288	5
NMTAP	68	0	4
NMTAP	68	96	2
NMTAP	68	144	2
NMTAP	68	144	3
NMTAP	68	240	5
NMTAP	68	288	4
NMTAP	68	288	5
NMTAP	69	0	2
NMTAP	69	0	4
NMTAP	69	96	3
NMTAP	69	96	4
NMTAP	69	192	4
NMTAP	69	192	6
NMTAP	69	240	4
NMTAP	69	240	6
NMTAP	69	336	2
NMTAP	69	336	3
NMTAP	70	0	2
NMTAP	70	0	3
NMTAP	70	48	1
NMTAP	70	48	4
NMTAP	70	144	2
NMTAP	70	144	5
NMTAP	70	240	0
NMTAP	70	240	7
NMTAP	70	336	1
NMTAP	70	336	6
BRTAP	71	0	1
BRTAP	71	0	6
NMTAP	71	192	0
NMHLD	71	192	1	96
NMTAP	71	288	7
NMHLD	72	0	6	96
NMTAP	72	0	7
NMTAP	72	96	0
NMTAP	72	192	1
NMHLD	72	192	3	96
NMTAP	72	288	2
NMHLD	73	0	4	96
NMTAP	73	0	6
NMTAP	73	96	5
NMHLD	73	192	1	96
NMTAP	73	192	3
NMTAP	73	288	2
NMTAP	74	0	4
NMHLD	74	0	6	96
NMTAP	74	96	5
NMTAP	74	192	6
NMSTR	74	192	7
NMSSR	74	192	7	96	192	3
EXTAP	75	192	3
EXHLD	75	192	4	96
NMHLD	75	288	5	96
NMHLD	76	0	6	96
NMHLD	76	96	7	96
NMHLD	76	192	0	96
NMHLD	76	288	1	96
NMHLD	77	0	2	96
NMTAP	77	96	3
NMTAP	77	192	3
NMTAP	77	192	4
NMTAP	77	288	3
NMTAP	77	288	5
NMTAP	77	336	3
NMTAP	77	336	5
NMTAP	78	48	2
NMTAP	78	48	4
NMTAP	78	96	2
NMTAP	78	96	4
BRSTR	78	192	1
NMSCR	78	192	1	96	192	4
BRSTR	78	192	5
NMSUL	78	192	5	96	192	0
EXSTR	79	192	7
NMSUL	79	192	7	96	96	3
NMSTR	80	0	0
NMSUR	80	0	0	96	96	4
NMSTR	80	192	5
NMSCR	80	192	5	96	192	2
NMTAP	81	192	3
NMTAP	81	288	3
NMTAP	81	288	5
NMTAP	82	0	4
NMTAP	82	96	2
NMTAP	82	96	4
NMTAP	82	192	3
NMTAP	82	192	4
NMTAP	82	240	3
NMTAP	82	240	4
NMTAP	82	336	2
NMTAP	82	336	5
NMTAP	83	48	1
NMTAP	83	48	6
BRTAP	83	144	0
BRTAP	83	144	7
NMTAP	83	288	6
NMTAP	83	336	6
NMTAP	83	336	7
NMTAP	84	48	1
NMTAP	84	96	0
NMTAP	84	96	1
NMTAP	84	192	6
NMTAP	84	240	6
NMTAP	84	288	2
NMTAP	84	336	2
NMTAP	85	0	4
NMTAP	85	48	4
NMTAP	85	96	3
NMTAP	85	96	4
NMTHO	85	192	0	336	C	0	M1
NMTTP	85	192	1	B	0	M1
NMTTP	85	192	2	B	0	M1
NMTTP	85	192	2	E	0	M1
NMTTP	85	192	5	B	0	M1
NMTTP	85	192	6	B	0	M1
NMTTP	85	192	6	E	0	M1
NMTAP	86	336	0
NMTAP	86	336	7
NMTAP	87	0	0
NMTAP	87	0	7
BRSTR	87	96	1
NMSI_	87	96	1	96	48	4
BRTAP	87	96	7
NMSTR	87	192	0
NMSI_	87	192	0	96	48	5
NMSTR	87	288	1
NMSI_	87	288	1	96	48	4
NMTAP	88	0	0
NMTAP	88	96	0
NMTAP	88	96	1
NMTAP	88	144	0
NMTAP	88	144	1
NMTAP	88	240	6
NMTAP	88	240	7
NMTAP	88	336	4
NMTAP	88	336	5
NMTAP	89	48	3
NMTAP	89	48	6
NMTAP	89	96	3
NMTAP	89	96	6
NMTAP	89	192	2
NMTAP	89	240	2
NMTAP	89	288	3
NMTAP	89	336	3
NMTAP	90	0	4
NMTAP	90	48	4
NMTAP	90	96	5
NMHLD	90	144	5	144
NMTAP	90	240	4
NMTAP	90	288	4
NMTAP	91	0	4
NMTAP	91	0	5
NMSTR	91	96	2
NMSI_	91	96	2	96	48	7
NMTAP	91	96	3
NMTAP	91	288	4
NMSTR	91	288	5
NMSI_	91	288	5	96	48	0
NMSTR	92	96	2
NMSI_	92	96	2	96	48	7
NMTAP	92	96	3
NMTAP	92	288	4
NMSTR	92	288	5
NMSI_	92	288	5	96	48	0
NMTAP	93	96	1
NMTAP	93	192	2
NMTAP	93	192	3
NMTAP	93	288	6
NMTAP	93	288	7
NMTAP	94	0	4
NMTAP	94	0	5
NMTAP	94	96	0
NMTAP	94	96	1
NMTAP	94	144	0
NMTAP	94	144	1
NMTAP	94	240	2
NMTAP	94	240	3
BRTAP	94	336	0
BRTAP	94	336	5
EXTAP	95	48	6
EXSTR	95	96	6
NMSI_	95	96	6	96	48	3
NMSTR	95	192	7
NMSI_	95	192	7	96	48	2
NMSTR	95	288	6
NMSI_	95	288	6	96	48	3
NMTAP	96	0	7
NMTAP	96	96	6
NMTAP	96	96	7
NMTAP	96	144	6
NMTAP	96	144	7
NMTAP	96	240	0
NMTAP	96	240	1
NMTAP	96	336	2
NMTAP	96	336	3
NMTAP	97	48	1
NMTAP	97	48	4
NMTAP	97	96	1
NMTAP	97	96	4
NMTAP	97	192	5
NMTAP	97	240	5
NMTAP	97	288	4
NMTAP	97	336	4
NMTAP	98	0	3
NMTAP	98	48	3
NMTAP	98	96	2
NMHLD	98	144	2	144
NMTAP	98	240	3
NMTAP	98	288	3
NMTAP	99	0	2
NMTAP	99	0	3
NMTAP	99	96	4
NMTAP	99	96	5
BRSTR	99	192	0
NMSI_	99	192	0	96	48	3
BRSTR	99	192	6
NMSI_	99	192	6	96	48	3
BRSTR	100	0	1
NMSI_	100	0	1	96	48	4
BRSTR	100	0	7
NMSI_	100	0	7	96	48	4
BRSTR	100	192	0
NMSI_	100	192	0	96	48	3
BRSTR	100	192	6
NMSI_	100	192	6	96	48	3
BRSTR	101	0	1
NMSV_	101	0	1	96	48	4
BRSTR	101	0	7
NMSV_	101	0	7	96	48	4
NMTAP	101	192	5
NMTAP	101	240	5
NMTAP	101	288	1
NMTAP	101	336	1
NMTAP	102	0	7
NMTAP	102	48	7
NMTAP	102	96	0
NMHLD	102	144	0	144
BRTAP	102	288	7
BRTAP	103	0	3
BRTAP	103	0	4
BRTAP	103	96	1
BRTAP	103	96	6
NMTAP	103	192	4
NMTAP	103	192	5
NMTAP	103	288	6
NMTAP	104	0	2
NMTAP	104	0	3
NMTAP	104	96	1
NMTAP	104	144	1
NMTAP	104	240	7
NMTAP	104	336	0
NMTAP	104	336	6
NMTAP	105	48	1
NMTAP	105	48	5
NMTAP	105	96	1
NMTAP	105	96	5
NMTAP	105	192	2
NMTAP	105	192	3
NMTAP	105	288	1
NMTAP	106	0	4
NMTAP	106	0	5
NMTAP	106	96	6
NMTAP	106	144	6
NMSTR	106	240	1
NMSLR	106	240	1	96	144	5
NMTAP	106	240	7
NMTAP	107	192	6
NMTAP	107	192	7
NMTAP	107	288	5
NMTAP	108	0	0
NMTAP	108	0	1
NMTAP	108	96	2
NMTAP	108	144	2
NMTAP	108	240	4
NMTAP	108	336	3
NMTAP	108	336	5
NMTAP	109	48	2
NMTAP	109	48	6
NMTAP	109	96	2
NMTAP	109	96	6
NMTAP	109	192	1
NMTAP	109	240	1
NMTAP	109	288	0
NMTAP	109	336	0
NMTAP	110	0	7
NMTAP	110	48	7
NMTAP	110	96	6
NMTAP	110	144	6
NMTAP	110	240	4
NMTAP	110	240	5
NMTAP	110	336	2
NMTAP	110	336	3
NMSTR	111	48	0
BRSI_	111	48	0	96	48	4
NMSTR	111	48	1
BRSI_	111	48	1	96	48	5

T_REC_TAP	447
T_REC_BRK	22
T_REC_XTP	18
T_REC_BXX	43
T_REC_HLD	36
T_REC_XHO	2
T_REC_BHO	0
T_REC_BXH	0
T_REC_STR	28
T_REC_BST	20
T_REC_XST	3
T_REC_XBS	1
T_REC_TTP	23
T_REC_THO	2
T_REC_SLD	49
T_REC_BSL	3
T_REC_ALL	697
T_NUM_TAP	519
T_NUM_BRK	89
T_NUM_HLD	40
T_NUM_SLD	49
T_NUM_ALL	697
T_JUDGE_TAP	605
T_JUDGE_HLD	152
T_JUDGE_SLD	52
T_JUDGE_ALL	809
TTM_EACHPAIRS	194
TTM_SCR_TAP	259500
TTM_SCR_BRK	231400
TTM_SCR_HLD	40000
TTM_SCR_SLD	73500
TTM_SCR_ALL	604400
TTM_SCR_S	577650
TTM_SCR_SS	595500
TTM_RAT_ACV	10149

